<?xml version="1.0" standalone="no"?>
<!DOCTYPE svg PUBLIC "-//W3C//DTD SVG 1.1//EN" "http://www.w3.org/Graphics/SVG/1.1/DTD/svg11.dtd" >
<svg xmlns="http://www.w3.org/2000/svg">
<metadata></metadata>
<defs>
<font id="champion_htf-bantamweightRg" horiz-adv-x="534" >
<font-face units-per-em="2048" ascent="1638" descent="-410" />
<missing-glyph horiz-adv-x="235" />
<glyph horiz-adv-x="2048" />
<glyph horiz-adv-x="2048" />
<glyph unicode="&#xd;" horiz-adv-x="2048" />
<glyph unicode=" "  horiz-adv-x="235" />
<glyph unicode="&#x09;" horiz-adv-x="235" />
<glyph unicode="&#xa0;" horiz-adv-x="235" />
<glyph unicode="!" horiz-adv-x="282" d="M51 1133v505h180v-505l-38 -785h-103zM55 0v217h174v-217h-174z" />
<glyph unicode="&#x22;" horiz-adv-x="507" d="M37 1235l80 186h-72v217h176v-217l-129 -186h-55zM279 1235l79 186h-71v217h176v-217l-129 -186h-55z" />
<glyph unicode="#" horiz-adv-x="888" d="M14 393v219h152l45 416h-127v217h154l41 393h176l-41 -393h139l43 393h174l-41 -393h125v-217h-152l-45 -416h125v-219h-151l-43 -393h-174l41 393h-140l-43 -393h-176l43 393h-125zM342 612h139l45 416h-141z" />
<glyph unicode="$" horiz-adv-x="546" d="M14 281v198h179v-225q0 -35 18.5 -61.5t46.5 -26.5q29 0 45 23t16 63q0 121 -27 229t-91 258q-181 406 -181 594q0 124 45.5 207t133.5 109v125h141v-125q75 -26 121.5 -106.5t46.5 -184.5v-219h-176v250q0 34 -18.5 53.5t-41.5 19.5q-22 0 -39.5 -19.5t-17.5 -53.5 q0 -141 21.5 -223t86.5 -237q11 -26 17 -40q55 -131 86.5 -213.5t59.5 -191t28 -189.5q0 -75 -16.5 -132.5t-45.5 -92.5t-60.5 -55t-69.5 -29v-111h-138v117q-79 27 -124.5 106t-45.5 183z" />
<glyph unicode="%" horiz-adv-x="1286" d="M39 944v455q0 115 65.5 187.5t159.5 72.5q96 0 160.5 -72.5t64.5 -187.5v-455q0 -115 -64.5 -187.5t-160.5 -72.5q-94 0 -159.5 72.5t-65.5 187.5zM201 0l727 1638h159l-729 -1638h-157zM225 928q0 -20 12 -34.5t27 -14.5q17 0 28 14t11 35v487q0 21 -11 35t-28 14 q-15 0 -27 -14.5t-12 -34.5v-487zM799 240v454q0 115 64.5 187.5t158.5 72.5q96 0 160.5 -72.5t64.5 -187.5v-454q0 -115 -64.5 -187.5t-160.5 -72.5q-94 0 -158.5 72.5t-64.5 187.5zM983 223q0 -20 12 -34.5t27 -14.5q17 0 29 14.5t12 34.5v488q0 20 -12 34.5t-29 14.5 q-15 0 -27 -14.5t-12 -34.5v-488z" />
<glyph unicode="&#x26;" horiz-adv-x="819" d="M16 403q0 122 56.5 256t132.5 218q-2 5 -12 37.5t-12.5 39.5t-11 36t-11 39t-9.5 36t-9 39.5t-6.5 37t-6 41t-3 39t-1.5 42.5q0 193 72.5 294t201.5 101q111 0 167.5 -89t56.5 -237q0 -281 -199 -520q36 -209 67 -317q21 55 35.5 155.5t14.5 173.5h176q-3 -143 -40 -301 t-102 -268q19 -59 48 -59q45 0 45 94v102h153v-92q0 -158 -54.5 -239.5t-141.5 -81.5q-37 0 -87.5 24.5t-78.5 61.5q-77 -86 -181 -86q-108 0 -184 113.5t-76 309.5zM211 393q0 -79 26 -137.5t70 -58.5q42 0 62 41q-65 165 -99 370q-25 -35 -42 -97.5t-17 -117.5zM317 1348 q0 -176 37 -291q41 54 60.5 144t19.5 169q0 37 -16 57.5t-39 20.5q-27 0 -44.5 -27t-17.5 -73z" />
<glyph unicode="'" horiz-adv-x="266" d="M37 1235l80 186h-72v217h176v-217l-129 -186h-55z" />
<glyph unicode="(" horiz-adv-x="405" d="M39 616q0 376 84 689t227 487l53 -49q-80 -161 -130 -469t-50 -658q0 -352 49.5 -658t130.5 -468l-53 -53q-143 174 -227 488t-84 691z" />
<glyph unicode=")" horiz-adv-x="405" d="M2 -510q81 162 130.5 468t49.5 658q0 350 -50 658t-130 469l53 49q143 -174 227.5 -487t84.5 -689t-84.5 -690.5t-227.5 -488.5z" />
<glyph unicode="*" horiz-adv-x="720" d="M20 1190l123 70l101 34l-101 31l-123 72l80 139l123 -72l80 -69l-22 102v141h159v-141l-22 -104l80 71l120 70l82 -137l-122 -72l-101 -33l101 -32l120 -70l-80 -139l-120 71l-80 70l22 -102v-142h-159v142l20 102l-78 -70l-123 -71z" />
<glyph unicode="+" horiz-adv-x="626" d="M45 614v220h160v157h217v-157h160v-220h-160v-159h-217v159h-160z" />
<glyph unicode="," horiz-adv-x="266" d="M37 -184l80 184h-72v217h176v-217l-129 -184h-55z" />
<glyph unicode="-" horiz-adv-x="376" d="M45 614v220h287v-220h-287z" />
<glyph unicode="." horiz-adv-x="264" d="M45 0v217h174v-217h-174z" />
<glyph unicode="/" horiz-adv-x="571" d="M41 0l367 1638h180l-365 -1638h-182z" />
<glyph unicode="0" horiz-adv-x="565" d="M39 260v1118q0 122 71 201.5t173 79.5t172.5 -79.5t70.5 -201.5v-1118q0 -122 -70.5 -201t-172.5 -79t-173 79t-71 201zM231 246q0 -28 13.5 -44t38.5 -16q23 0 36 16t13 44v1147q0 28 -13 43.5t-36 15.5q-25 0 -38.5 -15.5t-13.5 -43.5v-1147z" />
<glyph unicode="1" horiz-adv-x="448" d="M16 1270v137q168 37 195 231h131v-1638h-190v1270h-136z" />
<glyph unicode="2" horiz-adv-x="516" d="M14 0q0 374 162 795q72 182 103.5 312.5t31.5 270.5q0 35 -14.5 54.5t-36.5 19.5t-37.5 -19.5t-15.5 -54.5v-260h-176v240q0 127 62.5 214t160.5 87q240 0 240 -346q0 -50 -8.5 -108.5t-16 -98t-30 -112t-29.5 -95t-36.5 -104.5t-31.5 -86q-86 -243 -119 -490h244v-219 h-453z" />
<glyph unicode="3" horiz-adv-x="503" d="M27 281v170h182v-195q0 -20 12 -34.5t27 -14.5q17 0 29 14.5t12 34.5v426q0 20 -12 34.5t-29 14.5h-86v197h86q17 0 29 14.5t12 34.5v405q0 20 -12 35t-29 15q-15 0 -27 -15t-12 -35v-194h-182v170q0 127 61.5 214t159.5 87q99 0 161 -87t62 -214v-373q0 -51 -23 -94.5 t-65 -63.5q42 -18 65 -61t23 -94v-391q0 -127 -62 -214t-161 -87q-98 0 -159.5 87t-61.5 214z" />
<glyph unicode="4" horiz-adv-x="528" d="M16 334v166l279 1138h154v-1108h59v-196h-59v-334h-177v334h-256zM201 530h71v312z" />
<glyph unicode="5" horiz-adv-x="522" d="M39 281v170h184v-195q0 -21 11 -35t28 -14q15 0 27 14.5t12 34.5v559q0 20 -12 34.5t-27 14.5q-17 0 -28 -14t-11 -35l-184 12l33 811h428q0 -196 -88 -196h-172l-15 -443q52 52 113 52q66 0 105.5 -58t39.5 -145v-567q0 -127 -61.5 -214t-159.5 -87t-160.5 87t-62.5 214 z" />
<glyph unicode="6" horiz-adv-x="522" d="M39 281v1077q0 127 61.5 214t159.5 87t160.5 -87t62.5 -214v-170h-184v194q0 21 -11 35.5t-28 14.5q-15 0 -27 -15t-12 -35v-413q20 23 52 37t63 14q66 0 106.5 -59t40.5 -146v-534q0 -127 -62.5 -214t-160.5 -87t-159.5 87t-61.5 214zM221 256q0 -20 12 -34.5t27 -14.5 q17 0 28 14t11 35v518q0 21 -11 35t-28 14q-15 0 -27 -14.5t-12 -34.5v-518z" />
<glyph unicode="7" horiz-adv-x="485" d="M43 0l217 1419h-217v219h430l-244 -1638h-186z" />
<glyph unicode="8" horiz-adv-x="522" d="M39 281v368q0 56 22 108t62 70q-40 19 -62 71.5t-22 107.5v352q0 127 62 214t161 87q98 0 159.5 -87t61.5 -214v-352q0 -55 -22 -107.5t-62 -71.5q40 -18 62 -70t22 -108v-368q0 -127 -61.5 -214t-159.5 -87q-99 0 -161 87t-62 214zM221 256q0 -20 12 -34.5t29 -14.5 q15 0 27 14.5t12 34.5v442q0 20 -12 35t-27 15q-17 0 -29 -15t-12 -35v-442zM221 961q0 -20 12 -35t29 -15q15 0 27 15t12 35v421q0 20 -12 35t-27 15q-17 0 -29 -15t-12 -35v-421z" />
<glyph unicode="9" horiz-adv-x="524" d="M39 281v170h184v-195q0 -21 11 -35t28 -14t28 14t11 35v424q-20 -23 -52 -37t-63 -14q-66 0 -106.5 59t-40.5 146v524q0 127 62.5 214t160.5 87t160.5 -87t62.5 -214v-1077q0 -127 -62.5 -214t-160.5 -87t-160.5 87t-62.5 214zM223 864q0 -21 11 -35t28 -14t28 14t11 35 v518q0 21 -11 35.5t-28 14.5t-28 -14.5t-11 -35.5v-518z" />
<glyph unicode=":" horiz-adv-x="264" d="M45 0v217h174v-217h-174zM45 750v217h174v-217h-174z" />
<glyph unicode=";" horiz-adv-x="266" d="M37 -184l80 184h-72v217h176v-217l-129 -184h-55zM45 750v217h176v-217h-176z" />
<glyph unicode="&#x3c;" d="M33 770l301 668l160 -109l-263 -559l263 -557l-160 -109z" />
<glyph unicode="=" horiz-adv-x="544" d="M45 459v219h455v-219h-455zM45 801v219h455v-219h-455z" />
<glyph unicode="&#x3e;" d="M41 213l262 557l-262 559l160 109l301 -668l-301 -666z" />
<glyph unicode="?" horiz-adv-x="512" d="M29 1118v240q0 127 61.5 214t159.5 87q117 0 176 -102t59 -277q0 -87 -18 -164.5t-44 -139t-52 -125t-44 -152.5t-18 -193q0 -59 23 -158h-166q-25 119 -25 207q0 91 16.5 173t40.5 148t48 135t40.5 163.5t16.5 203.5q0 34 -16 54t-37 20q-45 0 -45 -74v-260h-176zM162 0 v217h174v-217h-174z" />
<glyph unicode="@" horiz-adv-x="1533" d="M39 819q0 171 60 326.5t161 268t241.5 179t295.5 66.5q145 0 276 -59.5t222.5 -157t145.5 -227t54 -265.5q0 -108 -27.5 -201.5t-74.5 -159.5t-109 -113.5t-130.5 -70t-139.5 -22.5q-153 0 -195 133q-27 -55 -87 -87t-109 -32q-69 0 -102.5 53t-22.5 132l67 477 q10 75 69.5 128.5t131.5 53.5q38 0 61.5 -18t44.5 -56l9 54h198l-75 -525q-19 -141 71 -141q96 0 169 105.5t73 287.5q0 95 -38 190.5t-104 172.5t-165.5 125.5t-212.5 48.5q-155 0 -286.5 -89.5t-207.5 -242.5t-76 -334q0 -185 75 -337.5t205.5 -240t289.5 -87.5 q201 0 364 110l80 -125q-199 -159 -444 -159q-155 0 -295.5 66.5t-241.5 179t-161 267.5t-60 326zM698 653q-4 -21 9.5 -35t37.5 -14t43 14t23 35l45 332q3 22 -10.5 35.5t-36.5 13.5q-25 0 -44 -14t-22 -35z" />
<glyph unicode="A" horiz-adv-x="542" d="M16 0l134 1638h241l135 -1638h-196l-13 297h-112l-19 -297h-170zM221 506h84l-35 653z" />
<glyph unicode="B" horiz-adv-x="550" d="M45 0v1638h248q40 0 75 -11.5t68.5 -38.5t53.5 -80.5t20 -127.5v-376q0 -99 -88 -170q88 -71 88 -170v-406q0 -74 -20 -127.5t-53.5 -80.5t-68.5 -38.5t-75 -11.5h-248zM238 195h49q35 0 35 65v410q0 65 -35 65h-49v-540zM238 922h49q35 0 35 65v389q0 66 -35 66h-49 v-520z" />
<glyph unicode="C" horiz-adv-x="548" d="M39 260v1118q0 123 67 202t168 79t168.5 -79t67.5 -202v-336h-186v351q0 28 -13.5 43.5t-36.5 15.5t-36 -15.5t-13 -43.5v-1147q0 -28 13 -44t36 -16t36.5 16t13.5 44v350h186v-336q0 -123 -67.5 -201.5t-168.5 -78.5t-168 78.5t-67 201.5z" />
<glyph unicode="D" horiz-adv-x="565" d="M45 0v1638h264q40 0 75 -11.5t68.5 -38.5t53.5 -80.5t20 -127.5v-1122q0 -74 -20 -127.5t-53.5 -80.5t-68.5 -38.5t-75 -11.5h-264zM236 195h67q35 0 35 65v1116q0 66 -35 66h-67v-1247z" />
<glyph unicode="E" horiz-adv-x="466" d="M45 0v1638h397v-196h-206v-500h139v-197h-139v-548h206v-197h-397z" />
<glyph unicode="F" horiz-adv-x="464" d="M45 0v1638h397v-196h-206v-520h155v-197h-155v-725h-191z" />
<glyph unicode="G" horiz-adv-x="548" d="M39 260v1118q0 123 67 202t168 79t168.5 -79t67.5 -202v-336h-186v351q0 59 -50 59q-23 0 -36 -15.5t-13 -43.5v-1168q0 -28 14 -43.5t37 -15.5q25 0 39.5 15.5t14.5 43.5v400h-45v176h233v-801h-119l-16 39q-20 -28 -55.5 -43.5t-75.5 -15.5q-99 0 -156 72.5t-57 207.5z " />
<glyph unicode="H" horiz-adv-x="571" d="M45 0v1638h191v-727h100v727h190v-1638h-190v705h-100v-705h-191z" />
<glyph unicode="I" horiz-adv-x="294" d="M51 0v1638h193v-1638h-193z" />
<glyph unicode="J" horiz-adv-x="540" d="M31 260v367h184v-391q0 -28 13.5 -44t37.5 -16q23 0 36 16t13 44v1402h185v-1378q0 -123 -66.5 -201.5t-167.5 -78.5q-102 0 -168.5 78t-66.5 202z" />
<glyph unicode="K" horiz-adv-x="550" d="M45 0v1638h191v-749l110 749h182l-118 -751l141 -887h-193l-82 629l-40 -207v-422h-191z" />
<glyph unicode="L" horiz-adv-x="458" d="M45 0v1638h193v-1441h204v-197h-397z" />
<glyph unicode="M" horiz-adv-x="856" d="M45 0v1638h281l106 -925l135 925h244v-1638h-190v1147l-144 -1147h-133l-129 1149v-1149h-170z" />
<glyph unicode="N" horiz-adv-x="606" d="M45 0v1638h195l163 -909v909h158v-1638h-160l-196 895v-895h-160z" />
<glyph unicode="O" horiz-adv-x="565" d="M39 260v1118q0 122 71 201.5t173 79.5t172.5 -79.5t70.5 -201.5v-1118q0 -122 -70.5 -201t-172.5 -79t-173 79t-71 201zM231 246q0 -28 13.5 -44t38.5 -16q23 0 36 16t13 44v1147q0 28 -13 43.5t-36 15.5q-25 0 -38.5 -15.5t-13.5 -43.5v-1147z" />
<glyph unicode="P" horiz-adv-x="542" d="M45 0v1638h248q40 0 75 -11.5t68.5 -38.5t53.5 -80.5t20 -127.5v-440q0 -74 -20 -127t-53.5 -79.5t-68.5 -38t-75 -11.5h-55v-684h-193zM238 881h49q35 0 35 65v430q0 66 -35 66h-49v-561z" />
<glyph unicode="Q" horiz-adv-x="565" d="M39 260v1118q0 122 71 201.5t173 79.5t172.5 -79.5t70.5 -201.5v-1118q0 -105 -53 -179t-135 -95q-12 -32 -12 -64q0 -53 32 -53q16 0 23.5 15.5t7.5 35.5q0 21 -8 41h80q16 -43 16 -80q0 -59 -36 -94t-103 -35q-72 0 -108.5 38t-36.5 108q0 55 22 92q-78 24 -127 96.5 t-49 173.5zM231 246q0 -28 13.5 -44t38.5 -16q23 0 36 16t13 44v1147q0 28 -13 43.5t-36 15.5q-25 0 -38.5 -15.5t-13.5 -43.5v-1147z" />
<glyph unicode="R" horiz-adv-x="555" d="M45 0v1638h248q40 0 75 -11.5t68.5 -38.5t53.5 -80.5t20 -127.5v-417q0 -96 -88 -170q44 -37 68 -76.5t24 -93.5v-349q0 -94 27 -274h-191q-24 123 -24 254v385q0 29 -11 47.5t-32 18.5h-45v-705h-193zM238 891h49q35 0 35 65v420q0 66 -35 66h-49v-551z" />
<glyph unicode="S" horiz-adv-x="546" d="M14 281v198h176v-227q0 -33 20 -59.5t48 -26.5t44.5 23t16.5 63q0 120 -27.5 229t-92.5 258q-179 413 -179 594q0 149 64.5 237.5t191.5 88.5q99 0 165.5 -87.5t66.5 -213.5v-219h-178v250q0 34 -18 53.5t-40 19.5q-23 0 -41 -19.5t-18 -53.5q0 -33 1.5 -62t2.5 -51.5 t6.5 -50t8 -43t12 -45t12.5 -41t17 -46.5t19 -46.5t23 -55t25 -59.5q83 -196 127.5 -337t44.5 -257q0 -73 -17 -130.5t-42.5 -91.5t-60.5 -55.5t-66.5 -29.5t-63.5 -8q-113 0 -180.5 86.5t-67.5 214.5z" />
<glyph unicode="T" horiz-adv-x="495" d="M20 1423v215h455v-215h-127v-1423h-190v1423h-138z" />
<glyph unicode="U" horiz-adv-x="538" d="M41 260v1378h182v-1392q0 -28 13 -44t36 -16q25 0 38.5 16t13.5 44v1392h174v-1378q0 -124 -63 -202t-163 -78t-165.5 78t-65.5 202z" />
<glyph unicode="V" horiz-adv-x="532" d="M10 1638h189l73 -976l80 976h174l-166 -1638h-186z" />
<glyph unicode="W" horiz-adv-x="790" d="M6 1638h189l73 -862l70 862h113l71 -862l80 862h174l-168 -1638h-141l-72 784l-73 -784h-150z" />
<glyph unicode="X" horiz-adv-x="530" d="M0 0l154 821l-142 817h183l69 -495l80 495h174l-149 -776l143 -862h-182l-74 494l-80 -494h-176z" />
<glyph unicode="Y" horiz-adv-x="532" d="M4 1638h184l86 -608l80 608h174l-168 -911v-727h-194v727z" />
<glyph unicode="Z" horiz-adv-x="452" d="M-6 0l223 1442h-178v196h389l-225 -1441h205v-197h-414z" />
<glyph unicode="[" horiz-adv-x="378" d="M76 -563v2355h334v-199h-144v-1960h144v-196h-334z" />
<glyph unicode="\" horiz-adv-x="571" d="M-16 1638h180l366 -1638h-182z" />
<glyph unicode="]" horiz-adv-x="378" d="M-31 -367h144v1960h-144v199h334v-2355h-334v196z" />
<glyph unicode="^" horiz-adv-x="692" d="M94 1348l158 290h186l160 -290h-152l-100 141l-100 -141h-152z" />
<glyph unicode="_" horiz-adv-x="1114" d="M45 0v219h1024v-219h-1024z" />
<glyph unicode="`" horiz-adv-x="409" d="M96 1638h185l32 -290h-118z" />
<glyph unicode="a" horiz-adv-x="512" d="M27 240v129q0 70 19.5 131t59.5 113.5t79.5 90.5t99.5 87v194q0 21 -8.5 35t-22.5 14q-31 0 -31 -49v-135h-176v121q0 115 60.5 187.5t154.5 72.5q92 0 149.5 -72t57.5 -188v-721q0 -129 33 -250h-152l-8 68q-17 -41 -52 -64.5t-77 -23.5q-89 0 -137.5 69t-48.5 191z M205 233q0 -26 10.5 -42.5t30.5 -16.5q18 0 28.5 16.5t10.5 42.5v351q-80 -83 -80 -189v-162z" />
<glyph unicode="b" horiz-adv-x="536" d="M45 0v1638h186v-483q46 76 117 76q62 0 105 -54t43 -130v-885q0 -75 -43.5 -128.5t-104.5 -53.5q-73 0 -117 73l-8 -53h-178zM231 223q0 -21 11 -35t28 -14t28 14t11 35v762q0 21 -11 35t-28 14t-28 -14t-11 -35v-762z" />
<glyph unicode="c" horiz-adv-x="516" d="M39 240v731q0 114 64.5 187t158.5 73q95 0 160 -73t65 -187v-205h-186v219q0 21 -11 35t-28 14q-15 0 -27 -14.5t-12 -34.5v-762q0 -20 12 -34.5t27 -14.5q17 0 28 14t11 35v219h186v-202q0 -115 -64.5 -187.5t-160.5 -72.5q-94 0 -158.5 72.5t-64.5 187.5z" />
<glyph unicode="d" horiz-adv-x="536" d="M41 162v885q0 77 43 130.5t104 53.5q71 0 117 -76v483h187v-1638h-179l-8 53q-44 -73 -117 -73q-61 0 -104 53.5t-43 128.5zM227 223q0 -20 12 -34.5t27 -14.5q17 0 28 14t11 35v762q0 21 -11 35t-28 14q-15 0 -27 -14.5t-12 -34.5v-762z" />
<glyph unicode="e" horiz-adv-x="526" d="M39 240v731q0 114 64.5 187t158.5 73q95 0 160 -73t65 -187v-412h-264v-336q0 -20 12 -34.5t27 -14.5q17 0 28 14t11 35v219h186v-202q0 -115 -64.5 -187.5t-160.5 -72.5q-94 0 -158.5 72.5t-64.5 187.5zM223 711h78v274q0 21 -11 35t-28 14q-15 0 -27 -14.5t-12 -34.5 v-274z" />
<glyph unicode="f" horiz-adv-x="364" d="M20 1016v192h60v228q0 93 50.5 147.5t129.5 54.5h84v-213h-39q-17 0 -28 -14t-11 -35v-168h78v-192h-78v-1016h-186v1016h-60z" />
<glyph unicode="g" d="M16 268q0 66 38.5 115t92.5 57q-57 22 -82.5 88.5t-25.5 153.5v289q0 115 64.5 187.5t160.5 72.5q10 0 35.5 -3t30.5 -3q49 0 66.5 23t17.5 67h141q6 -44 6 -76q0 -69 -22 -105t-58 -36q-14 0 -30 8q36 -65 36 -156v-278q0 -113 -61.5 -190.5t-151.5 -82.5h-10 q-24 0 -38.5 -23.5t-14.5 -53.5q0 -33 15 -57.5t40 -24.5q111 0 174.5 -60.5t63.5 -175.5v-192q0 -132 -63.5 -196.5t-176.5 -64.5q-105 0 -170 65t-65 196v168q0 89 65 147q-33 15 -55.5 55.5t-22.5 85.5zM219 -4v-191q0 -24 14 -43.5t39 -19.5t40.5 19.5t15.5 43.5v191 q0 24 -14.5 42.5t-41.5 18.5t-40 -17.5t-13 -43.5zM225 645q0 -21 11 -35t28 -14q15 0 27 14.5t12 34.5v342q0 20 -12 34.5t-27 14.5q-17 0 -28 -14t-11 -35v-342z" />
<glyph unicode="h" d="M45 0v1638h184v-483q46 76 119 76q60 0 103 -54t43 -130v-1047h-185v985q0 20 -12 34.5t-27 14.5q-17 0 -29 -14.5t-12 -34.5v-985h-184z" />
<glyph unicode="i" horiz-adv-x="274" d="M45 0v1208h184v-1208h-184zM45 1337v217h184v-217h-184z" />
<glyph unicode="j" horiz-adv-x="276" d="M-33 -217h39q17 0 28 14t11 35v1376h186v-1435q0 -94 -50.5 -148.5t-129.5 -54.5h-84v213zM45 1335v219h186v-219h-186z" />
<glyph unicode="k" horiz-adv-x="526" d="M45 0v1638h186v-899l88 471h187l-125 -510l141 -700h-186l-84 453l-21 -88v-365h-186z" />
<glyph unicode="l" horiz-adv-x="276" d="M45 0v1638h186v-1638h-186z" />
<glyph unicode="m" horiz-adv-x="798" d="M45 0v1208h176l8 -53q46 76 119 76q85 0 131 -103q21 46 55.5 74.5t77.5 28.5q60 0 103 -54t43 -130v-1047h-185v975q0 20 -12 34.5t-29 14.5q-15 0 -26.5 -14.5t-11.5 -34.5v-975h-185v985q0 20 -12 34.5t-27 14.5q-17 0 -29 -14.5t-12 -34.5v-985h-184z" />
<glyph unicode="n" d="M45 0v1208h178l8 -53q46 76 117 76q60 0 103 -54t43 -130v-1047h-185v985q0 20 -12 34.5t-27 14.5q-17 0 -28 -14t-11 -35v-985h-186z" />
<glyph unicode="o" horiz-adv-x="528" d="M39 240v731q0 114 65 187t160 73t160 -73t65 -187v-731q0 -115 -64.5 -187.5t-160.5 -72.5t-160.5 72.5t-64.5 187.5zM225 223q0 -21 11 -35t28 -14t28 14t11 35v762q0 21 -11 35t-28 14t-28 -14t-11 -35v-762z" />
<glyph unicode="p" horiz-adv-x="536" d="M45 -430v1638h178l8 -53q44 74 117 74q61 0 104.5 -53.5t43.5 -128.5v-885q0 -76 -43 -129t-105 -53q-73 0 -117 73v-483h-186zM231 223q0 -21 11 -35t28 -14t28 14t11 35v762q0 21 -11 35t-28 14t-28 -14t-11 -35v-762z" />
<glyph unicode="q" d="M41 160v887q0 75 43 128.5t104 53.5q73 0 117 -74l8 53h176v-1638h-184v481q-44 -74 -117 -74q-61 0 -104 54t-43 129zM227 221q0 -21 11 -35t28 -14q15 0 27 14.5t12 34.5v762q0 21 -11.5 35t-27.5 14q-17 0 -28 -13.5t-11 -35.5v-762z" />
<glyph unicode="r" horiz-adv-x="393" d="M45 0v1208h176l8 -65q22 37 62 62.5t90 25.5v-227q-81 0 -116.5 -24t-35.5 -93v-887h-184z" />
<glyph unicode="s" horiz-adv-x="505" d="M23 928q0 141 66 222t159 81t159 -78t66 -192v-132h-178v152q0 21 -12 37t-31 16q-22 0 -32.5 -15.5t-10.5 -37.5t3 -44t6 -38t12.5 -40t14 -35t20 -39t20.5 -36.5t26 -42.5t27 -44q51 -84 74.5 -126.5t47 -114.5t23.5 -140q0 -136 -65 -218.5t-160 -82.5q-101 0 -164 76 t-63 194v115h180v-138q0 -22 12 -40.5t31 -18.5t31 18.5t12 40.5q0 91 -18 140t-107 196q-32 52 -50 83.5t-45 86t-40.5 103.5t-13.5 92z" />
<glyph unicode="t" horiz-adv-x="405" d="M20 1016v192h84v168h185v-168h96v-192h-96v-754q0 -20 12 -34.5t29 -14.5h47v-213h-94q-77 0 -128 64t-51 161v791h-84z" />
<glyph unicode="u" d="M41 162v1046h184v-985q0 -20 12 -34.5t29 -14.5q15 0 27 14.5t12 34.5v985h184v-1208h-176l-8 53q-44 -73 -119 -73q-60 0 -102.5 53.5t-42.5 128.5z" />
<glyph unicode="v" horiz-adv-x="477" d="M10 1208h172l54 -608l51 608h172l-150 -1208h-149z" />
<glyph unicode="w" horiz-adv-x="733" d="M10 1208h183l43 -608l59 608h139l62 -608l43 608h180l-158 -1208h-141l-62 569l-65 -569h-141z" />
<glyph unicode="x" horiz-adv-x="512" d="M4 0l146 600l-146 608h193l53 -319l53 319h195l-146 -563l146 -645h-195l-51 338l-55 -338h-193z" />
<glyph unicode="y" horiz-adv-x="493" d="M4 1208h182l60 -661l59 661h182l-196 -1435q-15 -111 -58.5 -157t-128.5 -46h-69v215h51q39 0 45 47l33 238z" />
<glyph unicode="z" horiz-adv-x="423" d="M12 0l183 1016h-166v192h372l-180 -1013h180v-195h-389z" />
<glyph unicode="{" horiz-adv-x="460" d="M37 506v215h88q33 0 33 57v772q0 64 18.5 113t48.5 76t64 40t71 13h107v-199h-88q-33 0 -33 -55v-772q0 -85 -80 -148q80 -63 80 -147v-782q0 -56 33 -56h88v-196h-107q-81 0 -141.5 58t-60.5 181v773q0 57 -33 57h-88z" />
<glyph unicode="|" horiz-adv-x="294" d="M51 0v1638h193v-1638h-193z" />
<glyph unicode="}" horiz-adv-x="460" d="M-6 -367h88q33 0 33 56v782q0 84 80 147q-80 63 -80 148v772q0 55 -33 55h-88v199h106q37 0 71 -13t64.5 -40t49 -76t18.5 -113v-772q0 -57 33 -57h88v-215h-88q-33 0 -33 -57v-773q0 -123 -61 -181t-142 -58h-106v196z" />
<glyph unicode="~" horiz-adv-x="690" d="M90 713q0 213 178 213q26 0 50.5 -11.5t39.5 -25.5t34 -25.5t36 -11.5q66 0 66 74h100q0 -213 -176 -213q-34 0 -63.5 17.5t-53 35.5t-43.5 18q-68 0 -68 -71h-100z" />
<glyph unicode="&#xa1;" horiz-adv-x="282" d="M51 -166l39 784h103l38 -784v-506h-180v506zM55 750v217h174v-217h-174z" />
<glyph unicode="&#xa2;" horiz-adv-x="516" d="M39 240v731q0 89 41.5 155t109.5 91v124h142v-122q70 -24 113.5 -90.5t43.5 -157.5v-205h-186v219q0 22 -11 35.5t-28 13.5t-28 -13.5t-11 -35.5v-762q0 -21 11 -35t28 -14t28 14t11 35v219h186v-202q0 -91 -43.5 -157.5t-113.5 -92.5v-119h-142v123q-68 25 -109.5 90.5 t-41.5 155.5z" />
<glyph unicode="&#xa3;" horiz-adv-x="745" d="M8 147q0 73 46.5 125t127.5 52q27 0 62 -13q53 132 53 299q0 47 -12 125h-156v176h115q-1 4 -14.5 67t-18.5 92t-11.5 90.5t-6.5 121.5q0 172 63 274.5t182 102.5q99 0 164.5 -87.5t65.5 -213.5v-197h-185v197q0 74 -45 74q-22 0 -37.5 -19.5t-15.5 -54.5 q0 -74 6.5 -147.5t13.5 -116.5t18.5 -102.5t14.5 -80.5h160v-176h-135q2 -20 2 -65q0 -94 -26.5 -207.5t-71.5 -212.5l41 -27q36 -26 69 -26q27 0 41 21t14 56v205h187v-223q0 -116 -66.5 -196t-165.5 -80q-51 0 -106.5 30.5t-79.5 69.5q-53 -100 -133 -100 q-67 0 -113.5 46.5t-46.5 120.5zM129 166q0 -17 8 -26t21 -9q27 0 43 39q-16 31 -43 31q-13 0 -21 -10t-8 -25z" />
<glyph unicode="&#xa5;" horiz-adv-x="604" d="M27 391v197h170v14l-25 121h-145v199h104l-104 510h194l84 -486l78 486h184l-108 -510h108v-199h-149l-27 -121v-14h176v-197h-176v-391h-194v391h-170z" />
<glyph unicode="&#xa7;" horiz-adv-x="503" d="M23 813q0 105 34.5 174t94.5 98q-70 106 -91 151q-30 69 -30 134q0 142 65 215.5t160 73.5q91 0 153 -73.5t62 -178.5v-107h-168v125q0 20 -12 35t-31 15q-22 0 -32.5 -14.5t-10.5 -35.5q0 -74 17.5 -114.5t80.5 -134.5q7 -10 37.5 -53.5t40.5 -59t32.5 -53.5t31 -62 t16.5 -57.5t8 -65.5q0 -86 -35 -160t-98 -106q41 -59 62 -94.5t41 -90.5t20 -106q0 -74 -23 -137.5t-75.5 -107t-124.5 -43.5q-99 0 -158 72t-59 179v95h170v-113q0 -20 12 -37.5t31 -17.5t31 17.5t12 37.5q0 75 -24 125t-122 194q-40 59 -59 89.5t-39 85t-20 106.5z M195 784q0 -28 17 -48.5t40 -20.5t39 20.5t16 48.5v64q0 29 -16 49.5t-39 20.5t-40 -20.5t-17 -49.5v-64z" />
<glyph unicode="&#xa8;" horiz-adv-x="671" d="M100 1421v217h176v-217h-176zM391 1421v217h176v-217h-176z" />
<glyph unicode="&#xa9;" horiz-adv-x="1802" d="M61 819q0 114 30 223.5t84.5 201.5t132 169.5t169.5 131.5t201 84t223 30q171 0 327 -66.5t268 -178.5t178.5 -268t66.5 -327t-66.5 -326t-178.5 -267.5t-268 -179t-327 -66.5t-326.5 66.5t-268 179t-179 267.5t-66.5 326zM209 819q0 -188 92.5 -347.5t252 -252 t347.5 -92.5t347.5 92.5t252 252t92.5 347.5t-92.5 347.5t-252 252t-347.5 92.5t-347.5 -92.5t-252 -252t-92.5 -347.5zM532 819q0 164 114.5 279.5t275.5 115.5q144 0 240.5 -93.5t111.5 -237.5h-244q-7 49 -36 74.5t-62 25.5q-41 0 -71 -41t-30 -123t30 -123t71 -41 q33 0 62 26t36 73h244q-15 -142 -112.5 -236t-239.5 -94q-161 0 -275.5 116t-114.5 279z" />
<glyph unicode="&#xaa;" horiz-adv-x="358" d="M27 1063v78q0 79 42.5 134.5t125.5 119.5v116q0 11 -5 20t-14 9q-20 0 -20 -29v-81h-115v71q0 69 39.5 113.5t99.5 44.5t97.5 -44.5t37.5 -113.5v-432q0 -73 21 -149h-98l-5 41q-12 -25 -34.5 -39.5t-48.5 -14.5q-58 0 -90.5 41.5t-32.5 114.5zM143 1059q0 -14 7.5 -24.5 t19.5 -10.5q11 0 18 10.5t7 24.5v211q-52 -52 -52 -113v-98z" />
<glyph unicode="&#xab;" horiz-adv-x="737" d="M35 604l151 604h205l-162 -604l162 -604h-205zM356 604l152 604h207l-164 -604l164 -604h-207z" />
<glyph unicode="&#xad;" horiz-adv-x="376" d="M45 614v220h287v-220h-287z" />
<glyph unicode="&#xae;" horiz-adv-x="1802" d="M61 819q0 114 30 223.5t84.5 201.5t132 169.5t169.5 131.5t201 84t223 30q171 0 327 -66.5t268 -178.5t178.5 -268t66.5 -327t-66.5 -326t-178.5 -267.5t-268 -179t-327 -66.5t-326.5 66.5t-268 179t-179 267.5t-66.5 326zM209 819q0 -188 92.5 -347.5t252 -252 t347.5 -92.5t347.5 92.5t252 252t92.5 347.5t-92.5 347.5t-252 252t-347.5 92.5t-347.5 -92.5t-252 -252t-92.5 -347.5zM543 444v752h493q111 0 178.5 -56.5t67.5 -133.5q0 -73 -37.5 -123t-101.5 -68q54 -14 96.5 -58t42.5 -126v-62q0 -53 37 -125h-279q-39 56 -39 117v137 q0 16 -10.5 27.5t-27.5 11.5h-123v-293h-297zM840 879h123q16 0 27 14.5t11 30.5t-11 30.5t-27 14.5h-123v-90z" />
<glyph unicode="&#xaf;" horiz-adv-x="612" d="M55 1485v153h502v-153h-502z" />
<glyph unicode="&#xb0;" horiz-adv-x="745" d="M41 1327q0 138 97 235t235 97t235 -97t97 -235t-97 -235t-235 -97t-235 97t-97 235zM213 1327q0 -65 46.5 -112.5t113.5 -47.5q64 0 111.5 47.5t47.5 112.5t-47.5 112.5t-111.5 47.5q-67 0 -113.5 -47.5t-46.5 -112.5z" />
<glyph unicode="&#xb4;" horiz-adv-x="409" d="M113 1348l32 290h185l-99 -290h-118z" />
<glyph unicode="&#xb6;" horiz-adv-x="778" d="M35 1249q0 178 67.5 283.5t147.5 105.5h248v-1638h-136v858h-112q-80 0 -147.5 106t-67.5 285zM598 0v1638h135v-1638h-135z" />
<glyph unicode="&#xb7;" horiz-adv-x="264" d="M45 750v217h174v-217h-174z" />
<glyph unicode="&#xb8;" horiz-adv-x="428" d="M117 -162l10 160h96l-8 -78q26 23 57 23q32 0 55 -24.5t23 -57.5v-115q0 -50 -33.5 -85.5t-83.5 -35.5t-83 35.5t-33 85.5v33h98v-31q0 -8 5.5 -13t12.5 -5q8 0 14.5 5.5t6.5 12.5v88q0 6 -7 12.5t-14 6.5t-12.5 -6.5t-5.5 -12.5z" />
<glyph unicode="&#xba;" horiz-adv-x="370" d="M39 1063v438q0 68 42.5 113t104.5 45q61 0 103.5 -45t42.5 -113v-438q0 -68 -42.5 -112t-103.5 -44q-62 0 -104.5 44t-42.5 112zM160 1053q0 -11 8 -20t18 -9t17.5 9t7.5 20v458q0 11 -7.5 20t-17.5 9t-18 -9t-8 -20v-458z" />
<glyph unicode="&#xbb;" horiz-adv-x="737" d="M23 0l163 604l-163 604h206l152 -604l-152 -604h-206zM346 0l162 604l-162 604h205l151 -604l-151 -604h-205z" />
<glyph unicode="&#xbf;" horiz-adv-x="512" d="M27 -313q0 87 18 164.5t44 139t52 125t44 152.5t18 193q0 58 -23 157h166q25 -119 25 -206q0 -91 -16.5 -173.5t-40.5 -148.5t-48 -135t-40.5 -163.5t-16.5 -203.5q0 -34 16 -53.5t37 -19.5q45 0 45 73v260h176v-239q0 -127 -61.5 -214t-159.5 -87q-117 0 -176 102 t-59 277zM176 750v217h174v-217h-174z" />
<glyph unicode="&#xc0;" horiz-adv-x="542" d="M16 0l134 1638h241l135 -1638h-196l-13 297h-112l-19 -297h-170zM115 2048h184l33 -291h-119zM221 506h84l-35 653z" />
<glyph unicode="&#xc1;" horiz-adv-x="542" d="M16 0l134 1638h241l135 -1638h-196l-13 297h-112l-19 -297h-170zM221 506h84l-35 653zM223 1757l33 291h184l-98 -291h-119z" />
<glyph unicode="&#xc2;" horiz-adv-x="542" d="M10 1757l158 291h186l160 -291h-152l-100 141l-100 -141h-152zM16 0l134 1638h241l135 -1638h-196l-13 297h-112l-19 -297h-170zM221 506h84l-35 653z" />
<glyph unicode="&#xc3;" horiz-adv-x="542" d="M16 0l134 1638h241l135 -1638h-196l-13 297h-112l-19 -297h-170zM23 1831q0 213 178 213q33 0 62 -18.5t53 -37t44 -18.5q66 0 66 74h100q0 -213 -176 -213q-34 0 -63.5 18t-53 36t-43.5 18q-67 0 -67 -72h-100zM221 506h84l-35 653z" />
<glyph unicode="&#xc4;" horiz-adv-x="542" d="M16 0l134 1638h241l135 -1638h-196l-13 297h-112l-19 -297h-170zM39 1831v217h176v-217h-176zM221 506h84l-35 653zM330 1831v217h176v-217h-176z" />
<glyph unicode="&#xc5;" horiz-adv-x="542" d="M16 0l134 1638h26q-72 52 -72 138q0 69 48.5 117.5t117.5 48.5t117.5 -48.5t48.5 -117.5q0 -87 -74 -138h29l135 -1638h-196l-13 297h-112l-19 -297h-170zM190 1776q0 -33 23.5 -56.5t56.5 -23.5q32 0 56 24t24 56t-24 55.5t-56 23.5q-34 0 -57 -23.5t-23 -55.5zM221 506 h84l-35 653z" />
<glyph unicode="&#xc6;" horiz-adv-x="753" d="M16 0l215 1638h498v-196h-207v-500h140v-197h-140v-546h207v-199h-397v297h-113l-31 -297h-172zM246 504h86v733z" />
<glyph unicode="&#xc7;" horiz-adv-x="548" d="M39 260v1118q0 123 67 202t168 79t168.5 -79t67.5 -202v-336h-186v351q0 28 -13.5 43.5t-36.5 15.5t-36 -15.5t-13 -43.5v-1147q0 -28 13 -44t36 -16t36.5 16t13.5 44v350h186v-336q0 -115 -59.5 -191t-151.5 -87l-6 -62q26 23 57 23q32 0 55 -24.5t23 -57.5v-115 q0 -50 -33.5 -85.5t-83.5 -35.5t-83 35.5t-33 85.5v33h98v-31q0 -8 5.5 -13t12.5 -5q8 0 14.5 5.5t6.5 12.5v88q0 6 -7 12.5t-14 6.5t-12.5 -6.5t-5.5 -12.5l-98 2l10 154q-75 24 -120.5 96t-45.5 172z" />
<glyph unicode="&#xc8;" horiz-adv-x="466" d="M45 0v1638h397v-196h-206v-500h139v-197h-139v-548h206v-197h-397zM96 2048h185l32 -291h-118z" />
<glyph unicode="&#xc9;" horiz-adv-x="466" d="M45 0v1638h397v-196h-206v-500h139v-197h-139v-548h206v-197h-397zM193 1757l32 291h185l-99 -291h-118z" />
<glyph unicode="&#xca;" horiz-adv-x="466" d="M-8 1757l158 291h186l160 -291h-152l-100 141l-101 -141h-151zM45 0v1638h397v-196h-206v-500h139v-197h-139v-548h206v-197h-397z" />
<glyph unicode="&#xcb;" horiz-adv-x="466" d="M2 1831v217h176v-217h-176zM45 0v1638h397v-196h-206v-500h139v-197h-139v-548h206v-197h-397zM293 1831v217h176v-217h-176z" />
<glyph unicode="&#xcc;" horiz-adv-x="294" d="M-14 2048h184l33 -291h-119zM51 0v1638h193v-1638h-193z" />
<glyph unicode="&#xcd;" horiz-adv-x="294" d="M51 0v1638h193v-1638h-193zM88 1757l33 291h184l-98 -291h-119z" />
<glyph unicode="&#xce;" horiz-adv-x="294" d="M-106 1757l157 291h187l159 -291h-151l-101 141l-100 -141h-151zM51 0v1638h193v-1638h-193z" />
<glyph unicode="&#xcf;" horiz-adv-x="294" d="M-84 1831v217h176v-217h-176zM51 0v1638h193v-1638h-193zM207 1831v217h176v-217h-176z" />
<glyph unicode="&#xd1;" horiz-adv-x="606" d="M45 0v1638h195l163 -909v909h158v-1638h-160l-196 895v-895h-160zM59 1831q0 213 179 213q33 0 62 -18.5t53 -37t44 -18.5q66 0 66 74h100q0 -213 -176 -213q-34 0 -63.5 18t-53 36t-43.5 18q-67 0 -67 -72h-101z" />
<glyph unicode="&#xd2;" horiz-adv-x="565" d="M39 260v1118q0 122 71 201.5t173 79.5t172.5 -79.5t70.5 -201.5v-1118q0 -122 -70.5 -201t-172.5 -79t-173 79t-71 201zM121 2048h184l33 -291h-119zM231 246q0 -28 13.5 -44t38.5 -16q23 0 36 16t13 44v1147q0 28 -13 43.5t-36 15.5q-25 0 -38.5 -15.5t-13.5 -43.5 v-1147z" />
<glyph unicode="&#xd3;" horiz-adv-x="565" d="M39 260v1118q0 122 71 201.5t173 79.5t172.5 -79.5t70.5 -201.5v-1118q0 -122 -70.5 -201t-172.5 -79t-173 79t-71 201zM223 1757l33 291h184l-98 -291h-119zM231 246q0 -28 13.5 -44t38.5 -16q23 0 36 16t13 44v1147q0 28 -13 43.5t-36 15.5q-25 0 -38.5 -15.5 t-13.5 -43.5v-1147z" />
<glyph unicode="&#xd4;" horiz-adv-x="565" d="M29 1757l157 291h187l159 -291h-151l-100 141l-101 -141h-151zM39 260v1118q0 122 71 201.5t173 79.5t172.5 -79.5t70.5 -201.5v-1118q0 -122 -70.5 -201t-172.5 -79t-173 79t-71 201zM231 246q0 -28 13.5 -44t38.5 -16q23 0 36 16t13 44v1147q0 28 -13 43.5t-36 15.5 q-25 0 -38.5 -15.5t-13.5 -43.5v-1147z" />
<glyph unicode="&#xd5;" horiz-adv-x="565" d="M39 260v1118q0 122 71 201.5t173 79.5t172.5 -79.5t70.5 -201.5v-1118q0 -122 -70.5 -201t-172.5 -79t-173 79t-71 201zM41 1831q0 213 178 213q26 0 50.5 -11.5t39.5 -25.5t34 -25.5t36 -11.5q65 0 65 74h101q0 -213 -176 -213q-34 0 -63.5 18t-53 36t-43.5 18 q-68 0 -68 -72h-100zM231 246q0 -28 13.5 -44t38.5 -16q23 0 36 16t13 44v1147q0 28 -13 43.5t-36 15.5q-25 0 -38.5 -15.5t-13.5 -43.5v-1147z" />
<glyph unicode="&#xd6;" horiz-adv-x="565" d="M39 260v1118q0 122 71 201.5t173 79.5t172.5 -79.5t70.5 -201.5v-1118q0 -122 -70.5 -201t-172.5 -79t-173 79t-71 201zM51 1831v217h176v-217h-176zM231 246q0 -28 13.5 -44t38.5 -16q23 0 36 16t13 44v1147q0 28 -13 43.5t-36 15.5q-25 0 -38.5 -15.5t-13.5 -43.5 v-1147zM342 1831v217h176v-217h-176z" />
<glyph unicode="&#xd8;" horiz-adv-x="565" d="M18 -61l45 194q-24 55 -24 127v1118q0 122 71 201.5t173 79.5q86 0 149 -57l21 100h94l-45 -199q24 -56 24 -125v-1118q0 -122 -70.5 -201t-172.5 -79q-86 0 -152 57l-18 -98h-95zM231 246q0 -28 13.5 -44t38.5 -16q23 0 36 16t13 44v1147q0 28 -13 43.5t-36 15.5 q-25 0 -38.5 -15.5t-13.5 -43.5v-1147z" />
<glyph unicode="&#xd9;" horiz-adv-x="538" d="M41 260v1378h182v-1392q0 -28 13 -44t36 -16q25 0 38.5 16t13.5 44v1392h174v-1378q0 -124 -63 -202t-163 -78t-165.5 78t-65.5 202zM115 2048h184l33 -291h-119z" />
<glyph unicode="&#xda;" horiz-adv-x="538" d="M41 260v1378h182v-1392q0 -28 13 -44t36 -16q25 0 38.5 16t13.5 44v1392h174v-1378q0 -124 -63 -202t-163 -78t-165.5 78t-65.5 202zM211 1757l33 291h184l-98 -291h-119z" />
<glyph unicode="&#xdb;" horiz-adv-x="538" d="M23 1757l157 291h187l159 -291h-151l-101 141l-100 -141h-151zM41 260v1378h182v-1392q0 -28 13 -44t36 -16q25 0 38.5 16t13.5 44v1392h174v-1378q0 -124 -63 -202t-163 -78t-165.5 78t-65.5 202z" />
<glyph unicode="&#xdc;" horiz-adv-x="538" d="M39 1831v217h176v-217h-176zM41 260v1378h182v-1392q0 -28 13 -44t36 -16q25 0 38.5 16t13.5 44v1392h174v-1378q0 -124 -63 -202t-163 -78t-165.5 78t-65.5 202zM330 1831v217h176v-217h-176z" />
<glyph unicode="&#xdf;" horiz-adv-x="540" d="M45 0v1393q0 115 60.5 190.5t162.5 75.5q242 0 242 -385q0 -85 -25 -150.5t-65 -99.5q90 -52 90 -188v-555q0 -128 -69 -204.5t-173 -76.5v205q23 0 40.5 21t17.5 50v564q0 28 -17.5 48.5t-40.5 20.5v207q27 0 48.5 50t21.5 130q0 56 -6 94t-17 55.5t-22 23.5t-25 6 q-15 0 -27 -15t-12 -35v-1425h-184z" />
<glyph unicode="&#xe0;" horiz-adv-x="512" d="M27 240v129q0 70 19.5 131t59.5 113.5t79.5 90.5t99.5 87v194q0 21 -8.5 35t-22.5 14q-31 0 -31 -49v-135h-176v121q0 115 60.5 187.5t154.5 72.5q92 0 149.5 -72t57.5 -188v-721q0 -129 33 -250h-152l-8 68q-17 -41 -52 -64.5t-77 -23.5q-89 0 -137.5 69t-48.5 191z M109 1638h184l33 -290h-119zM205 233q0 -26 10.5 -42.5t30.5 -16.5q18 0 28.5 16.5t10.5 42.5v351q-80 -83 -80 -189v-162z" />
<glyph unicode="&#xe1;" horiz-adv-x="512" d="M27 240v129q0 70 19.5 131t59.5 113.5t79.5 90.5t99.5 87v194q0 21 -8.5 35t-22.5 14q-31 0 -31 -49v-135h-176v121q0 115 60.5 187.5t154.5 72.5q92 0 149.5 -72t57.5 -188v-721q0 -129 33 -250h-152l-8 68q-17 -41 -52 -64.5t-77 -23.5q-89 0 -137.5 69t-48.5 191z M205 233q0 -26 10.5 -42.5t30.5 -16.5q18 0 28.5 16.5t10.5 42.5v351q-80 -83 -80 -189v-162zM205 1348l33 290h184l-98 -290h-119z" />
<glyph unicode="&#xe2;" horiz-adv-x="512" d="M16 1348l158 290h186l160 -290h-151l-101 141l-100 -141h-152zM27 240v129q0 70 19.5 131t59.5 113.5t79.5 90.5t99.5 87v194q0 21 -8.5 35t-22.5 14q-31 0 -31 -49v-135h-176v121q0 115 60.5 187.5t154.5 72.5q92 0 149.5 -72t57.5 -188v-721q0 -129 33 -250h-152l-8 68 q-17 -41 -52 -64.5t-77 -23.5q-89 0 -137.5 69t-48.5 191zM205 233q0 -26 10.5 -42.5t30.5 -16.5q18 0 28.5 16.5t10.5 42.5v351q-80 -83 -80 -189v-162z" />
<glyph unicode="&#xe3;" horiz-adv-x="512" d="M23 1421q0 213 178 213q33 0 62 -18t52.5 -36.5t44.5 -18.5q66 0 66 73h100q0 -213 -176 -213q-34 0 -63.5 18t-53 36t-43.5 18q-67 0 -67 -72h-100zM27 240v129q0 70 19.5 131t59.5 113.5t79.5 90.5t99.5 87v194q0 21 -8.5 35t-22.5 14q-31 0 -31 -49v-135h-176v121 q0 115 60.5 187.5t154.5 72.5q92 0 149.5 -72t57.5 -188v-721q0 -129 33 -250h-152l-8 68q-17 -41 -52 -64.5t-77 -23.5q-89 0 -137.5 69t-48.5 191zM205 233q0 -26 10.5 -42.5t30.5 -16.5q18 0 28.5 16.5t10.5 42.5v351q-80 -83 -80 -189v-162z" />
<glyph unicode="&#xe4;" horiz-adv-x="512" d="M27 240v129q0 70 19.5 131t59.5 113.5t79.5 90.5t99.5 87v194q0 21 -8.5 35t-22.5 14q-31 0 -31 -49v-135h-176v121q0 115 60.5 187.5t154.5 72.5q92 0 149.5 -72t57.5 -188v-721q0 -129 33 -250h-152l-8 68q-17 -41 -52 -64.5t-77 -23.5q-89 0 -137.5 69t-48.5 191z M33 1421v217h176v-217h-176zM205 233q0 -26 10.5 -42.5t30.5 -16.5q18 0 28.5 16.5t10.5 42.5v351q-80 -83 -80 -189v-162zM324 1421v217h176v-217h-176z" />
<glyph unicode="&#xe5;" horiz-adv-x="512" d="M27 240v129q0 70 19.5 131t59.5 113.5t79.5 90.5t99.5 87v194q0 21 -8.5 35t-22.5 14q-31 0 -31 -49v-135h-176v121q0 115 60.5 187.5t154.5 72.5q92 0 149.5 -72t57.5 -188v-721q0 -129 33 -250h-152l-8 68q-17 -41 -52 -64.5t-77 -23.5q-89 0 -137.5 69t-48.5 191z M96 1493q0 69 48.5 117.5t117.5 48.5t117.5 -48.5t48.5 -117.5t-48.5 -117.5t-117.5 -48.5t-117.5 48.5t-48.5 117.5zM182 1493q0 -33 23.5 -56.5t56.5 -23.5q32 0 56 24t24 56t-24 56t-56 24q-33 0 -56.5 -23.5t-23.5 -56.5zM205 233q0 -26 10.5 -42.5t30.5 -16.5 q18 0 28.5 16.5t10.5 42.5v351q-80 -83 -80 -189v-162z" />
<glyph unicode="&#xe6;" horiz-adv-x="772" d="M27 240v131q0 69 19.5 129.5t59.5 113t79.5 90.5t99.5 87v194q0 49 -31 49t-31 -49v-135h-176v121q0 115 60.5 187.5t154.5 72.5q37 0 74 -18t51 -46q18 30 52.5 47t70.5 17q94 0 158.5 -73t64.5 -187v-412h-264v-336q0 -20 12 -34.5t29 -14.5q15 0 27 14.5t12 34.5v219 h184v-202q0 -115 -64.5 -187.5t-158.5 -72.5q-51 0 -92.5 24t-65.5 62q-20 -39 -58.5 -62.5t-80.5 -23.5q-89 0 -137.5 69t-48.5 191zM205 233q0 -26 10.5 -42.5t30.5 -16.5q39 0 39 59v351q-80 -83 -80 -189v-162zM469 711h80v274q0 21 -11.5 35t-27.5 14q-17 0 -29 -14 t-12 -35v-274z" />
<glyph unicode="&#xe7;" horiz-adv-x="516" d="M39 240v731q0 114 64.5 187t158.5 73q95 0 160 -73t65 -187v-205h-186v219q0 21 -11 35t-28 14q-15 0 -27 -14.5t-12 -34.5v-762q0 -20 12 -34.5t27 -14.5q17 0 28 14t11 35v219h186v-202q0 -103 -52.5 -172.5t-135.5 -83.5l-6 -64q26 23 57 23q32 0 55 -24.5t23 -57.5 v-115q0 -50 -33.5 -85.5t-83.5 -35.5t-83 35.5t-33 85.5v33h98v-31q0 -8 5.5 -13t12.5 -5q8 0 14.5 5.5t6.5 12.5v88q0 6 -7 12.5t-14 6.5t-12.5 -6.5t-5.5 -12.5l-98 2l10 150q-74 21 -120 88.5t-46 163.5z" />
<glyph unicode="&#xe8;" horiz-adv-x="526" d="M39 240v731q0 114 64.5 187t158.5 73q95 0 160 -73t65 -187v-412h-264v-336q0 -20 12 -34.5t27 -14.5q17 0 28 14t11 35v219h186v-202q0 -115 -64.5 -187.5t-160.5 -72.5q-94 0 -158.5 72.5t-64.5 187.5zM115 1638h184l33 -290h-119zM223 711h78v274q0 21 -11 35t-28 14 q-15 0 -27 -14.5t-12 -34.5v-274z" />
<glyph unicode="&#xe9;" horiz-adv-x="526" d="M39 240v731q0 114 64.5 187t158.5 73q95 0 160 -73t65 -187v-412h-264v-336q0 -20 12 -34.5t27 -14.5q17 0 28 14t11 35v219h186v-202q0 -115 -64.5 -187.5t-160.5 -72.5q-94 0 -158.5 72.5t-64.5 187.5zM205 1348l33 290h184l-98 -290h-119zM223 711h78v274q0 21 -11 35 t-28 14q-15 0 -27 -14.5t-12 -34.5v-274z" />
<glyph unicode="&#xea;" horiz-adv-x="526" d="M10 1348l158 290h186l160 -290h-152l-100 141l-100 -141h-152zM39 240v731q0 114 64.5 187t158.5 73q95 0 160 -73t65 -187v-412h-264v-336q0 -20 12 -34.5t27 -14.5q17 0 28 14t11 35v219h186v-202q0 -115 -64.5 -187.5t-160.5 -72.5q-94 0 -158.5 72.5t-64.5 187.5z M223 711h78v274q0 21 -11 35t-28 14q-15 0 -27 -14.5t-12 -34.5v-274z" />
<glyph unicode="&#xeb;" horiz-adv-x="526" d="M33 1421v217h176v-217h-176zM39 240v731q0 114 64.5 187t158.5 73q95 0 160 -73t65 -187v-412h-264v-336q0 -20 12 -34.5t27 -14.5q17 0 28 14t11 35v219h186v-202q0 -115 -64.5 -187.5t-160.5 -72.5q-94 0 -158.5 72.5t-64.5 187.5zM223 711h78v274q0 21 -11 35t-28 14 q-15 0 -27 -14.5t-12 -34.5v-274zM324 1421v217h176v-217h-176z" />
<glyph unicode="&#xec;" horiz-adv-x="274" d="M-27 1638h185l32 -290h-118zM45 0v1208h184v-1208h-184z" />
<glyph unicode="&#xed;" horiz-adv-x="274" d="M45 0v1208h184v-1208h-184zM76 1348l33 290h184l-98 -290h-119z" />
<glyph unicode="&#xee;" horiz-adv-x="274" d="M-119 1348l158 290h186l160 -290h-152l-100 141l-100 -141h-152zM45 0v1208h184v-1208h-184z" />
<glyph unicode="&#xef;" horiz-adv-x="274" d="M-96 1421v217h176v-217h-176zM45 0v1208h184v-1208h-184zM195 1421v217h176v-217h-176z" />
<glyph unicode="&#xf1;" d="M23 1421q0 213 178 213q33 0 62 -18t52.5 -36.5t44.5 -18.5q66 0 66 73h100q0 -213 -176 -213q-34 0 -63.5 18t-53 36t-43.5 18q-67 0 -67 -72h-100zM45 0v1208h178l8 -53q46 76 117 76q60 0 103 -54t43 -130v-1047h-185v985q0 20 -12 34.5t-27 14.5q-17 0 -28 -14 t-11 -35v-985h-186z" />
<glyph unicode="&#xf2;" horiz-adv-x="528" d="M39 240v731q0 114 65 187t160 73t160 -73t65 -187v-731q0 -115 -64.5 -187.5t-160.5 -72.5t-160.5 72.5t-64.5 187.5zM115 1638h184l33 -290h-119zM225 223q0 -21 11 -35t28 -14t28 14t11 35v762q0 21 -11 35t-28 14t-28 -14t-11 -35v-762z" />
<glyph unicode="&#xf3;" horiz-adv-x="528" d="M39 240v731q0 114 65 187t160 73t160 -73t65 -187v-731q0 -115 -64.5 -187.5t-160.5 -72.5t-160.5 72.5t-64.5 187.5zM205 1348l33 290h184l-98 -290h-119zM225 223q0 -21 11 -35t28 -14t28 14t11 35v762q0 21 -11 35t-28 14t-28 -14t-11 -35v-762z" />
<glyph unicode="&#xf4;" horiz-adv-x="528" d="M16 1348l158 290h186l160 -290h-151l-101 141l-100 -141h-152zM39 240v731q0 114 65 187t160 73t160 -73t65 -187v-731q0 -115 -64.5 -187.5t-160.5 -72.5t-160.5 72.5t-64.5 187.5zM225 223q0 -21 11 -35t28 -14t28 14t11 35v762q0 21 -11 35t-28 14t-28 -14t-11 -35 v-762z" />
<glyph unicode="&#xf5;" horiz-adv-x="528" d="M23 1421q0 213 178 213q33 0 62 -18t52.5 -36.5t44.5 -18.5q66 0 66 73h100q0 -213 -176 -213q-34 0 -63.5 18t-53 36t-43.5 18q-67 0 -67 -72h-100zM39 240v731q0 114 65 187t160 73t160 -73t65 -187v-731q0 -115 -64.5 -187.5t-160.5 -72.5t-160.5 72.5t-64.5 187.5z M225 223q0 -21 11 -35t28 -14t28 14t11 35v762q0 21 -11 35t-28 14t-28 -14t-11 -35v-762z" />
<glyph unicode="&#xf6;" horiz-adv-x="528" d="M33 1421v217h176v-217h-176zM39 240v731q0 114 65 187t160 73t160 -73t65 -187v-731q0 -115 -64.5 -187.5t-160.5 -72.5t-160.5 72.5t-64.5 187.5zM225 223q0 -21 11 -35t28 -14t28 14t11 35v762q0 21 -11 35t-28 14t-28 -14t-11 -35v-762zM324 1421v217h176v-217h-176z " />
<glyph unicode="&#xf8;" horiz-adv-x="528" d="M18 -61l41 184q-20 58 -20 117v731q0 114 65 187t160 73q74 0 131 -45l19 86h94l-41 -185q22 -48 22 -116v-731q0 -115 -64.5 -187.5t-160.5 -72.5q-79 0 -135 47l-16 -88h-95zM225 223q0 -21 11 -35t28 -14t28 14t11 35v762q0 21 -11 35t-28 14t-28 -14t-11 -35v-762z " />
<glyph unicode="&#xf9;" d="M41 162v1046h184v-985q0 -20 12 -34.5t29 -14.5q15 0 27 14.5t12 34.5v985h184v-1208h-176l-8 53q-44 -73 -119 -73q-60 0 -102.5 53.5t-42.5 128.5zM121 1638h184l33 -290h-119z" />
<glyph unicode="&#xfa;" d="M41 162v1046h184v-985q0 -20 12 -34.5t29 -14.5q15 0 27 14.5t12 34.5v985h184v-1208h-176l-8 53q-44 -73 -119 -73q-60 0 -102.5 53.5t-42.5 128.5zM205 1348l33 290h184l-98 -290h-119z" />
<glyph unicode="&#xfb;" d="M10 1348l158 290h186l160 -290h-152l-100 141l-100 -141h-152zM41 162v1046h184v-985q0 -20 12 -34.5t29 -14.5q15 0 27 14.5t12 34.5v985h184v-1208h-176l-8 53q-44 -73 -119 -73q-60 0 -102.5 53.5t-42.5 128.5z" />
<glyph unicode="&#xfc;" d="M33 1421v217h176v-217h-176zM41 162v1046h184v-985q0 -20 12 -34.5t29 -14.5q15 0 27 14.5t12 34.5v985h184v-1208h-176l-8 53q-44 -73 -119 -73q-60 0 -102.5 53.5t-42.5 128.5zM324 1421v217h176v-217h-176z" />
<glyph unicode="&#xff;" horiz-adv-x="493" d="M4 1208h182l60 -661l59 661h182l-196 -1435q-15 -111 -58.5 -157t-128.5 -46h-69v215h51q39 0 45 47l33 238zM14 1421v217h176v-217h-176zM305 1421v217h176v-217h-176z" />
<glyph unicode="&#x152;" horiz-adv-x="749" d="M39 258v1122q0 74 20 127.5t53.5 80.5t68.5 38.5t75 11.5h469v-196h-205v-500h139v-197h-139v-546h205v-199h-469q-40 0 -75 11.5t-68.5 38.5t-53.5 80.5t-20 127.5zM227 260q0 -63 35 -63h66v1245h-66q-35 0 -35 -66v-1116z" />
<glyph unicode="&#x153;" horiz-adv-x="792" d="M39 240v731q0 113 65.5 186.5t159.5 73.5q36 0 74 -17.5t59 -42.5q21 25 58 42.5t73 17.5q94 0 160 -73.5t66 -186.5v-412h-265v-336q0 -21 11 -35t28 -14q15 0 27 14.5t12 34.5v219h187v-202q0 -115 -66 -187.5t-160 -72.5q-37 0 -74.5 16.5t-58.5 40.5 q-21 -24 -58 -40.5t-73 -16.5q-94 0 -159.5 72.5t-65.5 187.5zM225 223q0 -21 11 -35t28 -14t28 14t11 35v762q0 22 -11 35.5t-28 13.5t-28 -13.5t-11 -35.5v-762zM489 711h78v274q0 21 -11.5 35t-27.5 14q-17 0 -28 -13.5t-11 -35.5v-274z" />
<glyph unicode="&#x178;" horiz-adv-x="532" d="M4 1638h184l86 -608l80 608h174l-168 -911v-727h-194v727zM33 1831v217h176v-217h-176zM324 1831v217h176v-217h-176z" />
<glyph unicode="&#x2c6;" horiz-adv-x="692" d="M94 1348l158 290h186l160 -290h-152l-100 141l-100 -141h-152z" />
<glyph unicode="&#x2dc;" horiz-adv-x="690" d="M90 1421q0 213 178 213q26 0 50.5 -11.5t39.5 -25t34 -25t36 -11.5q66 0 66 73h100q0 -213 -176 -213q-34 0 -63.5 18t-53 36t-43.5 18q-68 0 -68 -72h-100z" />
<glyph unicode="&#x2000;" horiz-adv-x="1024" />
<glyph unicode="&#x2001;" horiz-adv-x="2048" />
<glyph unicode="&#x2002;" horiz-adv-x="1024" />
<glyph unicode="&#x2003;" horiz-adv-x="2048" />
<glyph unicode="&#x2004;" horiz-adv-x="682" />
<glyph unicode="&#x2005;" horiz-adv-x="512" />
<glyph unicode="&#x2006;" horiz-adv-x="341" />
<glyph unicode="&#x2007;" horiz-adv-x="341" />
<glyph unicode="&#x2008;" horiz-adv-x="256" />
<glyph unicode="&#x2009;" horiz-adv-x="409" />
<glyph unicode="&#x200a;" horiz-adv-x="113" />
<glyph unicode="&#x2010;" horiz-adv-x="376" d="M45 614v220h287v-220h-287z" />
<glyph unicode="&#x2011;" horiz-adv-x="376" d="M45 614v220h287v-220h-287z" />
<glyph unicode="&#x2012;" horiz-adv-x="376" d="M45 614v220h287v-220h-287z" />
<glyph unicode="&#x2013;" horiz-adv-x="1114" d="M45 614v220h1024v-220h-1024z" />
<glyph unicode="&#x2014;" horiz-adv-x="2138" d="M45 614v220h2048v-220h-2048z" />
<glyph unicode="&#x2018;" horiz-adv-x="266" d="M45 1268v217l139 184h56l-80 -184h61v-217h-176z" />
<glyph unicode="&#x2019;" horiz-adv-x="266" d="M37 1235l80 186h-72v217h176v-217l-129 -186h-55z" />
<glyph unicode="&#x201a;" horiz-adv-x="266" d="M37 -184l80 184h-72v217h176v-217l-129 -184h-55z" />
<glyph unicode="&#x201c;" horiz-adv-x="505" d="M45 1268v217l137 184h58l-80 -184h59v-217h-174zM287 1268v217l137 184h55l-78 -184h60v-217h-174z" />
<glyph unicode="&#x201d;" horiz-adv-x="507" d="M37 1235l80 186h-72v217h176v-217l-129 -186h-55zM279 1235l79 186h-71v217h176v-217l-129 -186h-55z" />
<glyph unicode="&#x201e;" horiz-adv-x="507" d="M37 -186l80 186h-72v217h176v-217l-129 -186h-55zM279 -186l79 186h-71v217h176v-217l-129 -186h-55z" />
<glyph unicode="&#x2022;" horiz-adv-x="518" d="M31 819q0 95 67 161.5t162 66.5q94 0 160.5 -66.5t66.5 -161.5q0 -94 -66.5 -160.5t-160.5 -66.5q-95 0 -162 66.5t-67 160.5z" />
<glyph unicode="&#x2026;" horiz-adv-x="874" d="M45 0v217h174v-217h-174zM350 0v217h174v-217h-174zM655 0v217h174v-217h-174z" />
<glyph unicode="&#x202f;" horiz-adv-x="409" />
<glyph unicode="&#x2039;" horiz-adv-x="413" d="M35 604l151 604h205l-162 -604l162 -604h-205z" />
<glyph unicode="&#x203a;" horiz-adv-x="413" d="M23 0l161 604l-161 604h204l152 -604l-152 -604h-204z" />
<glyph unicode="&#x205f;" horiz-adv-x="512" />
<glyph unicode="&#x2122;" horiz-adv-x="2080" d="M55 1401v237h793v-237h-242v-551h-311v551h-240zM948 850v788h434l99 -346l100 346h444v-788h-311v502l-133 -502h-238l-151 502v-502h-244z" />
<glyph unicode="&#x25fc;" horiz-adv-x="1208" d="M0 0v1208h1208v-1208h-1208z" />
<glyph unicode="&#xfb01;" horiz-adv-x="638" d="M20 1016v192h60v228q0 93 50.5 147.5t129.5 54.5h84v-213h-39q-17 0 -28 -14t-11 -35v-168h78v-192h-78v-1016h-186v1016h-60zM410 0v1208h184v-1208h-184zM410 1337v217h184v-217h-184z" />
<glyph unicode="&#xfb02;" horiz-adv-x="638" d="M20 1016v192h60v228q0 93 50.5 147.5t129.5 54.5h84v-213h-39q-17 0 -28 -14t-11 -35v-168h78v-192h-78v-1016h-186v1016h-60zM410 0v1638h186v-1638h-186z" />
</font>
</defs>
</svg>
