<?xml version="1.0" standalone="no"?>
<!DOCTYPE svg PUBLIC "-//W3C//DTD SVG 1.1//EN" "http://www.w3.org/Graphics/SVG/1.1/DTD/svg11.dtd" >
<svg xmlns="http://www.w3.org/2000/svg">
<metadata></metadata>
<defs>
<font id="champion_htf-featherweightRg" horiz-adv-x="342" >
<font-face units-per-em="2048" ascent="1638" descent="-410" />
<missing-glyph horiz-adv-x="266" />
<glyph horiz-adv-x="2048" />
<glyph horiz-adv-x="2048" />
<glyph unicode="&#xd;" horiz-adv-x="2048" />
<glyph unicode=" "  horiz-adv-x="266" />
<glyph unicode="&#x09;" horiz-adv-x="266" />
<glyph unicode="&#xa0;" horiz-adv-x="266" />
<glyph unicode="!" horiz-adv-x="374" d="M61 1133v505h252v-505l-63 -754h-127zM72 0v248h231v-248h-231z" />
<glyph unicode="&#x22;" horiz-adv-x="643" d="M43 1204l100 187h-88v247h232v-247l-172 -187h-72zM346 1204l98 187h-88v247h232v-247l-172 -187h-70z" />
<glyph unicode="#" horiz-adv-x="1198" d="M55 377v250h197l45 385h-168v250h199l43 376h233l-45 -376h184l43 376h234l-45 -376h168v-250h-197l-45 -385h168v-250h-199l-43 -377h-231l43 377h-184l-43 -377h-234l45 377h-168zM485 627h183l47 385h-185z" />
<glyph unicode="$" horiz-adv-x="655" d="M10 281v239h232v-215q0 -36 21 -62t56 -26q34 0 52 23.5t18 64.5q0 37 -8 77t-18 70.5t-32 77.5t-35 71.5t-43 79.5l-42 77q-86 160 -134 285t-48 239q0 143 56.5 240.5t162.5 126.5v120h176v-122q91 -29 146 -108.5t55 -180.5v-240h-232v230q0 36 -15.5 54.5t-41.5 18.5 q-27 0 -46.5 -19t-19.5 -54q0 -115 35.5 -212t124.5 -266q12 -22 46 -86t48.5 -92t39.5 -82.5t36.5 -89.5t21 -79.5t9.5 -82.5q0 -140 -60 -241.5t-168 -128.5v-117h-176v123q-99 28 -158 106.5t-59 180.5z" />
<glyph unicode="%" horiz-adv-x="1486" d="M47 965v413q0 117 82 199t199 82t198.5 -82t81.5 -199v-413q0 -117 -81.5 -199t-198.5 -82t-199 82t-82 199zM264 0l791 1638h168l-791 -1638h-168zM279 938q0 -20 14.5 -34.5t34.5 -14.5t34.5 14.5t14.5 34.5v467q0 20 -14.5 34.5t-34.5 14.5t-34.5 -14.5t-14.5 -34.5 v-467zM879 260v414q0 117 81.5 198.5t198.5 81.5t199 -81.5t82 -198.5v-414q0 -117 -82 -198.5t-199 -81.5t-198.5 81.5t-81.5 198.5zM1110 233q0 -20 14.5 -34.5t34.5 -14.5t34.5 14.5t14.5 34.5v467q0 20 -14.5 35t-34.5 15t-34.5 -15t-14.5 -35v-467z" />
<glyph unicode="&#x26;" horiz-adv-x="1067" d="M20 403q0 121 74.5 254.5t171.5 219.5q-9 24 -36.5 91.5t-39.5 101t-24 89t-12 105.5q0 94 32.5 171.5t84.5 125t113.5 73t123.5 25.5q124 0 208.5 -95t84.5 -231q0 -254 -266 -491q42 -174 86 -287q53 115 53 270h244q-3 -134 -53.5 -283t-135.5 -266q16 -49 59 -49 q26 0 41 25.5t15 69.5v71h190v-92q0 -158 -68.5 -239.5t-177.5 -81.5q-47 0 -109 24.5t-97 61.5q-92 -86 -224 -86q-137 0 -237.5 114.5t-100.5 308.5zM274 393q0 -76 31.5 -121t89.5 -45q47 0 72 39q-78 160 -119 342q-30 -36 -52 -98.5t-22 -116.5zM408 1315 q0 -108 51 -230q94 99 94 254q0 36 -20 57t-48 21q-32 0 -54.5 -28t-22.5 -74z" />
<glyph unicode="'" d="M43 1204l100 187h-88v247h232v-247l-172 -187h-72z" />
<glyph unicode="(" horiz-adv-x="505" d="M47 614q0 375 105.5 689t281.5 489l70 -82q-103 -163 -165.5 -455.5t-62.5 -640.5t62.5 -640t165.5 -455l-70 -82q-176 175 -281.5 488.5t-105.5 688.5z" />
<glyph unicode=")" horiz-adv-x="505" d="M2 -481q103 163 165 454.5t62 640.5t-62 641t-165 455l70 82q176 -175 281.5 -489t105.5 -689t-105.5 -688.5t-281.5 -488.5z" />
<glyph unicode="*" horiz-adv-x="872" d="M20 1100l158 92l105 27l-105 28l-158 92l105 183l160 -92l73 -78l-28 104v182h211v-182l-29 -104l76 75l157 93l107 -183l-160 -92l-104 -26l104 -25l160 -92l-107 -182l-157 92l-76 75l29 -104v-182h-211v182l28 104l-73 -77l-160 -92z" />
<glyph unicode="+" horiz-adv-x="759" d="M55 614v250h201v242h250v-242h199v-250h-199v-241h-250v241h-201z" />
<glyph unicode="," d="M43 -184l100 184h-88v248h232v-248l-174 -184h-70z" />
<glyph unicode="-" horiz-adv-x="468" d="M55 614v250h359v-250h-359z" />
<glyph unicode="." d="M55 0v248h232v-248h-232z" />
<glyph unicode="/" horiz-adv-x="759" d="M51 0l457 1638h252l-457 -1638h-252z" />
<glyph unicode="0" horiz-adv-x="696" d="M47 281v1077q0 124 88.5 212.5t212.5 88.5t212.5 -88.5t88.5 -212.5v-1077q0 -125 -88.5 -213t-212.5 -88t-212.5 88t-88.5 213zM299 287q0 -20 14.5 -34.5t34.5 -14.5t34.5 14.5t14.5 34.5v1065q0 20 -14.5 34.5t-34.5 14.5t-34.5 -14.5t-14.5 -34.5v-1065z" />
<glyph unicode="1" horiz-adv-x="577" d="M20 1239v158q98 17 161.5 80t80.5 161h178v-1638h-252v1239h-168z" />
<glyph unicode="2" horiz-adv-x="679" d="M29 0q0 190 55 397.5t149 397.5q94 191 131 304t37 249q0 35 -18.5 54t-44.5 19q-27 0 -47.5 -19t-20.5 -54v-230h-231v240q0 125 83.5 213t207.5 88q149 0 231 -104t82 -275q0 -27 -3.5 -56.5t-12.5 -65t-15.5 -61.5t-23 -69t-23.5 -64t-28.5 -69.5t-27.5 -62t-30 -66 t-26 -57.5q-64 -142 -96 -235.5t-52 -223.5h303v-250h-579z" />
<glyph unicode="3" horiz-adv-x="657" d="M35 281v170h241v-164q0 -20 15 -34.5t35 -14.5q21 0 35 14t14 35v379q0 22 -13.5 35.5t-35.5 13.5h-109v229h109q21 0 35 14t14 35v359q0 21 -14 35t-35 14q-20 0 -35 -14.5t-15 -34.5v-164h-241v170q0 125 83.5 213t207.5 88q125 0 208.5 -87.5t83.5 -213.5v-373 q0 -121 -98 -158q98 -34 98 -155v-391q0 -126 -83.5 -213.5t-208.5 -87.5q-124 0 -207.5 88t-83.5 213z" />
<glyph unicode="4" horiz-adv-x="692" d="M27 303v197l360 1138h205v-1108h74v-227h-74v-303h-232v303h-333zM268 530h92v312z" />
<glyph unicode="5" horiz-adv-x="675" d="M47 281v170h242v-164q0 -20 14.5 -34.5t34.5 -14.5t34.5 14.5t14.5 34.5v508q0 20 -14.5 34.5t-34.5 14.5t-34.5 -14.5t-14.5 -34.5l-242 12l39 831h551q0 -112 -34.5 -170.5t-76.5 -58.5h-217l-18 -399q66 51 141 51q84 0 140.5 -59t56.5 -144v-577q0 -125 -83.5 -213 t-207.5 -88t-207.5 88t-83.5 213z" />
<glyph unicode="6" horiz-adv-x="675" d="M47 281v1077q0 125 83.5 213t207.5 88q125 0 208 -87.5t83 -213.5v-170h-242v164q0 21 -14 35t-35 14q-20 0 -34.5 -14.5t-14.5 -34.5v-383q58 51 143 51q84 0 140.5 -59.5t56.5 -145.5v-534q0 -126 -83 -213.5t-208 -87.5q-124 0 -207.5 88t-83.5 213zM289 287 q0 -20 14.5 -34.5t34.5 -14.5q21 0 35 14t14 35v467q0 21 -14 35t-35 14q-20 0 -34.5 -14.5t-14.5 -34.5v-467z" />
<glyph unicode="7" horiz-adv-x="620" d="M53 0l264 1389h-264v249h551l-299 -1638h-252z" />
<glyph unicode="8" horiz-adv-x="675" d="M47 281v368q0 54 33 107t86 71q-53 19 -86 72.5t-33 106.5v352q0 125 83.5 213t207.5 88t207.5 -88t83.5 -213v-352q0 -52 -33.5 -106t-85.5 -73q52 -18 85.5 -71t33.5 -107v-368q0 -125 -83.5 -213t-207.5 -88t-207.5 88t-83.5 213zM289 287q0 -20 14.5 -34.5 t34.5 -14.5t34.5 14.5t14.5 34.5v395q0 21 -14 35t-35 14t-35 -14t-14 -35v-395zM289 977q0 -20 14.5 -34.5t34.5 -14.5t34.5 14.5t14.5 34.5v375q0 20 -14.5 34.5t-34.5 14.5t-34.5 -14.5t-14.5 -34.5v-375z" />
<glyph unicode="9" horiz-adv-x="675" d="M47 281v170h242v-164q0 -20 14.5 -34.5t34.5 -14.5q21 0 35 14t14 35v383q-25 -23 -64 -37.5t-79 -14.5q-84 0 -140.5 59.5t-56.5 145.5v535q0 125 83.5 213t207.5 88q125 0 208 -87.5t83 -213.5v-1077q0 -126 -83 -213.5t-208 -87.5q-124 0 -207.5 88t-83.5 213z M289 885q0 -20 14.5 -34.5t34.5 -14.5q21 0 35 14t14 35v467q0 21 -14 35t-35 14q-20 0 -34.5 -14.5t-14.5 -34.5v-467z" />
<glyph unicode=":" d="M55 0v248h232v-248h-232zM55 717v250h232v-250h-232z" />
<glyph unicode=";" d="M43 -184l100 184h-88v248h232v-248l-172 -184h-72zM55 717v250h232v-250h-232z" />
<glyph unicode="&#x3c;" horiz-adv-x="692" d="M31 770l430 668l201 -150l-328 -518l328 -516l-201 -150z" />
<glyph unicode="=" horiz-adv-x="677" d="M55 408v249h568v-249h-568zM55 823v250h568v-250h-568z" />
<glyph unicode="&#x3e;" horiz-adv-x="692" d="M31 254l327 516l-327 518l200 150l431 -668l-431 -666z" />
<glyph unicode="?" horiz-adv-x="665" d="M37 1118v240q0 126 82 213.5t205 87.5q150 0 229.5 -103t79.5 -276q0 -88 -23 -168t-55.5 -143.5t-64.5 -127t-55 -145t-23 -170.5q0 -42 28 -147h-231q-33 118 -33 176q0 83 16 155.5t40 121.5t51.5 105.5t51.5 108.5t40 131t16 171q0 35 -20 54t-47 19q-26 0 -41 -18.5 t-15 -54.5v-230h-231zM209 0v248h231v-248h-231z" />
<glyph unicode="@" horiz-adv-x="1669" d="M61 819q0 171 63 327t170 268t254.5 178.5t309.5 66.5q153 0 293.5 -59.5t239.5 -157t158 -227t59 -265.5q0 -135 -39 -245t-105.5 -179t-151.5 -106t-179 -37q-208 0 -248 133q-30 -55 -93 -87t-114 -32q-77 0 -122.5 54.5t-33.5 130.5l72 477q12 75 74 128.5t137 53.5 q44 0 79 -20t56 -54l8 54h232l-80 -525q-9 -66 14 -99.5t70 -33.5q95 0 160 101t65 280q0 91 -42 183.5t-113 166t-176 120t-220 46.5q-117 0 -223.5 -51t-184 -136.5t-123.5 -204.5t-46 -249q0 -133 44.5 -251.5t121.5 -204t184 -135.5t227 -50q204 0 371 107l98 -146 q-208 -159 -469 -159q-162 0 -309.5 66.5t-254.5 179t-170 267.5t-63 326zM764 653q-3 -22 9 -35.5t32 -13.5q22 0 38 13.5t19 35.5l51 332q3 22 -9 35.5t-32 13.5q-22 0 -38 -13.5t-19 -35.5z" />
<glyph unicode="A" horiz-adv-x="653" d="M8 0l166 1638h301l170 -1638h-258l-14 276h-115l-22 -276h-228zM279 526h79l-32 559z" />
<glyph unicode="B" horiz-adv-x="671" d="M55 0v1638h310q48 0 93 -14.5t85.5 -45.5t65 -87t24.5 -131v-356q0 -55 -27.5 -94.5t-79.5 -75.5q52 -36 79.5 -75.5t27.5 -94.5v-385q0 -75 -24.5 -131.5t-65 -87t-85.5 -45.5t-93 -15h-310zM307 248h37q43 0 43 65v326q0 66 -43 66h-37v-457zM307 952h37q43 0 43 66 v305q0 66 -43 66h-37v-437z" />
<glyph unicode="C" horiz-adv-x="663" d="M47 281v1077q0 125 83.5 213t207.5 88t207.5 -88t83.5 -213v-336h-242v330q0 20 -14.5 34.5t-34.5 14.5t-34.5 -14.5t-14.5 -34.5v-1065q0 -20 14.5 -34.5t34.5 -14.5t34.5 14.5t14.5 34.5v329h242v-335q0 -125 -83.5 -213t-207.5 -88t-207.5 88t-83.5 213z" />
<glyph unicode="D" horiz-adv-x="690" d="M55 0v1638h330q48 0 91.5 -14.5t82 -45.5t61.5 -87t23 -131v-1081q0 -75 -23 -131t-61.5 -87t-82 -46t-91.5 -15h-330zM307 248h55q46 0 46 65v1010q0 66 -46 66h-55v-1141z" />
<glyph unicode="E" horiz-adv-x="589" d="M55 0v1638h498v-229h-244v-434h160v-250h-160v-475h244v-250h-498z" />
<glyph unicode="F" horiz-adv-x="589" d="M55 0v1638h498v-229h-244v-467h180v-237h-180v-705h-254z" />
<glyph unicode="G" horiz-adv-x="679" d="M47 281v1077q0 125 83.5 213t207.5 88t207.5 -88t83.5 -213v-357h-242v351q0 20 -14.5 34.5t-34.5 14.5t-34.5 -14.5t-14.5 -34.5v-1086q0 -20 14.5 -34.5t34.5 -14.5t34.5 14.5t14.5 34.5v318h-49v217h301v-801h-147l-21 33q-62 -53 -162 -53q-120 0 -191 81.5 t-71 219.5z" />
<glyph unicode="H" horiz-adv-x="712" d="M55 0v1638h252v-706h99v706h251v-1638h-251v684h-99v-684h-252z" />
<glyph unicode="I" horiz-adv-x="374" d="M61 0v1638h252v-1638h-252z" />
<glyph unicode="J" horiz-adv-x="665" d="M31 281v387h241v-392q0 -20 15 -34.5t35 -14.5q21 0 35 14t14 35v1362h243v-1357q0 -126 -83.5 -213.5t-208.5 -87.5q-124 0 -207.5 88t-83.5 213z" />
<glyph unicode="K" horiz-adv-x="692" d="M55 0v1638h252v-718l137 718h242l-162 -751l189 -887h-252l-103 567l-51 -209v-358h-252z" />
<glyph unicode="L" horiz-adv-x="583" d="M55 0v1638h252v-1388h246v-250h-498z" />
<glyph unicode="M" horiz-adv-x="1071" d="M55 0v1638h394l92 -768l98 768h377v-1638h-252v1106l-166 -1106h-166l-149 1106v-1106h-228z" />
<glyph unicode="N" horiz-adv-x="755" d="M55 0v1638h293l141 -888v888h211v-1638h-254l-180 874v-874h-211z" />
<glyph unicode="O" horiz-adv-x="696" d="M47 281v1077q0 124 88.5 212.5t212.5 88.5t212.5 -88.5t88.5 -212.5v-1077q0 -125 -88.5 -213t-212.5 -88t-212.5 88t-88.5 213zM299 287q0 -20 14.5 -34.5t34.5 -14.5t34.5 14.5t14.5 34.5v1065q0 20 -14.5 34.5t-34.5 14.5t-34.5 -14.5t-14.5 -34.5v-1065z" />
<glyph unicode="P" horiz-adv-x="665" d="M55 0v1638h310q49 0 94 -14.5t86 -45.5t65.5 -87t24.5 -131v-418q0 -75 -24.5 -131t-65.5 -87t-86 -45.5t-94 -14.5h-58v-664h-252zM307 911h37q43 0 43 66v346q0 66 -43 66h-37v-478z" />
<glyph unicode="Q" horiz-adv-x="696" d="M47 281v1077q0 124 88.5 212.5t212.5 88.5t212.5 -88.5t88.5 -212.5v-1077q0 -106 -65 -188t-166 -105q-15 -43 -15 -82q0 -66 39 -66t39 64q0 32 -10 49h100q21 -52 21 -96q0 -74 -45 -118t-129 -44q-182 0 -182 180q0 67 26 117q-95 28 -155 107.5t-60 181.5zM299 287 q0 -20 14.5 -34.5t34.5 -14.5t34.5 14.5t14.5 34.5v1063q0 21 -14 35t-35 14t-35 -14t-14 -35v-1063z" />
<glyph unicode="R" horiz-adv-x="675" d="M55 0v1638h310q49 0 94 -14.5t86 -45.5t65.5 -87t24.5 -131v-397q0 -55 -27.5 -95t-81.5 -75q55 -36 84 -75.5t29 -94.5v-349q0 -109 33 -274h-248q-31 124 -31 254v364q0 29 -14 47.5t-39 18.5h-33v-684h-252zM307 911h37q43 0 43 66v346q0 66 -43 66h-37v-478z" />
<glyph unicode="S" horiz-adv-x="655" d="M12 281v239h232v-215q0 -36 20 -62t55 -26q72 0 72 88q0 37 -8.5 77.5t-17.5 69.5t-32.5 78.5t-34.5 70.5t-44.5 81t-42.5 76q-86 160 -134 284.5t-48 237.5q0 172 80.5 275.5t228.5 103.5q123 0 205 -87.5t82 -213.5v-240h-232v230q0 36 -15 54.5t-40 18.5 q-27 0 -47.5 -19t-20.5 -54q0 -115 35.5 -212t124.5 -266q8 -14 46.5 -85t49.5 -93.5t39 -81.5t38 -91t20 -77.5t10 -83.5q0 -163 -80.5 -270.5t-220.5 -107.5q-142 0 -231 87t-89 214z" />
<glyph unicode="T" horiz-adv-x="606" d="M14 1389v249h578v-249h-158v-1389h-252v1389h-168z" />
<glyph unicode="U" horiz-adv-x="673" d="M51 281v1357h242v-1351q0 -20 14.5 -34.5t34.5 -14.5q21 0 35 14t14 35v1351h232v-1357q0 -127 -78.5 -214t-202.5 -87t-207.5 88t-83.5 213z" />
<glyph unicode="V" horiz-adv-x="638" d="M0 1638h250l78 -956l88 956h229l-207 -1638h-233z" />
<glyph unicode="W" horiz-adv-x="960" d="M0 1638h250l78 -841l75 841h168l74 -841l90 841h228l-195 -1638h-203l-78 733l-77 -733h-213z" />
<glyph unicode="X" horiz-adv-x="671" d="M8 0l191 821l-179 817h244l74 -432l86 432h231l-186 -776l178 -862h-241l-78 432l-88 -432h-232z" />
<glyph unicode="Y" horiz-adv-x="663" d="M12 1638h244l94 -526l86 526h232l-209 -911v-727h-244v727z" />
<glyph unicode="Z" horiz-adv-x="540" d="M-4 0l252 1389h-211v249h485l-254 -1388h244v-250h-516z" />
<glyph unicode="[" horiz-adv-x="561" d="M96 -563v2355h496v-227h-244v-1899h244v-229h-496z" />
<glyph unicode="\" horiz-adv-x="759" d="M0 1638h252l457 -1638h-252z" />
<glyph unicode="]" horiz-adv-x="561" d="M-31 -334h244v1899h-244v227h496v-2355h-496v229z" />
<glyph unicode="^" horiz-adv-x="692" d="M31 1348l200 290h232l199 -290h-191l-125 141l-125 -141h-190z" />
<glyph unicode="_" horiz-adv-x="1079" d="M55 0v250h969v-250h-969z" />
<glyph unicode="`" horiz-adv-x="409" d="M70 1638h231l41 -290h-147z" />
<glyph unicode="a" horiz-adv-x="643" d="M20 260v88q0 42 10 79.5t35 73.5t49 63.5t70 64t78.5 60t93.5 65.5v221q0 49 -39 49q-38 0 -38 -49v-146h-232v119q0 117 82 200t199 83q114 0 187 -82t73 -201v-698q0 -49 10 -121.5t31 -128.5h-191l-12 68q-20 -41 -63.5 -64.5t-96.5 -23.5q-109 0 -177.5 79t-68.5 201 zM258 244q0 -60 49 -60q24 0 36.5 17t12.5 43v299q-30 -23 -43 -34.5t-28.5 -30t-21 -38t-5.5 -45.5v-151z" />
<glyph unicode="b" horiz-adv-x="669" d="M55 0v1638h234v-483q56 76 145 76q76 0 130 -53.5t54 -130.5v-885q0 -75 -54 -128.5t-130 -53.5q-91 0 -145 73l-13 -53h-221zM289 233q0 -20 13.5 -34.5t33.5 -14.5q21 0 35 14t14 35v742q0 21 -14 35t-35 14q-20 0 -33.5 -14.5t-13.5 -34.5v-742z" />
<glyph unicode="c" horiz-adv-x="649" d="M47 260v688q0 117 82 200t199 83q116 0 198 -83t82 -200v-182h-231v209q0 20 -14.5 34.5t-34.5 14.5q-21 0 -35 -14t-14 -35v-742q0 -21 14 -35t35 -14q20 0 34.5 14.5t14.5 34.5v209h231v-182q0 -117 -82 -198.5t-198 -81.5q-117 0 -199 81.5t-82 198.5z" />
<glyph unicode="d" horiz-adv-x="667" d="M51 162v885q0 76 53.5 130t128.5 54q89 0 148 -76v483h231v-1638h-221l-10 53q-57 -73 -148 -73q-75 0 -128.5 53.5t-53.5 128.5zM283 233q0 -20 14.5 -34.5t34.5 -14.5t34.5 14.5t14.5 34.5v742q0 20 -14.5 34.5t-34.5 14.5t-34.5 -14.5t-14.5 -34.5v-742z" />
<glyph unicode="e" horiz-adv-x="663" d="M51 260v688q0 117 82 200t199 83t198.5 -83t81.5 -200v-389h-329v-326q0 -20 14.5 -34.5t34.5 -14.5t34.5 14.5t14.5 34.5v209h231v-182q0 -117 -81.5 -198.5t-198.5 -81.5t-199 81.5t-82 198.5zM283 711h98v264q0 20 -14.5 34.5t-34.5 14.5t-34.5 -14.5t-14.5 -34.5 v-264z" />
<glyph unicode="f" horiz-adv-x="413" d="M10 995v213h74v205q0 97 64 161t159 64h107v-235h-49q-21 0 -35.5 -14t-14.5 -35v-146h99v-213h-99v-995h-231v995h-74z" />
<glyph unicode="g" horiz-adv-x="659" d="M18 248q0 65 48.5 113.5t115.5 56.5q-71 22 -103 88.5t-32 152.5v289q0 117 82 200t199 83q14 0 45 -4t37 -4q60 0 82 23t22 67h178q6 -41 6 -76q0 -69 -27.5 -105t-70.5 -36q-11 0 -39 8q47 -68 47 -156v-278q0 -117 -82 -204t-198 -87h-27q-41 -26 -41 -80 q0 -29 23.5 -55.5t48.5 -26.5q135 0 216 -69.5t81 -186.5v-131q0 -133 -81.5 -207t-219.5 -74q-128 0 -211.5 74.5t-83.5 206.5v107q0 47 24 94.5t58 72.5q-41 17 -69 58.5t-28 85.5zM272 -47v-139q0 -24 18 -43t50 -19q29 0 48.5 19.5t19.5 42.5v139q0 24 -17.5 42.5 t-50.5 18.5q-35 0 -51.5 -17.5t-16.5 -43.5zM279 633q0 -20 14.5 -34.5t34.5 -14.5t34.5 14.5t14.5 34.5v342q0 20 -14.5 34.5t-34.5 14.5t-34.5 -14.5t-14.5 -34.5v-342z" />
<glyph unicode="h" horiz-adv-x="669" d="M55 0v1638h234v-483q56 76 145 76q76 0 130 -53.5t54 -130.5v-1047h-233v975q0 21 -14 35t-35 14q-20 0 -33.5 -14.5t-13.5 -34.5v-975h-234z" />
<glyph unicode="i" d="M55 0v1208h232v-1208h-232zM55 1366v272h232v-272h-232z" />
<glyph unicode="j" d="M-43 -195h49q20 0 34.5 14.5t14.5 35.5v1353h232v-1413q0 -97 -64.5 -161t-159.5 -64h-106v235zM55 1366v272h232v-272h-232z" />
<glyph unicode="k" horiz-adv-x="630" d="M55 0v1638h234v-878l110 450h232l-154 -510l174 -700h-231l-105 432l-26 -88v-344h-234z" />
<glyph unicode="l" d="M55 0v1638h232v-1638h-232z" />
<glyph unicode="m" horiz-adv-x="997" d="M55 0v1208h221l11 -53q59 76 147 76q107 0 166 -103q26 46 69 74.5t95 28.5q75 0 128.5 -54t53.5 -130v-1047h-231v965q0 21 -14 35t-35 14q-20 0 -35 -14.5t-15 -34.5v-965h-231v975q0 21 -14 35t-35 14q-20 0 -34.5 -14.5t-14.5 -34.5v-975h-232z" />
<glyph unicode="n" horiz-adv-x="667" d="M55 0v1208h221l11 -53q56 76 147 76q75 0 128.5 -54t53.5 -130v-1047h-231v975q0 20 -14.5 34.5t-34.5 14.5t-34.5 -14.5t-14.5 -34.5v-975h-232z" />
<glyph unicode="o" horiz-adv-x="655" d="M47 260v688q0 117 82.5 200t198.5 83q117 0 198.5 -83t81.5 -200v-688q0 -117 -81.5 -198.5t-198.5 -81.5q-116 0 -198.5 81.5t-82.5 198.5zM279 233q0 -20 14.5 -34.5t34.5 -14.5q21 0 35 14t14 35v742q0 21 -14 35t-35 14q-20 0 -34.5 -14.5t-14.5 -34.5v-742z" />
<glyph unicode="p" horiz-adv-x="667" d="M55 -428v1638h221l11 -53q58 74 147 74q76 0 129 -53.5t53 -128.5v-885q0 -77 -53 -130.5t-129 -53.5q-90 0 -147 73v-481h-232zM287 236q0 -22 14.5 -36t34.5 -14q22 0 35.5 14t13.5 36v741q0 21 -14 35t-35 14q-20 0 -34.5 -14.5t-14.5 -34.5v-741z" />
<glyph unicode="q" horiz-adv-x="667" d="M51 162v885q0 76 53.5 130t128.5 54q88 0 148 -74l10 51h221v-1638h-231v483q-57 -73 -148 -73q-75 0 -128.5 53.5t-53.5 128.5zM283 233q0 -21 14 -35t35 -14q20 0 34.5 14.5t14.5 34.5v742q0 20 -14.5 34.5t-34.5 14.5q-21 0 -35 -14t-14 -35v-742z" />
<glyph unicode="r" horiz-adv-x="489" d="M55 0v1208h221l11 -65q29 38 78 63t110 25v-248q-101 0 -144.5 -24t-43.5 -93v-866h-232z" />
<glyph unicode="s" horiz-adv-x="606" d="M23 907q0 159 81 241.5t199 82.5q116 0 193 -82.5t77 -200.5v-119h-211v142q0 21 -15 37t-40 16q-26 0 -39.5 -15.5t-13.5 -37.5q0 -31 1.5 -52.5t11 -47.5t12.5 -36.5t25.5 -43t29.5 -42t43 -57.5q13 -17 47 -61t49.5 -65t41 -60.5t37.5 -67.5t22 -65t10 -72 q0 -82 -30 -153.5t-95.5 -119.5t-155.5 -48q-124 0 -197 79.5t-73 200.5v105h211v-127q0 -22 15 -41t40 -19q23 0 38 19t15 41q0 84 -28.5 138.5t-140.5 202.5q-4 5 -7 9l-6 8q-49 62 -74 98t-49 96t-24 117z" />
<glyph unicode="t" horiz-adv-x="512" d="M20 995v213h105v168h233v-168h119v-213h-119v-710q0 -22 14 -35.5t36 -13.5h59v-236h-117q-97 0 -161 64t-64 161v770h-105z" />
<glyph unicode="u" horiz-adv-x="667" d="M51 162v1046h232v-975q0 -20 14.5 -34.5t34.5 -14.5t34.5 14.5t14.5 34.5v975h231v-1208h-221l-10 53q-57 -73 -148 -73q-75 0 -128.5 53.5t-53.5 128.5z" />
<glyph unicode="v" horiz-adv-x="565" d="M0 1208h217l64 -608l65 608h215l-186 -1208h-189z" />
<glyph unicode="w" horiz-adv-x="884" d="M0 1208h225l56 -608l73 608h174l76 -608l55 608h226l-197 -1208h-178l-78 569l-80 -569h-176z" />
<glyph unicode="x" horiz-adv-x="628" d="M6 0l180 600l-180 608h242l65 -319l68 319h242l-183 -563l183 -645h-242l-66 338l-67 -338h-242z" />
<glyph unicode="y" horiz-adv-x="630" d="M4 1208h227l76 -661l74 661h227l-246 -1433q-31 -205 -231 -205h-88v235h66q45 0 55 50l39 215z" />
<glyph unicode="z" horiz-adv-x="518" d="M6 0l215 995h-194v213h467l-215 -993h215v-215h-488z" />
<glyph unicode="{" horiz-adv-x="632" d="M59 492v247h117q43 0 43 66v711q0 60 16.5 108t43.5 79t63 51.5t72.5 29t74.5 8.5h144v-227h-117q-43 0 -43 -66v-719q0 -55 -28 -94.5t-80 -75.5q52 -36 80 -75.5t28 -94.5v-708q0 -66 43 -66h117v-229h-144q-48 0 -93.5 15t-86.5 46t-65.5 87t-24.5 130v711 q0 66 -43 66h-117z" />
<glyph unicode="|" horiz-adv-x="374" d="M61 0v1638h252v-1638h-252z" />
<glyph unicode="}" horiz-adv-x="632" d="M0 -334h117q43 0 43 66v708q0 55 28 94.5t80 75.5q-52 36 -80 75.5t-28 94.5v719q0 66 -43 66h-117v227h143q49 0 94 -14.5t86 -45t66 -86.5t25 -130v-711q0 -66 43 -66h116v-247h-116q-43 0 -43 -66v-711q0 -74 -25 -130t-66 -87t-86.5 -46t-93.5 -15h-143v229z" />
<glyph unicode="~" horiz-adv-x="690" d="M31 702q0 110 58.5 172t162.5 62q42 0 79 -18t67 -36t55 -18q84 0 84 72h122q0 -111 -57.5 -172.5t-161.5 -61.5q-43 0 -80 18.5t-66.5 37t-53.5 18.5q-84 0 -84 -74h-125z" />
<glyph unicode="&#xa1;" horiz-adv-x="374" d="M61 -166l62 754h127l63 -754v-506h-252v506zM72 719v248h231v-248h-231z" />
<glyph unicode="&#xa2;" horiz-adv-x="649" d="M47 260v690q0 89 53 161.5t136 102.5v127h176v-124q87 -26 141.5 -100t54.5 -167v-184h-231v209q0 20 -14.5 34.5t-34.5 14.5t-34.5 -14.5t-14.5 -34.5v-742q0 -20 14.5 -34.5t34.5 -14.5t34.5 14.5t14.5 34.5v209h231v-182q0 -94 -54.5 -168t-141.5 -100v-121h-176v123 q-84 30 -136.5 102.5t-52.5 163.5z" />
<glyph unicode="&#xa3;" horiz-adv-x="937" d="M4 164q0 78 58 135t159 57q41 0 76 -14q33 73 50.5 134t17.5 134q0 59 -17 125h-194v176h143q-2 8 -19 68t-24 90.5t-15 92t-8 120.5q0 171 80 274t230 103q123 0 204.5 -87.5t81.5 -213.5v-240h-231v230q0 36 -15 54.5t-40 18.5q-27 0 -47.5 -19t-20.5 -54 q0 -74 8.5 -147t16 -110.5t24 -102t19.5 -77.5h200v-176h-170q4 -40 4 -65q0 -89 -31 -182t-93 -214l53 -28q39 -29 86 -29q33 0 51 23t18 61v219h232v-239q0 -126 -82 -213.5t-207 -87.5q-65 0 -134 33t-99 75q-35 -57 -74.5 -82.5t-91.5 -25.5q-85 0 -142 51t-57 133z M154 195q0 -18 10 -27.5t24 -9.5q35 0 56 41q-18 34 -56 34q-15 0 -24.5 -10.5t-9.5 -27.5z" />
<glyph unicode="&#xa5;" horiz-adv-x="757" d="M41 391v197h213v14l-31 121h-182v199h131l-131 510h244l104 -486l96 486h232l-135 -510h135v-199h-187l-32 -121v-14h219v-197h-219v-391h-244v391h-213z" />
<glyph unicode="&#xa7;" horiz-adv-x="612" d="M20 813q0 104 44 173.5t118 98.5q-51 59 -75.5 90.5t-50 87t-25.5 107.5q0 142 81 215.5t199 73.5q116 0 193.5 -73.5t77.5 -178.5v-107h-211v125q0 20 -15.5 35t-40.5 15t-39 -15t-14 -35q0 -70 20.5 -109.5t87.5 -119.5q11 -13 17 -20q13 -16 46 -54.5t49 -58t41 -54.5 t37 -60.5t22 -58.5t10 -65q0 -87 -42 -160.5t-122 -105.5q39 -46 58.5 -71.5t46 -65.5t38 -77.5t11.5 -76.5q0 -54 -17.5 -104.5t-51 -92t-88.5 -66.5t-124 -25q-124 0 -197 71.5t-73 179.5v95h211v-113q0 -21 15 -38t40 -17q23 0 38 17.5t15 37.5q0 76 -30 126.5 t-152 192.5q-38 45 -56 67t-44 61.5t-37 76t-11 76.5zM236 784q0 -28 20 -48.5t49 -20.5t50.5 20.5t21.5 48.5v64q0 29 -21.5 49.5t-50.5 20.5t-49 -20.5t-20 -49.5v-64z" />
<glyph unicode="&#xa8;" horiz-adv-x="671" d="M55 1415v223h209v-223h-209zM408 1415v223h208v-223h-208z" />
<glyph unicode="&#xa9;" horiz-adv-x="1802" d="M61 819q0 114 30 223.5t84.5 201.5t132 169.5t169.5 131.5t201 84t223 30q171 0 327 -66.5t268 -178.5t178.5 -268t66.5 -327t-66.5 -326t-178.5 -267.5t-268 -179t-327 -66.5t-326.5 66.5t-268 179t-179 267.5t-66.5 326zM209 819q0 -188 92.5 -347.5t252 -252 t347.5 -92.5t347.5 92.5t252 252t92.5 347.5t-92.5 347.5t-252 252t-347.5 92.5t-347.5 -92.5t-252 -252t-92.5 -347.5zM532 819q0 164 114.5 279.5t275.5 115.5q144 0 240.5 -93.5t111.5 -237.5h-244q-7 49 -36 74.5t-62 25.5q-41 0 -71 -41t-30 -123t30 -123t71 -41 q33 0 62 26t36 73h244q-15 -142 -112.5 -236t-239.5 -94q-161 0 -275.5 116t-114.5 279z" />
<glyph unicode="&#xaa;" horiz-adv-x="446" d="M20 1077v51q0 37 14.5 68.5t51 64t65 52.5t89.5 59v133q0 29 -25 29q-27 0 -27 -29v-88h-149v72q0 70 53.5 120t128.5 50q74 0 122 -49t48 -121v-418q0 -82 27 -151h-125l-8 41q-12 -25 -41 -39.5t-64 -14.5q-70 0 -115 48t-45 122zM176 1067q0 -37 31 -37q33 0 33 37 v178q-26 -18 -36.5 -27t-19 -24.5t-8.5 -36.5v-90z" />
<glyph unicode="&#xab;" horiz-adv-x="970" d="M31 604l190 604h283l-203 -604l203 -604h-283zM457 604l190 604h283l-203 -604l203 -604h-283z" />
<glyph unicode="&#xad;" horiz-adv-x="468" d="M55 614v250h359v-250h-359z" />
<glyph unicode="&#xae;" horiz-adv-x="1802" d="M61 819q0 114 30 223.5t84.5 201.5t132 169.5t169.5 131.5t201 84t223 30q171 0 327 -66.5t268 -178.5t178.5 -268t66.5 -327t-66.5 -326t-178.5 -267.5t-268 -179t-327 -66.5t-326.5 66.5t-268 179t-179 267.5t-66.5 326zM209 819q0 -188 92.5 -347.5t252 -252 t347.5 -92.5t347.5 92.5t252 252t92.5 347.5t-92.5 347.5t-252 252t-347.5 92.5t-347.5 -92.5t-252 -252t-92.5 -347.5zM543 444v752h493q111 0 178.5 -56.5t67.5 -133.5q0 -73 -37.5 -123t-101.5 -68q54 -14 96.5 -58t42.5 -126v-62q0 -53 37 -125h-279q-39 56 -39 117v137 q0 16 -10.5 27.5t-27.5 11.5h-123v-293h-297zM840 879h123q16 0 27 14.5t11 30.5t-11 30.5t-27 14.5h-123v-90z" />
<glyph unicode="&#xaf;" horiz-adv-x="612" d="M55 1460v178h502v-178h-502z" />
<glyph unicode="&#xb0;" horiz-adv-x="745" d="M41 1327q0 138 97 235t235 97t235 -97t97 -235t-97 -235t-235 -97t-235 97t-97 235zM213 1327q0 -65 46.5 -112.5t113.5 -47.5q64 0 111.5 47.5t47.5 112.5t-47.5 112.5t-111.5 47.5q-67 0 -113.5 -47.5t-46.5 -112.5z" />
<glyph unicode="&#xb4;" horiz-adv-x="409" d="M84 1348l41 290h231l-125 -290h-147z" />
<glyph unicode="&#xb6;" horiz-adv-x="962" d="M35 1151q0 114 25 209.5t65 154.5t86.5 91t93.5 32h309v-1638h-170v664h-139q-47 0 -93.5 32t-86.5 91t-65 154.5t-25 209.5zM739 0v1638h168v-1638h-168z" />
<glyph unicode="&#xb7;" d="M55 717v250h232v-250h-232z" />
<glyph unicode="&#xb8;" horiz-adv-x="428" d="M76 -199l12 199h119l-8 -96q33 26 69 26q41 0 70 -30t29 -72v-143q0 -62 -42 -106t-104 -44t-103.5 44t-41.5 106v43h121v-39q0 -11 7 -18t17 -7q9 0 17 7.5t8 17.5v108q0 9 -8 17t-17 8q-10 0 -17 -8t-7 -17z" />
<glyph unicode="&#xba;" horiz-adv-x="458" d="M47 1077v412q0 70 53.5 120t128.5 50t129 -50t54 -120v-412q0 -70 -54 -120t-129 -50t-128.5 50t-53.5 120zM197 1061q0 -12 10 -21.5t22 -9.5q13 0 23 9.5t10 21.5v444q0 12 -9.5 20.5t-23.5 8.5q-12 0 -22 -8.5t-10 -20.5v-444z" />
<glyph unicode="&#xbb;" horiz-adv-x="970" d="M41 0l203 604l-203 604h283l190 -604l-190 -604h-283zM467 0l203 604l-203 604h283l190 -604l-190 -604h-283z" />
<glyph unicode="&#xbf;" horiz-adv-x="665" d="M33 -313q0 88 23 168t55.5 143.5t64.5 127t55 144.5t23 170q0 39 -29 148h232q32 -114 32 -176q0 -83 -16 -155.5t-40 -121.5t-51.5 -105.5t-51.5 -108.5t-40 -131t-16 -171q0 -35 20.5 -54.5t47.5 -19.5q25 0 40 19t15 55v229h232v-239q0 -126 -82 -213.5t-205 -87.5 q-150 0 -229.5 103t-79.5 276zM225 719v248h232v-248h-232z" />
<glyph unicode="&#xc0;" horiz-adv-x="653" d="M8 0l166 1638h301l170 -1638h-258l-14 276h-115l-22 -276h-228zM123 2048h231l41 -291h-147zM279 526h79l-32 559z" />
<glyph unicode="&#xc1;" horiz-adv-x="653" d="M8 0l166 1638h301l170 -1638h-258l-14 276h-115l-22 -276h-228zM240 1757l41 291h231l-125 -291h-147zM279 526h79l-32 559z" />
<glyph unicode="&#xc2;" horiz-adv-x="653" d="M8 0l166 1638h301l170 -1638h-258l-14 276h-115l-22 -276h-228zM10 1757l201 291h231l199 -291h-190l-125 141l-125 -141h-191zM279 526h79l-32 559z" />
<glyph unicode="&#xc3;" horiz-adv-x="653" d="M8 0l166 1638h301l170 -1638h-258l-14 276h-115l-22 -276h-228zM18 1835q0 110 59 171.5t163 61.5q42 0 78.5 -18t66.5 -35.5t55 -17.5q84 0 84 71h123q0 -110 -57.5 -171.5t-161.5 -61.5q-43 0 -80 18.5t-67 37t-54 18.5q-84 0 -84 -74h-125zM279 526h79l-32 559z" />
<glyph unicode="&#xc4;" horiz-adv-x="653" d="M8 0l166 1638h301l170 -1638h-258l-14 276h-115l-22 -276h-228zM55 1825v223h209v-223h-209zM279 526h79l-32 559zM408 1825v223h208v-223h-208z" />
<glyph unicode="&#xc5;" horiz-adv-x="653" d="M8 0l166 1638h55q-71 51 -71 138q0 69 48.5 117.5t117.5 48.5t117 -48.5t48 -117.5q0 -87 -71 -138h57l170 -1638h-258l-14 276h-115l-22 -276h-228zM244 1776q0 -33 23.5 -56.5t56.5 -23.5q32 0 55.5 24t23.5 56t-23.5 55.5t-55.5 23.5q-34 0 -57 -23.5t-23 -55.5z M279 526h79l-32 559z" />
<glyph unicode="&#xc6;" horiz-adv-x="878" d="M8 0l168 1638h666v-229h-244v-434h162v-250h-162v-475h244v-250h-496v276h-88l-22 -276h-228zM279 526h67v772z" />
<glyph unicode="&#xc7;" horiz-adv-x="663" d="M47 281v1077q0 125 83.5 213t207.5 88t207.5 -88t83.5 -213v-336h-242v330q0 20 -14.5 34.5t-34.5 14.5t-34.5 -14.5t-14.5 -34.5v-1065q0 -20 14.5 -34.5t34.5 -14.5t34.5 14.5t14.5 34.5v329h242v-335q0 -114 -70.5 -198t-179.5 -99l-6 -80q33 26 69 26q41 0 70 -30 t29 -72v-143q0 -62 -42 -106t-104 -44t-103.5 44t-41.5 106v43h121v-39q0 -11 7 -18t17 -7q9 0 17 7.5t8 17.5v108q0 9 -8 17t-17 8q-10 0 -17 -8t-7 -17l-121 4l10 189q-94 26 -153.5 106.5t-59.5 184.5z" />
<glyph unicode="&#xc8;" horiz-adv-x="589" d="M55 0v1638h498v-229h-244v-434h160v-250h-160v-475h244v-250h-498zM111 2048h231l41 -291h-147z" />
<glyph unicode="&#xc9;" horiz-adv-x="589" d="M55 0v1638h498v-229h-244v-434h160v-250h-160v-475h244v-250h-498zM207 1757l41 291h231l-125 -291h-147z" />
<glyph unicode="&#xca;" horiz-adv-x="589" d="M-18 1757l200 291h232l198 -291h-190l-125 141l-125 -141h-190zM55 0v1638h498v-229h-244v-434h160v-250h-160v-475h244v-250h-498z" />
<glyph unicode="&#xcb;" horiz-adv-x="589" d="M27 1825v223h209v-223h-209zM55 0v1638h498v-229h-244v-434h160v-250h-160v-475h244v-250h-498zM379 1825v223h209v-223h-209z" />
<glyph unicode="&#xcc;" horiz-adv-x="374" d="M-16 2048h231l41 -291h-147zM61 0v1638h252v-1638h-252z" />
<glyph unicode="&#xcd;" horiz-adv-x="374" d="M61 0v1638h252v-1638h-252zM109 1757l41 291h231l-125 -291h-147z" />
<glyph unicode="&#xce;" horiz-adv-x="374" d="M-125 1757l201 291h231l199 -291h-191l-125 141l-124 -141h-191zM61 0v1638h252v-1638h-252z" />
<glyph unicode="&#xcf;" horiz-adv-x="374" d="M-96 1825v223h209v-223h-209zM61 0v1638h252v-1638h-252zM256 1825v223h209v-223h-209z" />
<glyph unicode="&#xd1;" horiz-adv-x="755" d="M55 0v1638h293l141 -888v888h211v-1638h-254l-180 874v-874h-211zM63 1835q0 110 59 171.5t163 61.5q42 0 78.5 -18t66.5 -35.5t55 -17.5q84 0 84 71h123q0 -110 -57.5 -171.5t-161.5 -61.5q-43 0 -80 18.5t-67 37t-54 18.5q-84 0 -84 -74h-125z" />
<glyph unicode="&#xd2;" horiz-adv-x="696" d="M47 281v1077q0 124 88.5 212.5t212.5 88.5t212.5 -88.5t88.5 -212.5v-1077q0 -125 -88.5 -213t-212.5 -88t-212.5 88t-88.5 213zM143 2048h232l41 -291h-148zM299 287q0 -20 14.5 -34.5t34.5 -14.5t34.5 14.5t14.5 34.5v1065q0 20 -14.5 34.5t-34.5 14.5t-34.5 -14.5 t-14.5 -34.5v-1065z" />
<glyph unicode="&#xd3;" horiz-adv-x="696" d="M47 281v1077q0 124 88.5 212.5t212.5 88.5t212.5 -88.5t88.5 -212.5v-1077q0 -125 -88.5 -213t-212.5 -88t-212.5 88t-88.5 213zM272 1757l41 291h232l-125 -291h-148zM299 287q0 -20 14.5 -34.5t34.5 -14.5t34.5 14.5t14.5 34.5v1065q0 20 -14.5 34.5t-34.5 14.5 t-34.5 -14.5t-14.5 -34.5v-1065z" />
<glyph unicode="&#xd4;" horiz-adv-x="696" d="M31 1757l200 291h232l199 -291h-191l-125 141l-125 -141h-190zM47 281v1077q0 124 88.5 212.5t212.5 88.5t212.5 -88.5t88.5 -212.5v-1077q0 -125 -88.5 -213t-212.5 -88t-212.5 88t-88.5 213zM299 287q0 -20 14.5 -34.5t34.5 -14.5t34.5 14.5t14.5 34.5v1065 q0 20 -14.5 34.5t-34.5 14.5t-34.5 -14.5t-14.5 -34.5v-1065z" />
<glyph unicode="&#xd5;" horiz-adv-x="696" d="M43 1835q0 110 58.5 171.5t162.5 61.5q42 0 79 -18t67 -35.5t55 -17.5q84 0 84 71h123q0 -110 -57.5 -171.5t-161.5 -61.5q-43 0 -80 18.5t-67 37t-54 18.5q-84 0 -84 -74h-125zM47 281v1077q0 124 88.5 212.5t212.5 88.5t212.5 -88.5t88.5 -212.5v-1077 q0 -125 -88.5 -213t-212.5 -88t-212.5 88t-88.5 213zM299 287q0 -20 14.5 -34.5t34.5 -14.5t34.5 14.5t14.5 34.5v1065q0 20 -14.5 34.5t-34.5 14.5t-34.5 -14.5t-14.5 -34.5v-1065z" />
<glyph unicode="&#xd6;" horiz-adv-x="696" d="M47 281v1077q0 124 88.5 212.5t212.5 88.5t212.5 -88.5t88.5 -212.5v-1077q0 -125 -88.5 -213t-212.5 -88t-212.5 88t-88.5 213zM68 1825v223h208v-223h-208zM299 287q0 -20 14.5 -34.5t34.5 -14.5t34.5 14.5t14.5 34.5v1065q0 20 -14.5 34.5t-34.5 14.5t-34.5 -14.5 t-14.5 -34.5v-1065zM420 1825v223h209v-223h-209z" />
<glyph unicode="&#xd8;" horiz-adv-x="696" d="M6 -61l62 231q-21 61 -21 111v1077q0 124 88.5 212.5t212.5 88.5q95 0 172 -55l25 98h147l-63 -236q20 -47 20 -108v-1077q0 -125 -88.5 -213t-212.5 -88q-95 0 -172 55l-22 -96h-148zM299 287q0 -20 14.5 -34.5t34.5 -14.5t34.5 14.5t14.5 34.5v1065q0 20 -14.5 34.5 t-34.5 14.5t-34.5 -14.5t-14.5 -34.5v-1065z" />
<glyph unicode="&#xd9;" horiz-adv-x="673" d="M51 281v1357h242v-1351q0 -20 14.5 -34.5t34.5 -14.5q21 0 35 14t14 35v1351h232v-1357q0 -127 -78.5 -214t-202.5 -87t-207.5 88t-83.5 213zM143 2048h232l41 -291h-148z" />
<glyph unicode="&#xda;" horiz-adv-x="673" d="M51 281v1357h242v-1351q0 -20 14.5 -34.5t34.5 -14.5q21 0 35 14t14 35v1351h232v-1357q0 -127 -78.5 -214t-202.5 -87t-207.5 88t-83.5 213zM264 1757l41 291h232l-125 -291h-148z" />
<glyph unicode="&#xdb;" horiz-adv-x="673" d="M23 1757l200 291h232l198 -291h-190l-125 141l-125 -141h-190zM51 281v1357h242v-1351q0 -20 14.5 -34.5t34.5 -14.5q21 0 35 14t14 35v1351h232v-1357q0 -127 -78.5 -214t-202.5 -87t-207.5 88t-83.5 213z" />
<glyph unicode="&#xdc;" horiz-adv-x="673" d="M51 281v1357h242v-1351q0 -20 14.5 -34.5t34.5 -14.5q21 0 35 14t14 35v1351h232v-1357q0 -127 -78.5 -214t-202.5 -87t-207.5 88t-83.5 213zM55 1825v223h209v-223h-209zM408 1825v223h208v-223h-208z" />
<glyph unicode="&#xdf;" horiz-adv-x="677" d="M55 0v1393q0 115 76.5 190.5t204.5 75.5q145 0 223 -95t78 -290q0 -84 -31.5 -150t-81.5 -100q115 -53 115 -188v-566q0 -127 -86.5 -203.5t-216.5 -76.5v205q29 0 49.5 21t20.5 50v574q0 28 -20.5 48.5t-49.5 20.5v207q34 0 60 40.5t26 117.5q0 108 -23.5 144t-62.5 36 q-20 0 -34.5 -14.5t-14.5 -34.5v-1405h-232z" />
<glyph unicode="&#xe0;" horiz-adv-x="643" d="M20 260v88q0 42 10 79.5t35 73.5t49 63.5t70 64t78.5 60t93.5 65.5v221q0 49 -39 49q-38 0 -38 -49v-146h-232v119q0 117 82 200t199 83q114 0 187 -82t73 -201v-698q0 -49 10 -121.5t31 -128.5h-191l-12 68q-20 -41 -63.5 -64.5t-96.5 -23.5q-109 0 -177.5 79t-68.5 201 zM135 1638h232l41 -290h-148zM258 244q0 -60 49 -60q24 0 36.5 17t12.5 43v299q-30 -23 -43 -34.5t-28.5 -30t-21 -38t-5.5 -45.5v-151z" />
<glyph unicode="&#xe1;" horiz-adv-x="643" d="M20 260v88q0 42 10 79.5t35 73.5t49 63.5t70 64t78.5 60t93.5 65.5v221q0 49 -39 49q-38 0 -38 -49v-146h-232v119q0 117 82 200t199 83q114 0 187 -82t73 -201v-698q0 -49 10 -121.5t31 -128.5h-191l-12 68q-20 -41 -63.5 -64.5t-96.5 -23.5q-109 0 -177.5 79t-68.5 201 zM233 1348l41 290h232l-125 -290h-148zM258 244q0 -60 49 -60q24 0 36.5 17t12.5 43v299q-30 -23 -43 -34.5t-28.5 -30t-21 -38t-5.5 -45.5v-151z" />
<glyph unicode="&#xe2;" horiz-adv-x="643" d="M8 1348l201 290h231l199 -290h-190l-125 141l-125 -141h-191zM20 260v88q0 42 10 79.5t35 73.5t49 63.5t70 64t78.5 60t93.5 65.5v221q0 49 -39 49q-38 0 -38 -49v-146h-232v119q0 117 82 200t199 83q114 0 187 -82t73 -201v-698q0 -49 10 -121.5t31 -128.5h-191l-12 68 q-20 -41 -63.5 -64.5t-96.5 -23.5q-109 0 -177.5 79t-68.5 201zM258 244q0 -60 49 -60q24 0 36.5 17t12.5 43v299q-30 -23 -43 -34.5t-28.5 -30t-21 -38t-5.5 -45.5v-151z" />
<glyph unicode="&#xe3;" horiz-adv-x="643" d="M6 1425q0 110 58.5 172t162.5 62q42 0 79 -18t67 -36t55 -18q84 0 84 72h123q0 -111 -57.5 -172.5t-161.5 -61.5q-43 0 -80 18.5t-67 37t-54 18.5q-84 0 -84 -74h-125zM20 260v88q0 42 10 79.5t35 73.5t49 63.5t70 64t78.5 60t93.5 65.5v221q0 49 -39 49q-38 0 -38 -49 v-146h-232v119q0 117 82 200t199 83q114 0 187 -82t73 -201v-698q0 -49 10 -121.5t31 -128.5h-191l-12 68q-20 -41 -63.5 -64.5t-96.5 -23.5q-109 0 -177.5 79t-68.5 201zM258 244q0 -60 49 -60q24 0 36.5 17t12.5 43v299q-30 -23 -43 -34.5t-28.5 -30t-21 -38t-5.5 -45.5 v-151z" />
<glyph unicode="&#xe4;" horiz-adv-x="643" d="M20 260v88q0 42 10 79.5t35 73.5t49 63.5t70 64t78.5 60t93.5 65.5v221q0 49 -39 49q-38 0 -38 -49v-146h-232v119q0 117 82 200t199 83q114 0 187 -82t73 -201v-698q0 -49 10 -121.5t31 -128.5h-191l-12 68q-20 -41 -63.5 -64.5t-96.5 -23.5q-109 0 -177.5 79t-68.5 201 zM39 1415v223h209v-223h-209zM258 244q0 -60 49 -60q24 0 36.5 17t12.5 43v299q-30 -23 -43 -34.5t-28.5 -30t-21 -38t-5.5 -45.5v-151zM391 1415v223h209v-223h-209z" />
<glyph unicode="&#xe5;" horiz-adv-x="643" d="M20 260v88q0 42 10 79.5t35 73.5t49 63.5t70 64t78.5 60t93.5 65.5v221q0 49 -39 49q-38 0 -38 -49v-146h-232v119q0 117 82 200t199 83q114 0 187 -82t73 -201v-698q0 -49 10 -121.5t31 -128.5h-191l-12 68q-20 -41 -63.5 -64.5t-96.5 -23.5q-109 0 -177.5 79t-68.5 201 zM162 1493q0 69 48.5 117.5t117.5 48.5t117.5 -48.5t48.5 -117.5t-48.5 -117.5t-117.5 -48.5t-117.5 48.5t-48.5 117.5zM248 1493q0 -33 23.5 -56.5t56.5 -23.5q32 0 56 24t24 56t-24 56t-56 24q-33 0 -56.5 -23.5t-23.5 -56.5zM258 244q0 -60 49 -60q24 0 36.5 17t12.5 43 v299q-30 -23 -43 -34.5t-28.5 -30t-21 -38t-5.5 -45.5v-151z" />
<glyph unicode="&#xe6;" horiz-adv-x="968" d="M20 260v88q0 42 10 79.5t34.5 73.5t49 64t69.5 64t78 60t93 65v221q0 49 -37 49q-38 0 -38 -49v-146h-232v121q0 116 82 198.5t199 82.5q86 0 151 -49q71 49 158 49q115 0 198 -82.5t83 -198.5v-391h-330v-326q0 -21 14 -35t35 -14q20 0 34.5 14.5t14.5 34.5v209h232 v-182q0 -117 -82.5 -198.5t-198.5 -81.5q-131 0 -211 92q-22 -43 -64.5 -67.5t-95.5 -24.5q-109 0 -177.5 79t-68.5 201zM258 244q0 -27 11.5 -43.5t35.5 -16.5q49 0 49 60v301q-31 -26 -42 -36t-27.5 -29.5t-21.5 -39t-5 -45.5v-151zM588 711h98v264q0 20 -14.5 34.5 t-34.5 14.5q-21 0 -35 -14t-14 -35v-264z" />
<glyph unicode="&#xe7;" horiz-adv-x="649" d="M47 260v688q0 117 82 200t199 83q116 0 198 -83t82 -200v-182h-231v209q0 20 -14.5 34.5t-34.5 14.5q-21 0 -35 -14t-14 -35v-742q0 -21 14 -35t35 -14q20 0 34.5 14.5t14.5 34.5v209h231v-182q0 -102 -65.5 -179.5t-163.5 -94.5l-6 -82q33 26 69 26q41 0 70 -30t29 -72 v-143q0 -62 -42 -106t-104 -44t-103.5 44t-41.5 106v43h121v-39q0 -11 7 -18t17 -7q9 0 17 7.5t8 17.5v108q0 9 -8 17t-17 8q-10 0 -17 -8t-7 -17l-121 4l12 187q-94 22 -154.5 97.5t-60.5 174.5z" />
<glyph unicode="&#xe8;" horiz-adv-x="663" d="M51 260v688q0 117 82 200t199 83t198.5 -83t81.5 -200v-389h-329v-326q0 -20 14.5 -34.5t34.5 -14.5t34.5 14.5t14.5 34.5v209h231v-182q0 -117 -81.5 -198.5t-198.5 -81.5t-199 81.5t-82 198.5zM131 1638h231l41 -290h-147zM283 711h98v264q0 20 -14.5 34.5t-34.5 14.5 t-34.5 -14.5t-14.5 -34.5v-264z" />
<glyph unicode="&#xe9;" horiz-adv-x="663" d="M51 260v688q0 117 82 200t199 83t198.5 -83t81.5 -200v-389h-329v-326q0 -20 14.5 -34.5t34.5 -14.5t34.5 14.5t14.5 34.5v209h231v-182q0 -117 -81.5 -198.5t-198.5 -81.5t-199 81.5t-82 198.5zM250 1348l41 290h231l-125 -290h-147zM283 711h98v264q0 20 -14.5 34.5 t-34.5 14.5t-34.5 -14.5t-14.5 -34.5v-264z" />
<glyph unicode="&#xea;" horiz-adv-x="663" d="M12 1348l201 290h231l199 -290h-190l-125 141l-125 -141h-191zM51 260v688q0 117 82 200t199 83t198.5 -83t81.5 -200v-389h-329v-326q0 -20 14.5 -34.5t34.5 -14.5t34.5 14.5t14.5 34.5v209h231v-182q0 -117 -81.5 -198.5t-198.5 -81.5t-199 81.5t-82 198.5zM283 711h98 v264q0 20 -14.5 34.5t-34.5 14.5t-34.5 -14.5t-14.5 -34.5v-264z" />
<glyph unicode="&#xeb;" horiz-adv-x="663" d="M49 1415v223h209v-223h-209zM51 260v688q0 117 82 200t199 83t198.5 -83t81.5 -200v-389h-329v-326q0 -20 14.5 -34.5t34.5 -14.5t34.5 14.5t14.5 34.5v209h231v-182q0 -117 -81.5 -198.5t-198.5 -81.5t-199 81.5t-82 198.5zM283 711h98v264q0 20 -14.5 34.5t-34.5 14.5 t-34.5 -14.5t-14.5 -34.5v-264zM401 1415v223h209v-223h-209z" />
<glyph unicode="&#xec;" d="M-29 1638h232l41 -290h-148zM55 0v1208h232v-1208h-232z" />
<glyph unicode="&#xed;" d="M55 0v1208h232v-1208h-232zM94 1348l41 290h232l-125 -290h-148z" />
<glyph unicode="&#xee;" d="M-145 1348l200 290h232l198 -290h-190l-125 141l-125 -141h-190zM55 0v1208h232v-1208h-232z" />
<glyph unicode="&#xef;" d="M-109 1415v223h209v-223h-209zM55 0v1208h232v-1208h-232zM244 1415v223h209v-223h-209z" />
<glyph unicode="&#xf1;" horiz-adv-x="667" d="M20 1425q0 110 59 172t163 62q42 0 78.5 -18t66.5 -36t55 -18q84 0 84 72h123q0 -111 -57.5 -172.5t-161.5 -61.5q-43 0 -80 18.5t-67 37t-54 18.5q-84 0 -84 -74h-125zM55 0v1208h221l11 -53q56 76 147 76q75 0 128.5 -54t53.5 -130v-1047h-231v975q0 20 -14.5 34.5 t-34.5 14.5t-34.5 -14.5t-14.5 -34.5v-975h-232z" />
<glyph unicode="&#xf2;" horiz-adv-x="655" d="M47 260v688q0 117 82.5 200t198.5 83q117 0 198.5 -83t81.5 -200v-688q0 -117 -81.5 -198.5t-198.5 -81.5q-116 0 -198.5 81.5t-82.5 198.5zM123 1638h231l41 -290h-147zM279 233q0 -20 14.5 -34.5t34.5 -14.5q21 0 35 14t14 35v742q0 21 -14 35t-35 14 q-20 0 -34.5 -14.5t-14.5 -34.5v-742z" />
<glyph unicode="&#xf3;" horiz-adv-x="655" d="M47 260v688q0 117 82.5 200t198.5 83q117 0 198.5 -83t81.5 -200v-688q0 -117 -81.5 -198.5t-198.5 -81.5q-116 0 -198.5 81.5t-82.5 198.5zM250 1348l41 290h231l-125 -290h-147zM279 233q0 -20 14.5 -34.5t34.5 -14.5q21 0 35 14t14 35v742q0 21 -14 35t-35 14 q-20 0 -34.5 -14.5t-14.5 -34.5v-742z" />
<glyph unicode="&#xf4;" horiz-adv-x="655" d="M8 1348l201 290h231l199 -290h-190l-125 141l-125 -141h-191zM47 260v688q0 117 82.5 200t198.5 83q117 0 198.5 -83t81.5 -200v-688q0 -117 -81.5 -198.5t-198.5 -81.5q-116 0 -198.5 81.5t-82.5 198.5zM279 233q0 -20 14.5 -34.5t34.5 -14.5q21 0 35 14t14 35v742 q0 21 -14 35t-35 14q-20 0 -34.5 -14.5t-14.5 -34.5v-742z" />
<glyph unicode="&#xf5;" horiz-adv-x="655" d="M14 1425q0 110 59 172t163 62q42 0 78.5 -18t66.5 -36t55 -18q84 0 84 72h123q0 -111 -57.5 -172.5t-161.5 -61.5q-43 0 -80 18.5t-67 37t-54 18.5q-84 0 -84 -74h-125zM47 260v688q0 117 82.5 200t198.5 83q117 0 198.5 -83t81.5 -200v-688q0 -117 -81.5 -198.5 t-198.5 -81.5q-116 0 -198.5 81.5t-82.5 198.5zM279 233q0 -20 14.5 -34.5t34.5 -14.5q21 0 35 14t14 35v742q0 21 -14 35t-35 14q-20 0 -34.5 -14.5t-14.5 -34.5v-742z" />
<glyph unicode="&#xf6;" horiz-adv-x="655" d="M47 260v688q0 117 82.5 200t198.5 83q117 0 198.5 -83t81.5 -200v-688q0 -117 -81.5 -198.5t-198.5 -81.5q-116 0 -198.5 81.5t-82.5 198.5zM47 1415v223h209v-223h-209zM279 233q0 -20 14.5 -34.5t34.5 -14.5q21 0 35 14t14 35v742q0 21 -14 35t-35 14 q-20 0 -34.5 -14.5t-14.5 -34.5v-742zM399 1415v223h209v-223h-209z" />
<glyph unicode="&#xf8;" horiz-adv-x="655" d="M6 -61l60 221q-19 52 -19 100v688q0 117 82.5 200t198.5 83q86 0 151 -47l23 88h147l-59 -221q18 -49 18 -103v-688q0 -117 -81.5 -198.5t-198.5 -81.5q-87 0 -154 45l-20 -86h-148zM279 233q0 -20 14.5 -34.5t34.5 -14.5q21 0 35 14t14 35v742q0 21 -14 35t-35 14 q-20 0 -34.5 -14.5t-14.5 -34.5v-742z" />
<glyph unicode="&#xf9;" horiz-adv-x="667" d="M51 162v1046h232v-975q0 -20 14.5 -34.5t34.5 -14.5t34.5 14.5t14.5 34.5v975h231v-1208h-221l-10 53q-57 -73 -148 -73q-75 0 -128.5 53.5t-53.5 128.5zM131 1638h231l41 -290h-147z" />
<glyph unicode="&#xfa;" horiz-adv-x="667" d="M51 162v1046h232v-975q0 -20 14.5 -34.5t34.5 -14.5t34.5 14.5t14.5 34.5v975h231v-1208h-221l-10 53q-57 -73 -148 -73q-75 0 -128.5 53.5t-53.5 128.5zM256 1348l41 290h231l-125 -290h-147z" />
<glyph unicode="&#xfb;" horiz-adv-x="667" d="M12 1348l201 290h231l199 -290h-190l-125 141l-125 -141h-191zM51 162v1046h232v-975q0 -20 14.5 -34.5t34.5 -14.5t34.5 14.5t14.5 34.5v975h231v-1208h-221l-10 53q-57 -73 -148 -73q-75 0 -128.5 53.5t-53.5 128.5z" />
<glyph unicode="&#xfc;" horiz-adv-x="667" d="M49 1415v223h209v-223h-209zM51 162v1046h232v-975q0 -20 14.5 -34.5t34.5 -14.5t34.5 14.5t14.5 34.5v975h231v-1208h-221l-10 53q-57 -73 -148 -73q-75 0 -128.5 53.5t-53.5 128.5zM401 1415v223h209v-223h-209z" />
<glyph unicode="&#xff;" horiz-adv-x="630" d="M4 1208h227l76 -661l74 661h227l-246 -1433q-31 -205 -231 -205h-88v235h66q45 0 55 50l39 215zM31 1415v223h209v-223h-209zM383 1415v223h209v-223h-209z" />
<glyph unicode="&#x152;" horiz-adv-x="929" d="M47 301v1036q0 125 88.5 213t212.5 88h545v-229h-244v-434h162v-250h-162v-475h244v-250h-545q-124 0 -212.5 88t-88.5 213zM299 309q0 -21 14 -35t35 -14t35 14t14 35v1022q0 20 -14.5 34.5t-34.5 14.5t-34.5 -14.5t-14.5 -34.5v-1022z" />
<glyph unicode="&#x153;" horiz-adv-x="989" d="M47 260v690q0 116 82 198.5t199 82.5q92 0 166 -55q78 55 163 55q117 0 199 -82.5t82 -198.5v-391h-330v-326q0 -20 14.5 -34.5t34.5 -14.5t35 14.5t15 34.5v209h231v-182q0 -117 -82 -198.5t-199 -81.5q-97 0 -165 53q-75 -53 -164 -53q-117 0 -199 81.5t-82 198.5z M279 233q0 -20 14.5 -34.5t34.5 -14.5t34.5 14.5t14.5 34.5v742q0 20 -14.5 34.5t-34.5 14.5t-34.5 -14.5t-14.5 -34.5v-742zM608 711h99v264q0 20 -15 34.5t-35 14.5t-34.5 -14.5t-14.5 -34.5v-264z" />
<glyph unicode="&#x178;" horiz-adv-x="663" d="M12 1638h244l94 -526l86 526h232l-209 -911v-727h-244v727zM55 1825v223h209v-223h-209zM408 1825v223h208v-223h-208z" />
<glyph unicode="&#x2c6;" horiz-adv-x="692" d="M31 1348l200 290h232l199 -290h-191l-125 141l-125 -141h-190z" />
<glyph unicode="&#x2dc;" horiz-adv-x="690" d="M31 1425q0 110 58.5 172t162.5 62q42 0 79 -18t67 -36t55 -18q84 0 84 72h122q0 -111 -57.5 -172.5t-161.5 -61.5q-43 0 -80 18.5t-66.5 37t-53.5 18.5q-84 0 -84 -74h-125z" />
<glyph unicode="&#x2000;" horiz-adv-x="1034" />
<glyph unicode="&#x2001;" horiz-adv-x="2068" />
<glyph unicode="&#x2002;" horiz-adv-x="1034" />
<glyph unicode="&#x2003;" horiz-adv-x="2068" />
<glyph unicode="&#x2004;" horiz-adv-x="689" />
<glyph unicode="&#x2005;" horiz-adv-x="517" />
<glyph unicode="&#x2006;" horiz-adv-x="344" />
<glyph unicode="&#x2007;" horiz-adv-x="344" />
<glyph unicode="&#x2008;" horiz-adv-x="258" />
<glyph unicode="&#x2009;" horiz-adv-x="413" />
<glyph unicode="&#x200a;" horiz-adv-x="114" />
<glyph unicode="&#x2010;" horiz-adv-x="468" d="M55 614v250h359v-250h-359z" />
<glyph unicode="&#x2011;" horiz-adv-x="468" d="M55 614v250h359v-250h-359z" />
<glyph unicode="&#x2012;" horiz-adv-x="468" d="M55 614v250h359v-250h-359z" />
<glyph unicode="&#x2013;" horiz-adv-x="1079" d="M55 614v250h969v-250h-969z" />
<glyph unicode="&#x2014;" horiz-adv-x="2103" d="M55 614v250h1993v-250h-1993z" />
<glyph unicode="&#x2018;" d="M55 1225v250l172 184h72l-100 -184h88v-250h-232z" />
<glyph unicode="&#x2019;" d="M43 1204l100 187h-88v247h232v-247l-172 -187h-72z" />
<glyph unicode="&#x201a;" d="M43 -184l100 184h-88v248h232v-248l-174 -184h-70z" />
<glyph unicode="&#x201c;" horiz-adv-x="643" d="M55 1225v250l172 184h72l-100 -184h88v-250h-232zM356 1225v250l174 184h70l-100 -184h88v-250h-232z" />
<glyph unicode="&#x201d;" horiz-adv-x="643" d="M43 1204l100 187h-88v247h232v-247l-172 -187h-72zM346 1204l98 187h-88v247h232v-247l-172 -187h-70z" />
<glyph unicode="&#x201e;" horiz-adv-x="643" d="M43 -186l100 186h-88v248h232v-248l-172 -186h-72zM346 -186l98 186h-88v248h232v-248l-172 -186h-70z" />
<glyph unicode="&#x2022;" horiz-adv-x="518" d="M31 819q0 95 67 161.5t162 66.5q94 0 160.5 -66.5t66.5 -161.5q0 -94 -66.5 -160.5t-160.5 -66.5q-95 0 -162 66.5t-67 160.5z" />
<glyph unicode="&#x2026;" horiz-adv-x="1026" d="M55 0v248h232v-248h-232zM397 0v248h232v-248h-232zM739 0v248h232v-248h-232z" />
<glyph unicode="&#x202f;" horiz-adv-x="413" />
<glyph unicode="&#x2039;" horiz-adv-x="544" d="M31 604l190 604h283l-203 -604l203 -604h-283z" />
<glyph unicode="&#x203a;" horiz-adv-x="544" d="M41 0l203 604l-203 604h283l190 -604l-190 -604h-283z" />
<glyph unicode="&#x205f;" horiz-adv-x="517" />
<glyph unicode="&#x2122;" horiz-adv-x="2080" d="M55 1401v237h793v-237h-242v-551h-311v551h-240zM948 850v788h434l99 -346l100 346h444v-788h-311v502l-133 -502h-238l-151 502v-502h-244z" />
<glyph unicode="&#x25fc;" horiz-adv-x="1208" d="M0 0v1208h1208v-1208h-1208z" />
<glyph unicode="&#xfb01;" horiz-adv-x="755" d="M10 995v213h74v205q0 97 64 161t159 64h107v-235h-49q-21 0 -35.5 -14t-14.5 -35v-146h99v-213h-99v-995h-231v995h-74zM469 0v1208h231v-1208h-231zM469 1366v272h231v-272h-231z" />
<glyph unicode="&#xfb02;" horiz-adv-x="755" d="M10 995v213h74v205q0 97 64 161t159 64h107v-235h-49q-21 0 -35.5 -14t-14.5 -35v-146h99v-213h-99v-995h-231v995h-74zM469 0v1638h231v-1638h-231z" />
</font>
</defs>
</svg>
