<?xml version="1.0" standalone="no"?>
<!DOCTYPE svg PUBLIC "-//W3C//DTD SVG 1.1//EN" "http://www.w3.org/Graphics/SVG/1.1/DTD/svg11.dtd" >
<svg xmlns="http://www.w3.org/2000/svg">
<metadata></metadata>
<defs>
<font id="champion_htf-heavyweightRg" horiz-adv-x="1587" >
<font-face units-per-em="2048" ascent="1638" descent="-410" />
<missing-glyph horiz-adv-x="563" />
<glyph horiz-adv-x="2048" />
<glyph horiz-adv-x="2048" />
<glyph unicode="&#xd;" horiz-adv-x="2048" />
<glyph unicode=" "  horiz-adv-x="563" />
<glyph unicode="&#x09;" horiz-adv-x="563" />
<glyph unicode="&#xa0;" horiz-adv-x="563" />
<glyph unicode="!" horiz-adv-x="641" d="M74 0v446h493v-446h-493zM74 1133v505h493v-505l-125 -574h-243z" />
<glyph unicode="&#x22;" horiz-adv-x="1210" d="M47 852l234 340h-207v446h495v-446l-358 -340h-164zM614 852l234 340h-207v446h496v-446l-359 -340h-164z" />
<glyph unicode="#" horiz-adv-x="2017" d="M61 299v406h271l33 229h-205v405h270l45 299h572l-46 -299h220l43 299h530l-45 -299h207v-405h-270l-33 -229h205v-406h-269l-45 -299h-530l45 299h-219l-45 -299h-572l45 299h-207zM905 705h217l33 229h-217z" />
<glyph unicode="$" horiz-adv-x="1662" d="M29 520h510q7 -55 41 -94.5t81.5 -58.5t89.5 -27t80 -8q61 0 110.5 9.5t82.5 31t33 53.5t-34.5 56t-92.5 40t-133.5 30.5t-158.5 33.5t-166 43.5t-158.5 65.5t-133.5 95t-92.5 136t-34.5 184q0 88 35.5 173.5t102 159.5t171.5 131t234 83v168h471v-170 q227 -52 364.5 -187.5t137.5 -316.5h-492q-6 45 -25.5 79.5t-45.5 55t-58.5 33.5t-60.5 17.5t-56 4.5q-92 0 -146 -24t-54 -70q0 -28 19.5 -49.5t64 -38.5t85.5 -28t115 -27q59 -12 103.5 -23t106.5 -28.5t109 -35.5t102.5 -44.5t96 -56t80.5 -69t65 -83.5t40.5 -100 t15.5 -119q0 -81 -19 -154t-62 -141.5t-108 -122.5t-161.5 -94t-216.5 -58v-161h-471v168q-253 48 -410 189t-157 349z" />
<glyph unicode="%" horiz-adv-x="2263" d="M61 1210q0 196 139 332.5t343 136.5q203 0 341 -136.5t138 -332.5q0 -128 -62.5 -236.5t-173 -171.5t-243.5 -63q-204 0 -343 137.5t-139 333.5zM317 0l1272 1638h357l-1272 -1638h-357zM444 1208q0 -102 24.5 -144t74.5 -42q48 0 72 42t24 144t-24 145.5t-72 43.5 q-49 0 -74 -43.5t-25 -145.5zM1243 430q0 96 36.5 183t100 150.5t152.5 100.5t190 37q134 0 244.5 -63t173 -171t62.5 -237t-62.5 -237t-173 -171t-244.5 -63q-101 0 -190 37t-152.5 100.5t-100 150.5t-36.5 183zM1624 430q0 -102 24.5 -145t73.5 -43q48 0 72.5 43t24.5 145 q0 100 -24.5 143t-72.5 43q-49 0 -73.5 -42.5t-24.5 -143.5z" />
<glyph unicode="&#x26;" horiz-adv-x="2064" d="M51 449q0 178 117.5 321t341.5 213q-49 104 -49 236q0 194 139 327t358 133q104 0 189.5 -31t141 -83.5t86 -120.5t30.5 -144q0 -142 -89.5 -259.5t-273.5 -198.5q42 -92 93 -146q90 100 110 209h459q-19 -126 -82 -257t-170 -234q30 -15 55 -15q45 0 75 40.5t30 97.5 h411v-23q0 -258 -128 -406.5t-369 -148.5q-120 0 -242.5 44.5t-218.5 123.5q-95 -77 -208 -122.5t-216 -45.5q-280 0 -435 124t-155 366zM573 502q0 -44 27 -74.5t74 -30.5q35 0 80 31q-75 87 -119 188q-62 -30 -62 -114zM885 1184q0 -17 8 -49q48 7 74 40.5t26 77.5 q0 33 -35 33q-34 0 -53.5 -28.5t-19.5 -73.5z" />
<glyph unicode="'" horiz-adv-x="641" d="M47 852l234 340h-207v446h495v-446l-358 -340h-164z" />
<glyph unicode="(" horiz-adv-x="870" d="M51 614q0 240 83 458.5t253.5 405.5t413.5 314l69 -102q-98 -101 -173.5 -295t-112.5 -398.5t-37 -382.5t37 -382t113 -397t173 -292l-69 -106q-365 193 -557.5 503t-192.5 674z" />
<glyph unicode=")" horiz-adv-x="870" d="M0 -457q98 99 174 292t113 397t37 382t-37 382.5t-113 398.5t-174 295l70 102q243 -127 413.5 -314t253 -405.5t82.5 -458.5q0 -364 -192 -674t-557 -503z" />
<glyph unicode="*" horiz-adv-x="1308" d="M61 926l148 86l147 47l-147 47l-148 86l183 313l145 -84l117 -104l-33 151v170h363v-170l-33 -153l117 106l145 84l182 -313l-147 -86l-148 -47l148 -47l147 -86l-182 -314l-145 84l-117 105l33 -152v-170h-363v170l33 152l-115 -105l-147 -86z" />
<glyph unicode="+" horiz-adv-x="1335" d="M74 526v422h372v381h443v-381h373v-422h-373v-383h-443v383h-372z" />
<glyph unicode="," horiz-adv-x="641" d="M47 -340l234 340h-207v446h495v-446l-358 -340h-164z" />
<glyph unicode="-" horiz-adv-x="978" d="M74 526v422h831v-422h-831z" />
<glyph unicode="." horiz-adv-x="641" d="M74 0v446h493v-446h-493z" />
<glyph unicode="/" horiz-adv-x="1515" d="M106 0l730 1638h647l-729 -1638h-648z" />
<glyph unicode="0" horiz-adv-x="1822" d="M61 819q0 140 43 271.5t121.5 237t183 185t234.5 123t268 43.5t268 -43.5t234.5 -123t183 -185t121.5 -237t43 -271.5t-43 -271.5t-121.5 -237t-183 -185t-234.5 -123t-268 -43.5t-268 43.5t-234.5 123t-183 185t-121.5 237t-43 271.5zM715 819q0 -104 15 -180t42.5 -119 t61.5 -62.5t77 -19.5q90 0 143.5 89.5t53.5 291.5q0 379 -197 379q-196 0 -196 -379z" />
<glyph unicode="1" horiz-adv-x="1228" d="M51 987v371q200 0 347 84t180 196h489v-1638h-647v987h-369z" />
<glyph unicode="2" horiz-adv-x="1732" d="M14 0q0 86 20 167t53 148.5t83.5 132.5t103.5 116.5t121 102t128.5 88t133.5 75.5t127 63t119 53q75 32 99 67.5t24 80.5q0 43 -43 72.5t-113 29.5q-69 0 -113 -33t-44 -92v-35h-660v35q0 114 55 222t155.5 194.5t257.5 139t345 52.5q231 0 415 -70.5t289 -200.5 t105 -296q0 -81 -32 -152.5t-84.5 -123t-119.5 -96t-137.5 -74.5t-137.5 -57t-119.5 -45t-84.5 -36.5t-32 -33.5h714v-494h-1628z" />
<glyph unicode="3" horiz-adv-x="1742" d="M68 569v35h659v-33q0 -60 44 -93.5t114 -33.5q68 0 111.5 38t43.5 81q0 54 -39 93.5t-131 39.5h-96v246h96q91 0 130.5 40t39.5 93q0 43 -43.5 81t-111.5 38q-70 0 -114 -33.5t-44 -91.5v-35h-659v35q0 115 55 223.5t155.5 195t257.5 139t345 52.5q145 0 274 -27t225 -74 t166 -109.5t106 -136t36 -150.5q0 -129 -71 -219.5t-233 -143.5q162 -53 233 -143t71 -219q0 -77 -36 -150.5t-106 -136.5t-166 -110t-225 -74t-274 -27q-188 0 -345 52.5t-257.5 139t-155.5 195t-55 223.5z" />
<glyph unicode="4" horiz-adv-x="1742" d="M41 293v373l885 972h563v-923h213v-422h-213v-293h-647v293h-801zM584 715h258v286z" />
<glyph unicode="5" horiz-adv-x="1744" d="M68 569v31h645q5 -65 55 -110.5t119 -45.5q72 0 123 50t51 120t-51 120t-123 50q-50 0 -91 -18.5t-61 -50.5l-641 45l53 878h1481q0 -208 -87.5 -339.5t-242.5 -131.5h-561l-12 -194q76 47 150.5 68.5t191.5 21.5q292 0 457.5 -152.5t165.5 -400.5q0 -244 -220.5 -397.5 t-588.5 -153.5q-188 0 -345 52.5t-257.5 139t-155.5 195t-55 223.5z" />
<glyph unicode="6" horiz-adv-x="1773" d="M61 819q0 172 61 328t169.5 274t270 188t349.5 70q171 0 315 -45t240.5 -121.5t152.5 -176t64 -210.5h-606q-41 80 -147 80q-68 0 -113 -47.5t-64.5 -124.5t-19.5 -182q45 73 143.5 119.5t258.5 46.5q267 0 425 -134.5t158 -363.5q0 -159 -106.5 -288t-291 -201 t-409.5 -72q-242 0 -434.5 105t-304 302t-111.5 453zM743 584q-6 -65 49 -114.5t126 -49.5q73 0 123.5 47t50.5 117t-50.5 117t-123.5 47q-68 0 -119 -48.5t-56 -115.5z" />
<glyph unicode="7" horiz-adv-x="1542" d="M61 0l625 1145h-625v493h1481l-762 -1638h-719z" />
<glyph unicode="8" horiz-adv-x="1830" d="M51 489q0 127 83 221.5t226 137.5q-266 96 -266 315q0 146 110.5 265t298 185t412.5 66t412.5 -66t297.5 -185t110 -265q0 -220 -265 -315q143 -43 226.5 -137.5t83.5 -221.5q0 -149 -116.5 -271.5t-314.5 -190.5t-434 -68t-434 68t-314 190.5t-116 271.5zM715 573 q0 -59 58.5 -101t141.5 -42t142 42t59 101q0 60 -59 103t-142 43t-141.5 -43t-58.5 -103zM737 1065q0 -60 52 -101.5t126 -41.5t126.5 41.5t52.5 101.5q0 59 -53 101t-126 42t-125.5 -42t-52.5 -101z" />
<glyph unicode="9" horiz-adv-x="1773" d="M55 1118q0 159 106.5 288t291.5 201t411 72q180 0 336 -61.5t269 -172t178 -272.5t65 -354q0 -172 -61 -328t-169 -274t-269 -188t-349 -70q-171 0 -315 45t-241 121.5t-153 176t-63 210.5h604q44 -80 150 -80q68 0 113 47.5t64 124.5t19 182q-108 -165 -401 -165 q-268 0 -427 134.5t-159 362.5zM684 1055q0 -70 50.5 -117t123.5 -47q68 0 118.5 48.5t55.5 115.5q4 65 -50 114.5t-124 49.5q-73 0 -123.5 -47t-50.5 -117z" />
<glyph unicode=":" horiz-adv-x="641" d="M74 0v446h493v-446h-493zM74 762v446h493v-446h-493z" />
<glyph unicode=";" horiz-adv-x="641" d="M47 -340l234 340h-207v446h495v-446l-358 -340h-164zM74 762v446h493v-446h-493z" />
<glyph unicode="&#x3c;" horiz-adv-x="1247" d="M57 819l678 819l455 -311l-442 -508l442 -508l-455 -311z" />
<glyph unicode="=" horiz-adv-x="1335" d="M74 209v422h1188v-422h-1188zM74 842v422h1188v-422h-1188z" />
<glyph unicode="&#x3e;" horiz-adv-x="1247" d="M57 311l443 508l-443 508l455 311l678 -819l-678 -819z" />
<glyph unicode="?" horiz-adv-x="1521" d="M61 1061v35q0 121 50.5 228t140.5 185.5t221.5 124t284.5 45.5q199 0 363.5 -69t256.5 -184t92 -248q0 -89 -31 -161t-80 -118.5t-109 -84t-119.5 -66t-108.5 -55t-80 -60.5t-31 -74h-518q0 82 25 152.5t65 118.5t88.5 88.5t97.5 69.5t89 53.5t65 48.5t25 47q0 44 -39 70 t-111 26q-68 0 -111.5 -35.5t-43.5 -95.5v-41h-482zM412 0v446h493v-446h-493z" />
<glyph unicode="@" horiz-adv-x="1826" d="M61 819q0 183 69.5 344t188 273.5t280 177.5t341.5 65q170 0 323.5 -58t263 -156.5t174 -233t64.5 -281.5q0 -166 -60.5 -296.5t-180.5 -208.5t-283 -78q-226 0 -272 135q-33 -55 -102.5 -87t-127.5 -32q-83 0 -133 54t-37 130l74 477q12 77 80 132t151 55q48 0 88 -20.5 t62 -55.5l10 55h254l-80 -491q-10 -67 15.5 -106.5t76.5 -39.5q97 0 148 102t51 271q0 102 -38.5 191.5t-108.5 155.5t-176.5 104.5t-235.5 38.5q-268 0 -430 -165t-162 -452q0 -291 160 -453.5t432 -162.5q220 0 385 96l131 -178q-227 -162 -516 -162q-180 0 -341.5 65 t-280 177.5t-188 273.5t-69.5 344zM836 641q-3 -22 10 -36.5t35 -14.5q23 0 41.5 14.5t21.5 36.5l51 332q3 20 -10.5 34.5t-36.5 14.5q-22 0 -40 -14.5t-21 -34.5z" />
<glyph unicode="A" horiz-adv-x="1884" d="M0 0l608 1638h649l617 -1638h-672l-69 213h-525l-69 -213h-539zM725 569h287l-148 435z" />
<glyph unicode="B" horiz-adv-x="1726" d="M74 0v1638h1075q238 0 387.5 -114.5t149.5 -276.5q0 -156 -83 -266.5t-221 -146.5q40 -10 78 -27.5t80 -50.5t73.5 -75.5t52 -107t20.5 -141.5q0 -83 -41 -161.5t-111 -138t-171 -96t-214 -36.5h-1075zM721 494h270q34 0 59 25t25 59q0 35 -25 59.5t-59 24.5h-270v-168z M721 975h270q34 0 59 24.5t25 59.5t-25 59.5t-59 24.5h-270v-168z" />
<glyph unicode="C" horiz-adv-x="1740" d="M61 819q0 175 67 334t180.5 274.5t270.5 183.5t330 68q207 0 376 -95.5t270 -259.5t124 -370h-532q-14 110 -77 166t-136 56q-92 0 -156.5 -89.5t-64.5 -267.5q0 -179 64 -267.5t157 -88.5q72 0 134.5 55t76.5 160h534q-17 -153 -80.5 -285t-162.5 -228t-235.5 -151 t-291.5 -55q-173 0 -330 68t-270.5 183.5t-180.5 274.5t-67 334z" />
<glyph unicode="D" horiz-adv-x="1794" d="M74 0v1638h809q173 0 330.5 -65t271 -174.5t181 -261t67.5 -318.5t-67.5 -318.5t-181 -261t-271 -174.5t-330.5 -65h-809zM721 494h115q44 0 85 17t78 52.5t59.5 101.5t22.5 154q0 87 -22.5 153t-59.5 101.5t-78 52.5t-85 17h-115v-649z" />
<glyph unicode="E" horiz-adv-x="1615" d="M74 0v1638h1480v-495h-833v-168h405v-313h-405v-168h833v-494h-1480z" />
<glyph unicode="F" horiz-adv-x="1615" d="M74 0v1638h1480v-495h-833v-217h405v-312h-405v-614h-647z" />
<glyph unicode="G" horiz-adv-x="1771" d="M61 819q0 140 43 271.5t121.5 237t183 185t234.5 123t268 43.5q210 0 391.5 -93.5t291.5 -261t110 -370.5h-533q0 94 -60.5 158t-149.5 64q-115 0 -181.5 -93.5t-66.5 -263.5q0 -164 70.5 -260t174.5 -96q87 0 139.5 53t67.5 133h-184v187h723v-836h-188l-103 207 q-71 -110 -210 -179t-292 -69q-138 0 -268 43.5t-234.5 123t-183 185t-121.5 237t-43 271.5z" />
<glyph unicode="H" horiz-adv-x="1824" d="M74 0v1638h647v-591h383v591h647v-1638h-647v575h-383v-575h-647z" />
<glyph unicode="I" horiz-adv-x="811" d="M82 0v1638h647v-1638h-647z" />
<glyph unicode="J" horiz-adv-x="1665" d="M41 653v111h504v-70q0 -92 55.5 -150.5t147.5 -58.5t147 58.5t55 150.5v944h647v-985q0 -203 -102.5 -361.5t-283.5 -245.5t-410 -87q-169 0 -311 51t-240.5 141.5t-153.5 219.5t-55 282z" />
<glyph unicode="K" horiz-adv-x="1732" d="M74 0v1638h645v-546l346 546h643l-498 -720l514 -918h-669l-250 438l-86 -119v-319h-645z" />
<glyph unicode="L" horiz-adv-x="1568" d="M74 0v1638h647v-1144h786v-494h-1433z" />
<glyph unicode="M" horiz-adv-x="2383" d="M74 0v1638h901l205 -718l206 718h924v-1638h-647v1044l-277 -1044h-493l-315 1044v-1044h-504z" />
<glyph unicode="N" horiz-adv-x="1824" d="M74 0v1638h575l551 -712v712h551v-1638h-551l-575 719v-719h-551z" />
<glyph unicode="O" horiz-adv-x="1822" d="M61 819q0 140 43 271.5t121.5 237t183 185t234.5 123t268 43.5t268 -43.5t234.5 -123t183 -185t121.5 -237t43 -271.5t-43 -271.5t-121.5 -237t-183 -185t-234.5 -123t-268 -43.5t-268 43.5t-234.5 123t-183 185t-121.5 237t-43 271.5zM715 819q0 -104 15 -180t42.5 -119 t61.5 -62.5t77 -19.5q90 0 143.5 89.5t53.5 291.5q0 379 -197 379q-196 0 -196 -379z" />
<glyph unicode="P" horiz-adv-x="1775" d="M74 0v1638h1050q143 0 263.5 -41.5t201.5 -113t126.5 -168t45.5 -205.5t-45.5 -206t-126.5 -169t-201.5 -113.5t-263.5 -41.5h-403v-580h-647zM721 926h248q43 0 74.5 34t31.5 74q0 41 -31.5 75t-74.5 34h-248v-217z" />
<glyph unicode="Q" horiz-adv-x="1822" d="M61 819q0 175 67.5 334.5t181 274.5t270.5 183t329 68q173 0 331 -68t272 -183.5t181.5 -274.5t67.5 -334q0 -207 -93 -389.5t-253.5 -303t-357.5 -155.5q-17 -34 -17 -86q0 -43 22 -70.5t56 -27.5q36 0 57 22t21 56q0 33 -12 57h221q33 -68 33 -172q0 -146 -105 -241 t-260 -95q-193 0 -295 107.5t-102 285.5q0 47 12 100t25 77q-185 45 -333.5 164.5t-233.5 295.5t-85 375zM713 819q0 -201 54 -291t142 -90q197 0 197 381t-197 381q-88 0 -142 -90t-54 -291z" />
<glyph unicode="R" horiz-adv-x="1742" d="M74 0v1638h1075q122 0 224.5 -34t170 -91.5t105 -132t37.5 -155.5q0 -156 -83 -267t-221 -147q40 -10 78 -27.5t80 -50.5t73.5 -75.5t52 -107t20.5 -140.5v-136q0 -116 77 -274h-606q-37 55 -59.5 123t-22.5 131v301q0 34 -25 59t-59 25h-270v-639h-647zM721 950h270 q33 0 58.5 30.5t25.5 66.5t-25.5 66t-58.5 30h-270v-193z" />
<glyph unicode="S" horiz-adv-x="1662" d="M29 520h510q7 -55 41.5 -94.5t82.5 -58.5t90.5 -27t80.5 -8q95 0 159 23.5t64 70.5q0 32 -34.5 56t-92.5 40t-133 30.5t-158 33.5t-166 43.5t-158 65.5t-133 95t-92.5 136t-34.5 184q0 84 31 165t95 154.5t154 129t217 88t275 32.5q211 0 381 -68.5t265.5 -189 t95.5 -270.5h-492q-7 55 -34 95t-65 59t-74 27.5t-73 8.5q-91 0 -145.5 -24t-54.5 -70q0 -23 15.5 -42t37 -32t63.5 -26.5t75.5 -21.5t92.5 -21q59 -12 103.5 -23t106.5 -28.5t109 -35.5t102.5 -44.5t96 -56t80.5 -69t65 -83.5t40.5 -100t15.5 -119q0 -95 -26 -178.5 t-86.5 -159t-150.5 -130t-225.5 -86.5t-305.5 -32q-131 0 -252 24t-222.5 72t-177 114.5t-117.5 156.5t-42 194z" />
<glyph unicode="T" horiz-adv-x="1730" d="M41 1143v495h1649v-495h-500v-1143h-647v1143h-502z" />
<glyph unicode="U" horiz-adv-x="1738" d="M68 653v985h600v-944q0 -122 51 -176.5t149 -54.5q203 0 203 231v944h600v-985q0 -203 -102.5 -361.5t-285.5 -245.5t-415 -87q-231 0 -413.5 87t-284.5 245.5t-102 361.5z" />
<glyph unicode="V" horiz-adv-x="1753" d="M0 1638h672l272 -854l260 854h539l-608 -1638h-519z" />
<glyph unicode="W" horiz-adv-x="2680" d="M0 1638h672l225 -807l213 807h561l223 -807l215 807h562l-560 -1638h-518l-254 731l-252 -731h-518z" />
<glyph unicode="X" horiz-adv-x="1785" d="M31 0l520 786l-520 852h741l176 -317l201 317h598l-520 -739l520 -899h-741l-175 332l-200 -332h-600z" />
<glyph unicode="Y" horiz-adv-x="1894" d="M0 1638h741l242 -489l254 489h647l-631 -995v-643h-647v643z" />
<glyph unicode="Z" horiz-adv-x="1515" d="M55 0l553 1145h-553v493h1409l-516 -1144h516v-494h-1409z" />
<glyph unicode="[" horiz-adv-x="1277" d="M297 -553v2345h981v-496h-459v-1353h459v-496h-981z" />
<glyph unicode="\" horiz-adv-x="1515" d="M33 1638h647l729 -1638h-647z" />
<glyph unicode="]" horiz-adv-x="1277" d="M0 -57h459v1353h-459v496h981v-2345h-981v496z" />
<glyph unicode="^" horiz-adv-x="1058" d="M37 1262l237 376h510l238 -376h-330l-164 180l-161 -180h-330z" />
<glyph unicode="_" horiz-adv-x="1171" d="M74 0v422h1024v-422h-1024z" />
<glyph unicode="`" horiz-adv-x="555" d="M14 1638h406l96 -376h-297z" />
<glyph unicode="a" horiz-adv-x="1515" d="M18 311q0 60 22 109t54 85t98 67t121.5 50.5t159.5 41t177.5 34t207.5 33.5v86q0 70 -92 70q-86 0 -86 -70v-41h-590v51q0 105 90.5 198t252 150.5t353.5 57.5q189 0 343.5 -63t236.5 -160t82 -203v-528q0 -193 55 -279h-604l-35 104q-54 -50 -143.5 -89.5t-210.5 -39.5 q-139 0 -251.5 43t-176.5 120t-64 173zM608 387q0 -38 33 -66t92 -28t92 28t33 66v135q-133 -25 -191.5 -54t-58.5 -81z" />
<glyph unicode="b" horiz-adv-x="1626" d="M74 0v1638h590v-491q138 86 303 86q123 0 235 -50t192.5 -134.5t128.5 -200.5t48 -244q0 -173 -66 -315t-192 -227t-289 -85q-91 0 -163 26t-111 57.5t-84 82.5l-29 -143h-563zM635 604q0 -131 47.5 -189.5t126.5 -58.5t126.5 58.5t47.5 189.5q0 132 -47.5 191t-126.5 59 t-126.5 -59t-47.5 -191z" />
<glyph unicode="c" horiz-adv-x="1570" d="M55 604q0 128 57 244t154 200.5t235 134.5t292 50q287 0 492 -155t241 -388h-588q-10 88 -46 126t-99 38q-74 0 -112 -57.5t-38 -192.5t38 -192.5t112 -57.5q63 0 99 38t46 126h588q-37 -232 -242 -386.5t-491 -154.5q-154 0 -292 49.5t-235 134t-154 200t-57 243.5z" />
<glyph unicode="d" horiz-adv-x="1626" d="M55 604q0 128 48 244t128.5 200.5t192.5 134.5t235 50q166 0 304 -86v491h589v-1638h-563l-28 143q-44 -50 -83.5 -82t-112 -58t-163.5 -26q-163 0 -289 85t-192 227t-66 315zM643 604q0 -131 47.5 -189.5t126.5 -58.5t126.5 58.5t47.5 189.5q0 132 -47.5 191t-126.5 59 t-126.5 -59t-47.5 -191z" />
<glyph unicode="e" d="M55 604q0 128 57 244t154 200.5t235 134.5t292 50q155 0 293 -50t235.5 -134.5t154 -200.5t56.5 -244q0 -24 -4 -74h-881q9 -95 45.5 -135.5t100.5 -40.5q97 0 131 92h585q-63 -206 -259 -338.5t-457 -132.5q-154 0 -292 50t-235 134.5t-154 200.5t-57 244zM651 709h285 q-13 77 -48.5 110t-94.5 33q-58 0 -93.5 -33t-48.5 -110z" />
<glyph unicode="f" horiz-adv-x="1163" d="M41 799v319h217v105q0 191 138.5 303t404.5 112h321v-342h-151q-50 0 -86.5 -32.5t-36.5 -71.5v-74h274v-319h-274v-799h-590v799h-217z" />
<glyph unicode="g" d="M20 -119q0 81 57 141.5t156 83.5q-76 12 -120.5 64t-44.5 121q0 81 74.5 138.5t199.5 57.5q-130 21 -208.5 109t-78.5 197q0 206 201 323t537 117q36 0 101.5 -3t82.5 -3q108 0 169.5 11.5t81 29t19.5 45.5h504q18 -40 18 -92q0 -69 -72 -120.5t-177 -51.5q-31 0 -105 8 q66 -61 91.5 -113t25.5 -139q0 -169 -185.5 -272t-553.5 -103h-101q-76 0 -76 -59q0 -56 156 -56q194 0 338.5 -18.5t234 -49.5t144.5 -78.5t75.5 -99t20.5 -116.5q0 -69 -30.5 -131.5t-94.5 -116t-156.5 -92t-223 -60.5t-287.5 -22q-380 0 -576.5 90t-196.5 260zM608 -59 q0 -59 42 -92t151 -33t150.5 33t41.5 92q0 58 -41.5 90t-150.5 32t-151 -32.5t-42 -89.5zM643 817q0 -65 39.5 -99t110.5 -34q72 0 110.5 33.5t38.5 99.5t-38.5 99.5t-110.5 33.5q-71 0 -110.5 -34t-39.5 -99z" />
<glyph unicode="h" horiz-adv-x="1634" d="M74 0v1638h590v-573q61 70 172.5 119t244.5 49q221 0 350.5 -96.5t135.5 -264.5v-872h-588v711q0 52 -46 87.5t-112 35.5q-65 0 -111 -35.5t-46 -87.5v-711h-590z" />
<glyph unicode="i" horiz-adv-x="737" d="M74 0v1208h590v-1208h-590zM74 1309v329h590v-329h-590z" />
<glyph unicode="j" horiz-adv-x="737" d="M-201 -106h152q50 0 86.5 31.5t36.5 72.5v1210h590v-1241q0 -191 -138.5 -303.5t-404.5 -112.5h-322v343zM74 1309v329h590v-329h-590z" />
<glyph unicode="k" horiz-adv-x="1554" d="M74 0v1638h588v-768l245 336h615l-371 -487l424 -719h-627l-229 389l-57 -76v-313h-588z" />
<glyph unicode="l" horiz-adv-x="735" d="M74 0v1638h588v-1638h-588z" />
<glyph unicode="m" horiz-adv-x="2537" d="M74 0v1208h563l29 -143q60 70 170 119t243 49q164 0 280 -55t169 -156q76 99 195.5 155t261.5 56q221 0 350 -96.5t135 -264.5v-872h-588v711q0 52 -46 87.5t-112 35.5t-111.5 -35.5t-45.5 -87.5v-711h-590v711q0 52 -46 87.5t-112 35.5q-65 0 -111 -35.5t-46 -87.5v-711 h-588z" />
<glyph unicode="n" horiz-adv-x="1634" d="M74 0v1208h565l29 -143q60 70 170 119t243 49q221 0 350.5 -96.5t135.5 -264.5v-872h-588v711q0 52 -46 87.5t-112 35.5q-65 0 -111 -35.5t-46 -87.5v-711h-590z" />
<glyph unicode="o" d="M55 604q0 128 57 244t154.5 200.5t235.5 134.5t293 50q154 0 291.5 -50t235 -134.5t154 -200.5t56.5 -244t-56.5 -244t-154 -200.5t-235 -134.5t-291.5 -50q-155 0 -293 50t-235.5 134.5t-154.5 200.5t-57 244zM645 604q0 -136 37.5 -193t112.5 -57q74 0 111.5 57.5 t37.5 192.5q0 134 -37.5 191t-111.5 57q-75 0 -112.5 -57t-37.5 -191z" />
<glyph unicode="p" horiz-adv-x="1626" d="M74 -449v1657h563l29 -143q66 77 146.5 121.5t209.5 44.5q122 0 226 -49.5t174 -134.5t109.5 -199.5t39.5 -243.5q0 -128 -48 -244t-128.5 -200.5t-192.5 -134.5t-235 -50q-164 0 -305 86v-510h-588zM635 604q0 -132 47.5 -191t126.5 -59q78 0 125 59t47 191 q0 131 -47.5 189.5t-124.5 58.5q-79 0 -126.5 -58.5t-47.5 -189.5z" />
<glyph unicode="q" horiz-adv-x="1626" d="M55 604q0 173 66 315t192 227t289 85q69 0 126 -13.5t100 -39t72.5 -51.5t60.5 -62l28 143h563v-1657h-587v510q-141 -86 -306 -86q-123 0 -235 50t-192.5 134.5t-128.5 200.5t-48 244zM645 604q0 -132 47 -191t125 -59q79 0 126.5 59t47.5 191q0 131 -47.5 189.5 t-126.5 58.5q-77 0 -124.5 -58.5t-47.5 -189.5z" />
<glyph unicode="r" horiz-adv-x="1148" d="M74 0v1208h563l29 -143q48 56 97 89.5t141 56t224 22.5v-399q-110 0 -184 -6t-131.5 -21t-88.5 -43t-46.5 -68.5t-15.5 -99.5v-596h-588z" />
<glyph unicode="s" horiz-adv-x="1490" d="M33 396h502q10 -61 63 -95.5t135 -34.5q84 0 126 20t42 54q0 24 -36.5 42t-96 28t-135.5 24t-155 28.5t-155 43t-135.5 66.5t-96 100.5t-36.5 142.5q0 61 26.5 120.5t82.5 113.5t135.5 95t194.5 65t251 24q188 0 341 -56t236 -147t83 -196h-475q-10 67 -64.5 99 t-122.5 32q-143 0 -143 -66q0 -31 47 -53t122 -37.5t166 -32.5t182 -45.5t166 -68t122 -108.5t47 -159q0 -89 -39.5 -163.5t-120 -133t-217.5 -91t-319 -32.5q-199 0 -364 53.5t-262 150.5t-97 217z" />
<glyph unicode="t" horiz-adv-x="1208" d="M41 889v319h240v230h589v-230h287v-319h-287v-443q0 -39 36.5 -71.5t86.5 -32.5h164v-342h-334q-266 0 -404 112.5t-138 303.5v473h-240z" />
<glyph unicode="u" horiz-adv-x="1634" d="M68 336v872h589v-710q0 -52 46 -87.5t112 -35.5q65 0 111.5 35.5t46.5 87.5v710h588v-1208h-564l-28 143q-59 -69 -169.5 -117.5t-244.5 -48.5q-221 0 -350 95.5t-137 263.5z" />
<glyph unicode="v" horiz-adv-x="1538" d="M-20 1208h612l239 -628l230 628h498l-560 -1208h-454z" />
<glyph unicode="w" horiz-adv-x="2052" d="M-20 1208h571l135 -534l158 534h391l158 -534l155 534h514l-438 -1208h-448l-134 477l-147 -477h-449z" />
<glyph unicode="x" horiz-adv-x="1476" d="M18 0l431 580l-431 628h613l145 -233l166 233h494l-430 -544l430 -664h-613l-143 244l-168 -244h-494z" />
<glyph unicode="y" horiz-adv-x="1505" d="M20 1208h615l190 -581l183 581h497l-512 -1161q-105 -272 -246 -384t-387 -112h-245v392h200q80 0 133 30t78 103z" />
<glyph unicode="z" horiz-adv-x="1370" d="M27 0l530 844h-506v364h1303l-533 -843h508v-365h-1302z" />
<glyph unicode="{" horiz-adv-x="1112" d="M111 465v309h102q35 0 59.5 25t24.5 59v447q0 229 143 358t383 129h289v-496h-133q-81 0 -120.5 -44.5t-39.5 -145.5v-256q0 -85 -45 -148.5t-119 -83.5q74 -19 119 -81.5t45 -147.5v-256q0 -101 39.5 -145.5t120.5 -44.5h133v-496h-289q-240 0 -383 129t-143 358v447 q0 34 -24.5 59t-59.5 25h-102z" />
<glyph unicode="|" horiz-adv-x="811" d="M82 0v1638h647v-1638h-647z" />
<glyph unicode="}" horiz-adv-x="1112" d="M0 -57h133q81 0 120.5 44.5t39.5 145.5v256q0 85 45 147.5t119 81.5q-74 20 -119 83.5t-45 148.5v256q0 101 -39.5 145.5t-120.5 44.5h-133v496h289q240 0 383 -129t143 -358v-447q0 -34 24.5 -59t59.5 -25h102v-309h-102q-35 0 -59.5 -25t-24.5 -59v-447 q0 -229 -143 -358t-383 -129h-289v496z" />
<glyph unicode="~" horiz-adv-x="1191" d="M57 608q0 178 93.5 276.5t261.5 98.5q68 0 127 -23.5t106.5 -47t87.5 -23.5q60 0 96.5 26.5t36.5 67.5h285q0 -178 -93 -276.5t-261 -98.5q-54 0 -103.5 14.5t-80 31.5t-68 31.5t-70.5 14.5q-61 0 -97 -26t-36 -66h-285z" />
<glyph unicode="&#xa1;" horiz-adv-x="641" d="M74 76l125 573h243l125 -573v-506h-493v506zM74 762v446h493v-446h-493z" />
<glyph unicode="&#xa2;" horiz-adv-x="1570" d="M55 604q0 206 137.5 369.5t360.5 226.5v182h473v-180q202 -56 337 -193.5t163 -318.5h-588q-10 88 -46 126t-99 38q-74 0 -112 -57.5t-38 -192.5t38 -192.5t112 -57.5q63 0 99 38t46 126h588q-29 -180 -164 -318t-336 -192v-180h-473v182q-222 62 -360 225t-138 369z" />
<glyph unicode="&#xa3;" horiz-adv-x="1867" d="M8 219q0 120 90 190t234 70q78 0 139 -22q45 14 73.5 49.5t28.5 83.5q0 56 -28 84h-350v301h229q-57 46 -57 174q0 103 47.5 199t131 169.5t206.5 117.5t264 44q120 0 227 -34.5t184 -91t133.5 -128.5t84.5 -148.5t28 -148.5v-10h-563v33q0 38 -24.5 61t-69.5 23 q-44 0 -67 -23t-23 -61q0 -113 78 -176h387v-301h-316q4 0 4 -45q0 -46 -13 -80.5t-42 -60.5t-56 -42.5t-75 -39.5q80 -39 168 -39q79 0 111 30.5t32 91.5v52h563v-31q0 -119 -39 -217.5t-117.5 -174t-208 -117.5t-300.5 -42q-146 0 -273.5 29.5t-193.5 79.5 q-67 -54 -144 -81.5t-186 -27.5q-120 0 -208.5 75.5t-88.5 184.5zM225 201q0 -16 18 -29.5t48 -13.5q22 0 46 13t40 36q-33 41 -86 41q-31 0 -48.5 -13t-17.5 -34z" />
<glyph unicode="&#xa5;" horiz-adv-x="1757" d="M31 1432h669l215 -431l230 431h581l-223 -342h117v-357h-348l-76 -119h424v-356h-461v-258h-581v258h-439v356h404l-72 119h-332v357h109z" />
<glyph unicode="&#xa7;" horiz-adv-x="1562" d="M72 367h501q10 -60 63.5 -93.5t135.5 -33.5q168 0 168 71q0 27 -46.5 45t-121.5 30.5t-165 26.5t-180 39.5t-165 63t-121.5 104t-46.5 154.5q0 146 148 258q-148 89 -148 244q0 60 26.5 117t82.5 109t136 91.5t194.5 62.5t250.5 23q188 0 341 -54t236 -142t83 -189h-475 q-10 66 -64.5 96.5t-122.5 30.5q-143 0 -143 -63q0 -26 36.5 -46.5t96.5 -33t136.5 -28.5t156.5 -32t156.5 -45.5t136.5 -67.5t96.5 -99t36.5 -138q0 -161 -131 -266q131 -90 131 -235q0 -70 -24 -130t-77.5 -111.5t-133 -88t-197.5 -57.5t-264 -21q-199 0 -364 52 t-262 145.5t-97 210.5zM639 846q0 -11 7.5 -21t27 -18t36.5 -14t52 -13t57 -10.5t68 -11.5q55 21 55 57q0 33 -61.5 51.5t-188.5 36.5q-53 -17 -53 -57z" />
<glyph unicode="&#xa8;" horiz-adv-x="1003" d="M41 1264v374h379v-374h-379zM584 1264v374h379v-374h-379z" />
<glyph unicode="&#xa9;" horiz-adv-x="1802" d="M61 819q0 114 30 223.5t84.5 201.5t132 169.5t169.5 131.5t201 84t223 30q171 0 327 -66.5t268 -178.5t178.5 -268t66.5 -327t-66.5 -326t-178.5 -267.5t-268 -179t-327 -66.5t-326.5 66.5t-268 179t-179 267.5t-66.5 326zM209 819q0 -188 92.5 -347.5t252 -252 t347.5 -92.5t347.5 92.5t252 252t92.5 347.5t-92.5 347.5t-252 252t-347.5 92.5t-347.5 -92.5t-252 -252t-92.5 -347.5zM532 819q0 164 114.5 279.5t275.5 115.5q144 0 240.5 -93.5t111.5 -237.5h-244q-7 49 -36 74.5t-62 25.5q-41 0 -71 -41t-30 -123t30 -123t71 -41 q33 0 62 26t36 73h244q-15 -142 -112.5 -236t-239.5 -94q-161 0 -275.5 116t-114.5 279z" />
<glyph unicode="&#xaa;" horiz-adv-x="995" d="M18 1126q0 26 5.5 47.5t20 40t29.5 33.5t43 28.5t50.5 23.5t63.5 20t70 16.5t81 15t86 13.5t96 14v52q0 43 -59 43q-55 0 -55 -43v-25h-383v31q0 97 131 170t321 73q184 0 307 -78t123 -178v-315q0 -118 35 -168h-393l-23 64q-88 -78 -229 -78q-137 0 -228.5 56.5 t-91.5 143.5zM401 1171q0 -22 21.5 -38.5t60.5 -16.5q37 0 58.5 16.5t21.5 38.5v82q-85 -14 -123.5 -32.5t-38.5 -49.5z" />
<glyph unicode="&#xab;" horiz-adv-x="1556" d="M59 604l222 604h526l-232 -604l232 -604h-526zM725 604l223 604h527l-232 -604l232 -604h-527z" />
<glyph unicode="&#xad;" horiz-adv-x="978" d="M74 526v422h831v-422h-831z" />
<glyph unicode="&#xae;" horiz-adv-x="1802" d="M61 819q0 114 30 223.5t84.5 201.5t132 169.5t169.5 131.5t201 84t223 30q171 0 327 -66.5t268 -178.5t178.5 -268t66.5 -327t-66.5 -326t-178.5 -267.5t-268 -179t-327 -66.5t-326.5 66.5t-268 179t-179 267.5t-66.5 326zM209 819q0 -188 92.5 -347.5t252 -252 t347.5 -92.5t347.5 92.5t252 252t92.5 347.5t-92.5 347.5t-252 252t-347.5 92.5t-347.5 -92.5t-252 -252t-92.5 -347.5zM543 444v752h493q111 0 178.5 -56.5t67.5 -133.5q0 -73 -37.5 -123t-101.5 -68q54 -14 96.5 -58t42.5 -126v-62q0 -53 37 -125h-279q-39 56 -39 117v137 q0 16 -10.5 27.5t-27.5 11.5h-123v-293h-297zM840 879h123q16 0 27 14.5t11 30.5t-11 30.5t-27 14.5h-123v-90z" />
<glyph unicode="&#xaf;" horiz-adv-x="919" d="M55 1350v288h809v-288h-809z" />
<glyph unicode="&#xb0;" horiz-adv-x="745" d="M41 1327q0 138 97 235t235 97t235 -97t97 -235t-97 -235t-235 -97t-235 97t-97 235zM213 1327q0 -65 46.5 -112.5t113.5 -47.5q64 0 111.5 47.5t47.5 112.5t-47.5 112.5t-111.5 47.5q-67 0 -113.5 -47.5t-46.5 -112.5z" />
<glyph unicode="&#xb4;" horiz-adv-x="557" d="M33 1262l96 376h406l-205 -376h-297z" />
<glyph unicode="&#xb6;" horiz-adv-x="1574" d="M14 1112q0 124 41 226.5t108 166.5t150 98.5t170 34.5h510v-1638h-358v586h-152q-87 0 -170 34.5t-150 98.5t-108 166.5t-41 226.5zM1143 0v1638h358v-1638h-358z" />
<glyph unicode="&#xb7;" horiz-adv-x="641" d="M74 762v446h493v-446h-493z" />
<glyph unicode="&#xb8;" horiz-adv-x="655" d="M72 -322l20 322h213l-14 -156q61 41 125 41q75 0 125.5 -48.5t50.5 -117.5v-231q0 -102 -74.5 -174t-185.5 -72t-185.5 72t-74.5 174v70h215v-64q0 -17 13 -29t32 -12t31 12t12 29v174q0 17 -12 29t-31 12t-32 -12t-13 -29z" />
<glyph unicode="&#xba;" horiz-adv-x="1069" d="M55 1303q0 157 138 266.5t342 109.5q203 0 341 -110t138 -266t-138.5 -266.5t-340.5 -110.5q-204 0 -342 110t-138 267zM438 1303q0 -81 24.5 -115.5t72.5 -34.5t73 34.5t25 115.5t-25 115t-73 34t-72.5 -34t-24.5 -115z" />
<glyph unicode="&#xbb;" horiz-adv-x="1556" d="M82 0l231 604l-231 604h526l223 -604l-223 -604h-526zM750 0l231 604l-231 604h526l221 -604l-221 -604h-526z" />
<glyph unicode="&#xbf;" horiz-adv-x="1521" d="M51 31q0 89 31 161t80 118.5t109 84t119.5 65.5t108.5 54.5t80 60.5t31 74h518q0 -82 -25 -152t-65 -118.5t-88.5 -88.5t-97 -69t-88.5 -53.5t-65 -48.5t-25 -47q0 -44 38.5 -70.5t110.5 -26.5q68 0 112 35.5t44 95.5v41h481v-34q0 -121 -50.5 -228t-140 -185.5 t-221 -124.5t-284.5 -46q-199 0 -364 69.5t-257 184.5t-92 248zM616 762v446h494v-446h-494z" />
<glyph unicode="&#xc0;" horiz-adv-x="1884" d="M0 0l608 1638h649l617 -1638h-672l-69 213h-525l-69 -213h-539zM586 2150h405l96 -376h-296zM725 569h287l-148 435z" />
<glyph unicode="&#xc1;" horiz-adv-x="1884" d="M0 0l608 1638h649l617 -1638h-672l-69 213h-525l-69 -213h-539zM725 569h287l-148 435zM782 1774l97 376h405l-205 -376h-297z" />
<glyph unicode="&#xc2;" horiz-adv-x="1884" d="M0 0l608 1638h649l617 -1638h-672l-69 213h-525l-69 -213h-539zM430 1774l238 376h510l237 -376h-330l-163 180l-162 -180h-330zM725 569h287l-148 435z" />
<glyph unicode="&#xc3;" horiz-adv-x="1884" d="M0 0l608 1638h649l617 -1638h-672l-69 213h-525l-69 -213h-539zM408 1776q0 178 93 276t261 98q68 0 127 -23.5t106.5 -47t87.5 -23.5q60 0 97 26.5t37 67.5h284q0 -178 -93 -276t-261 -98q-54 0 -103.5 14.5t-80 31.5t-68 31.5t-70.5 14.5q-61 0 -97 -26t-36 -66h-284z M725 569h287l-148 435z" />
<glyph unicode="&#xc4;" horiz-adv-x="1884" d="M0 0l608 1638h649l617 -1638h-672l-69 213h-525l-69 -213h-539zM459 1776v374h379v-374h-379zM725 569h287l-148 435zM1001 1776v374h379v-374h-379z" />
<glyph unicode="&#xc5;" horiz-adv-x="1884" d="M0 0l608 1638h254q-62 20 -101.5 74.5t-39.5 122.5q0 88 60.5 148.5t146.5 60.5t146.5 -60.5t60.5 -148.5q0 -68 -40 -122.5t-104 -74.5h266l617 -1638h-672l-69 213h-525l-69 -213h-539zM725 569h287l-148 435zM827 1835q0 -40 30 -69t71 -29q40 0 70 29t30 69 q0 41 -30 70.5t-70 29.5q-41 0 -71 -29.5t-30 -70.5z" />
<glyph unicode="&#xc6;" horiz-adv-x="2785" d="M0 0l1159 1638h1565v-495h-834v-168h406v-313h-406v-168h834v-494h-1438v213h-522l-143 -213h-621zM958 569h287l-2 435z" />
<glyph unicode="&#xc7;" horiz-adv-x="1740" d="M61 819q0 175 67 334t180.5 274.5t270.5 183.5t330 68q207 0 376 -95.5t270 -259.5t124 -370h-532q-14 110 -77 166t-136 56q-92 0 -156.5 -89.5t-64.5 -267.5q0 -179 64 -267.5t157 -88.5q72 0 134.5 55t76.5 160h534q-17 -150 -78.5 -280t-157 -225.5t-227 -152.5 t-282.5 -61l-10 -115q61 41 125 41q75 0 125.5 -48.5t50.5 -117.5v-231q0 -102 -74.5 -174t-185.5 -72t-185.5 72t-74.5 174v70h215v-64q0 -17 13 -29t32 -12t31 12t12 29v174q0 17 -12 29t-31 12t-32 -12t-13 -29l-215 10l18 304q-188 42 -339 161.5t-237 297t-86 378.5z " />
<glyph unicode="&#xc8;" horiz-adv-x="1615" d="M74 0v1638h1480v-495h-833v-168h405v-313h-405v-168h833v-494h-1480zM494 2150h405l96 -376h-297z" />
<glyph unicode="&#xc9;" horiz-adv-x="1615" d="M74 0v1638h1480v-495h-833v-168h405v-313h-405v-168h833v-494h-1480zM684 1774l96 376h406l-205 -376h-297z" />
<glyph unicode="&#xca;" horiz-adv-x="1615" d="M74 0v1638h1480v-495h-833v-168h405v-313h-405v-168h833v-494h-1480zM344 1774l238 376h510l237 -376h-330l-163 180l-162 -180h-330z" />
<glyph unicode="&#xcb;" horiz-adv-x="1615" d="M74 0v1638h1480v-495h-833v-168h405v-313h-405v-168h833v-494h-1480zM385 1776v374h379v-374h-379zM928 1776v374h379v-374h-379z" />
<glyph unicode="&#xcc;" horiz-adv-x="811" d="M82 0v1638h647v-1638h-647zM82 2150h405l97 -376h-297z" />
<glyph unicode="&#xcd;" horiz-adv-x="811" d="M82 0v1638h647v-1638h-647zM260 1774l96 376h406l-205 -376h-297z" />
<glyph unicode="&#xce;" horiz-adv-x="811" d="M-86 1774l238 376h510l237 -376h-330l-163 180l-162 -180h-330zM82 0v1638h647v-1638h-647z" />
<glyph unicode="&#xcf;" horiz-adv-x="811" d="M-57 1776v374h379v-374h-379zM82 0v1638h647v-1638h-647zM485 1776v374h379v-374h-379z" />
<glyph unicode="&#xd1;" horiz-adv-x="1824" d="M74 0v1638h575l551 -712v712h551v-1638h-551l-575 719v-719h-551zM352 1776q0 178 93.5 276t261.5 98q68 0 127 -23.5t106.5 -47t87.5 -23.5q60 0 96.5 26.5t36.5 67.5h285q0 -178 -93 -276t-261 -98q-54 0 -103.5 14.5t-80 31.5t-68 31.5t-70.5 14.5q-61 0 -97 -26 t-36 -66h-285z" />
<glyph unicode="&#xd2;" horiz-adv-x="1822" d="M61 819q0 140 43 271.5t121.5 237t183 185t234.5 123t268 43.5t268 -43.5t234.5 -123t183 -185t121.5 -237t43 -271.5t-43 -271.5t-121.5 -237t-183 -185t-234.5 -123t-268 -43.5t-268 43.5t-234.5 123t-183 185t-121.5 237t-43 271.5zM567 2150h406l96 -376h-297z M715 819q0 -104 15 -180t42.5 -119t61.5 -62.5t77 -19.5q90 0 143.5 89.5t53.5 291.5q0 379 -197 379q-196 0 -196 -379z" />
<glyph unicode="&#xd3;" horiz-adv-x="1822" d="M61 819q0 140 43 271.5t121.5 237t183 185t234.5 123t268 43.5t268 -43.5t234.5 -123t183 -185t121.5 -237t43 -271.5t-43 -271.5t-121.5 -237t-183 -185t-234.5 -123t-268 -43.5t-268 43.5t-234.5 123t-183 185t-121.5 237t-43 271.5zM715 819q0 -104 15 -180t42.5 -119 t61.5 -62.5t77 -19.5q90 0 143.5 89.5t53.5 291.5q0 379 -197 379q-196 0 -196 -379zM764 1774l96 376h406l-205 -376h-297z" />
<glyph unicode="&#xd4;" horiz-adv-x="1822" d="M61 819q0 140 43 271.5t121.5 237t183 185t234.5 123t268 43.5t268 -43.5t234.5 -123t183 -185t121.5 -237t43 -271.5t-43 -271.5t-121.5 -237t-183 -185t-234.5 -123t-268 -43.5t-268 43.5t-234.5 123t-183 185t-121.5 237t-43 271.5zM412 1774l237 376h510l238 -376 h-330l-164 180l-162 -180h-329zM715 819q0 -104 15 -180t42.5 -119t61.5 -62.5t77 -19.5q90 0 143.5 89.5t53.5 291.5q0 379 -197 379q-196 0 -196 -379z" />
<glyph unicode="&#xd5;" horiz-adv-x="1822" d="M61 819q0 140 43 271.5t121.5 237t183 185t234.5 123t268 43.5t268 -43.5t234.5 -123t183 -185t121.5 -237t43 -271.5t-43 -271.5t-121.5 -237t-183 -185t-234.5 -123t-268 -43.5t-268 43.5t-234.5 123t-183 185t-121.5 237t-43 271.5zM358 1776q0 178 93.5 276t261.5 98 q68 0 127 -23.5t106.5 -47t87.5 -23.5q60 0 96.5 26.5t36.5 67.5h285q0 -178 -93 -276t-261 -98q-54 0 -103.5 14.5t-80 31.5t-68 31.5t-70.5 14.5q-61 0 -97 -26t-36 -66h-285zM715 819q0 -104 15 -180t42.5 -119t61.5 -62.5t77 -19.5q90 0 143.5 89.5t53.5 291.5 q0 379 -197 379q-196 0 -196 -379z" />
<glyph unicode="&#xd6;" horiz-adv-x="1822" d="M61 819q0 140 43 271.5t121.5 237t183 185t234.5 123t268 43.5t268 -43.5t234.5 -123t183 -185t121.5 -237t43 -271.5t-43 -271.5t-121.5 -237t-183 -185t-234.5 -123t-268 -43.5t-268 43.5t-234.5 123t-183 185t-121.5 237t-43 271.5zM440 1776v374h379v-374h-379z M715 819q0 -104 15 -180t42.5 -119t61.5 -62.5t77 -19.5q90 0 143.5 89.5t53.5 291.5q0 379 -197 379q-196 0 -196 -379zM983 1776v374h379v-374h-379z" />
<glyph unicode="&#xd8;" horiz-adv-x="1822" d="M20 -82l240 348q-199 243 -199 553q0 140 43 271.5t121.5 237t183 185t234.5 123t268 43.5q203 0 387 -96l103 139h401l-241 -350q200 -240 200 -553q0 -140 -43 -271.5t-121.5 -237t-183 -185t-234.5 -123t-268 -43.5q-201 0 -387 94l-100 -135h-404zM715 819 q0 -104 15 -180t42.5 -119t61.5 -62.5t77 -19.5q90 0 143.5 89.5t53.5 291.5q0 379 -197 379q-196 0 -196 -379z" />
<glyph unicode="&#xd9;" horiz-adv-x="1738" d="M68 653v985h600v-944q0 -122 51 -176.5t149 -54.5q203 0 203 231v944h600v-985q0 -203 -102.5 -361.5t-285.5 -245.5t-415 -87q-231 0 -413.5 87t-284.5 245.5t-102 361.5zM512 2150h406l96 -376h-297z" />
<glyph unicode="&#xda;" horiz-adv-x="1738" d="M68 653v985h600v-944q0 -122 51 -176.5t149 -54.5q203 0 203 231v944h600v-985q0 -203 -102.5 -361.5t-285.5 -245.5t-415 -87q-231 0 -413.5 87t-284.5 245.5t-102 361.5zM721 1774l96 376h406l-205 -376h-297z" />
<glyph unicode="&#xdb;" horiz-adv-x="1738" d="M68 653v985h600v-944q0 -122 51 -176.5t149 -54.5q203 0 203 231v944h600v-985q0 -203 -102.5 -361.5t-285.5 -245.5t-415 -87q-231 0 -413.5 87t-284.5 245.5t-102 361.5zM369 1774l237 376h510l238 -376h-330l-164 180l-162 -180h-329z" />
<glyph unicode="&#xdc;" horiz-adv-x="1738" d="M68 653v985h600v-944q0 -122 51 -176.5t149 -54.5q203 0 203 231v944h600v-985q0 -203 -102.5 -361.5t-285.5 -245.5t-415 -87q-231 0 -413.5 87t-284.5 245.5t-102 361.5zM397 1776v374h379v-374h-379zM940 1776v374h379v-374h-379z" />
<glyph unicode="&#xdf;" horiz-adv-x="1531" d="M74 0v1057q0 296 177 459t535 163q287 0 460 -123.5t173 -312.5q0 -103 -43.5 -187t-126.5 -122q60 -19 105.5 -64t70 -101t36.5 -111t12 -105q0 -121 -34.5 -223t-100.5 -178t-170 -119t-236 -43h-184v309q131 0 131 113v174q0 53 -35.5 82.5t-95.5 29.5v330 q74 0 116.5 48.5t42.5 115.5q0 39 -36.5 71.5t-84.5 32.5q-50 0 -86 -32.5t-36 -71.5v-1192h-590z" />
<glyph unicode="&#xe0;" horiz-adv-x="1515" d="M18 311q0 60 22 109t54 85t98 67t121.5 50.5t159.5 41t177.5 34t207.5 33.5v86q0 70 -92 70q-86 0 -86 -70v-41h-590v51q0 105 90.5 198t252 150.5t353.5 57.5q189 0 343.5 -63t236.5 -160t82 -203v-528q0 -193 55 -279h-604l-35 104q-54 -50 -143.5 -89.5t-210.5 -39.5 q-139 0 -251.5 43t-176.5 120t-64 173zM426 1741h405l97 -377h-297zM608 387q0 -38 33 -66t92 -28t92 28t33 66v135q-133 -25 -191.5 -54t-58.5 -81z" />
<glyph unicode="&#xe1;" horiz-adv-x="1515" d="M18 311q0 60 22 109t54 85t98 67t121.5 50.5t159.5 41t177.5 34t207.5 33.5v86q0 70 -92 70q-86 0 -86 -70v-41h-590v51q0 105 90.5 198t252 150.5t353.5 57.5q189 0 343.5 -63t236.5 -160t82 -203v-528q0 -193 55 -279h-604l-35 104q-54 -50 -143.5 -89.5t-210.5 -39.5 q-139 0 -251.5 43t-176.5 120t-64 173zM608 387q0 -38 33 -66t92 -28t92 28t33 66v135q-133 -25 -191.5 -54t-58.5 -81zM629 1364l96 377h405l-204 -377h-297z" />
<glyph unicode="&#xe2;" horiz-adv-x="1515" d="M18 311q0 60 22 109t54 85t98 67t121.5 50.5t159.5 41t177.5 34t207.5 33.5v86q0 70 -92 70q-86 0 -86 -70v-41h-590v51q0 105 90.5 198t252 150.5t353.5 57.5q189 0 343.5 -63t236.5 -160t82 -203v-528q0 -193 55 -279h-604l-35 104q-54 -50 -143.5 -89.5t-210.5 -39.5 q-139 0 -251.5 43t-176.5 120t-64 173zM283 1364l237 377h510l238 -377h-330l-164 180l-162 -180h-329zM608 387q0 -38 33 -66t92 -28t92 28t33 66v135q-133 -25 -191.5 -54t-58.5 -81z" />
<glyph unicode="&#xe3;" horiz-adv-x="1515" d="M18 311q0 60 22 109t54 85t98 67t121.5 50.5t159.5 41t177.5 34t207.5 33.5v86q0 70 -92 70q-86 0 -86 -70v-41h-590v51q0 105 90.5 198t252 150.5t353.5 57.5q189 0 343.5 -63t236.5 -160t82 -203v-528q0 -193 55 -279h-604l-35 104q-54 -50 -143.5 -89.5t-210.5 -39.5 q-139 0 -251.5 43t-176.5 120t-64 173zM260 1366q0 178 93 276.5t261 98.5q54 0 103.5 -14.5t80 -32.5t68 -32.5t70.5 -14.5q60 0 96.5 26.5t36.5 67.5h285q0 -178 -93.5 -276.5t-261.5 -98.5q-68 0 -127 23t-106.5 46t-87.5 23q-61 0 -97 -26t-36 -66h-285zM608 387 q0 -38 33 -66t92 -28t92 28t33 66v135q-133 -25 -191.5 -54t-58.5 -81z" />
<glyph unicode="&#xe4;" horiz-adv-x="1515" d="M18 311q0 60 22 109t54 85t98 67t121.5 50.5t159.5 41t177.5 34t207.5 33.5v86q0 70 -92 70q-86 0 -86 -70v-41h-590v51q0 105 90.5 198t252 150.5t353.5 57.5q189 0 343.5 -63t236.5 -160t82 -203v-528q0 -193 55 -279h-604l-35 104q-54 -50 -143.5 -89.5t-210.5 -39.5 q-139 0 -251.5 43t-176.5 120t-64 173zM311 1366v375h379v-375h-379zM608 387q0 -38 33 -66t92 -28t92 28t33 66v135q-133 -25 -191.5 -54t-58.5 -81zM854 1366v375h379v-375h-379z" />
<glyph unicode="&#xe5;" horiz-adv-x="1515" d="M18 311q0 60 22 109t54 85t98 67t121.5 50.5t159.5 41t177.5 34t207.5 33.5v86q0 70 -92 70q-86 0 -86 -70v-41h-590v51q0 105 90.5 198t252 150.5t353.5 57.5q189 0 343.5 -63t236.5 -160t82 -203v-528q0 -193 55 -279h-604l-35 104q-54 -50 -143.5 -89.5t-210.5 -39.5 q-139 0 -251.5 43t-176.5 120t-64 173zM580 1552q0 88 60 148.5t146 60.5t146.5 -60.5t60.5 -148.5q0 -86 -60.5 -146t-146.5 -60t-146 60t-60 146zM608 387q0 -38 33 -66t92 -28t92 28t33 66v135q-133 -25 -191.5 -54t-58.5 -81zM686 1552q0 -40 29.5 -69t70.5 -29 q40 0 70.5 29.5t30.5 68.5q0 41 -30.5 71t-70.5 30q-41 0 -70.5 -30t-29.5 -71z" />
<glyph unicode="&#xe6;" horiz-adv-x="2390" d="M18 295q0 60 22.5 109t53.5 84.5t97.5 66.5t121 50.5t160 41t177.5 33.5t208 33v88q0 69 -92 69q-88 0 -88 -69v-41h-588v49q0 105 90 198t251 150t353 57q235 0 416 -96q178 96 395 96q155 0 293 -49.5t235.5 -133.5t154.5 -200t57 -245q0 -38 -6 -72h-879 q9 -96 45 -137t100 -41q97 0 131 92h584q-61 -205 -257.5 -337t-457.5 -132q-288 0 -532 127q-239 -127 -555 -127q-212 0 -351 94.5t-139 241.5zM606 369q0 -38 33.5 -66.5t91.5 -28.5q59 0 93 28.5t34 66.5v135q-133 -23 -192.5 -53t-59.5 -82zM1454 692h285 q-13 77 -49 110.5t-95 33.5q-58 0 -93 -33.5t-48 -110.5z" />
<glyph unicode="&#xe7;" horiz-adv-x="1570" d="M55 604q0 128 57 244t154 200.5t235 134.5t292 50q287 0 492 -155t241 -388h-588q-10 88 -46 126t-99 38q-74 0 -112 -57.5t-38 -192.5t38 -192.5t112 -57.5q63 0 99 38t46 126h588q-37 -228 -235.5 -381.5t-479.5 -159.5l-10 -133q61 41 125 41q75 0 125.5 -48.5 t50.5 -117.5v-231q0 -102 -74.5 -174t-185.5 -72t-185.5 72t-74.5 174v70h215v-64q0 -17 13 -29t32 -12t31 12t12 29v174q0 17 -12 29t-31 12t-32 -12t-13 -29l-215 10l20 320q-242 53 -394.5 221t-152.5 385z" />
<glyph unicode="&#xe8;" d="M55 604q0 128 57 244t154 200.5t235 134.5t292 50q155 0 293 -50t235.5 -134.5t154 -200.5t56.5 -244q0 -24 -4 -74h-881q9 -95 45.5 -135.5t100.5 -40.5q97 0 131 92h585q-63 -206 -259 -338.5t-457 -132.5q-154 0 -292 50t-235 134.5t-154 200.5t-57 244zM426 1741h405 l97 -377h-297zM651 709h285q-13 77 -48.5 110t-94.5 33q-58 0 -93.5 -33t-48.5 -110z" />
<glyph unicode="&#xe9;" d="M55 604q0 128 57 244t154 200.5t235 134.5t292 50q155 0 293 -50t235.5 -134.5t154 -200.5t56.5 -244q0 -24 -4 -74h-881q9 -95 45.5 -135.5t100.5 -40.5q97 0 131 92h585q-63 -206 -259 -338.5t-457 -132.5q-154 0 -292 50t-235 134.5t-154 200.5t-57 244zM641 1364 l96 377h406l-205 -377h-297zM651 709h285q-13 77 -48.5 110t-94.5 33q-58 0 -93.5 -33t-48.5 -110z" />
<glyph unicode="&#xea;" d="M55 604q0 128 57 244t154 200.5t235 134.5t292 50q155 0 293 -50t235.5 -134.5t154 -200.5t56.5 -244q0 -24 -4 -74h-881q9 -95 45.5 -135.5t100.5 -40.5q97 0 131 92h585q-63 -206 -259 -338.5t-457 -132.5q-154 0 -292 50t-235 134.5t-154 200.5t-57 244zM295 1364 l237 377h510l238 -377h-330l-164 180l-161 -180h-330zM651 709h285q-13 77 -48.5 110t-94.5 33q-58 0 -93.5 -33t-48.5 -110z" />
<glyph unicode="&#xeb;" d="M55 604q0 128 57 244t154 200.5t235 134.5t292 50q155 0 293 -50t235.5 -134.5t154 -200.5t56.5 -244q0 -24 -4 -74h-881q9 -95 45.5 -135.5t100.5 -40.5q97 0 131 92h585q-63 -206 -259 -338.5t-457 -132.5q-154 0 -292 50t-235 134.5t-154 200.5t-57 244zM336 1366v375 h379v-375h-379zM651 709h285q-13 77 -48.5 110t-94.5 33q-58 0 -93.5 -33t-48.5 -110zM879 1366v375h378v-375h-378z" />
<glyph unicode="&#xec;" horiz-adv-x="737" d="M33 1741h405l97 -377h-297zM74 0v1208h590v-1208h-590z" />
<glyph unicode="&#xed;" horiz-adv-x="737" d="M74 0v1208h590v-1208h-590zM223 1364l96 377h406l-205 -377h-297z" />
<glyph unicode="&#xee;" horiz-adv-x="737" d="M-117 1364l238 377h510l237 -377h-329l-164 180l-162 -180h-330zM74 0v1208h590v-1208h-590z" />
<glyph unicode="&#xef;" horiz-adv-x="737" d="M-94 1366v375h379v-375h-379zM74 0v1208h590v-1208h-590zM449 1366v375h378v-375h-378z" />
<glyph unicode="&#xf1;" horiz-adv-x="1634" d="M74 0v1208h565l29 -143q60 70 170 119t243 49q221 0 350.5 -96.5t135.5 -264.5v-872h-588v711q0 52 -46 87.5t-112 35.5q-65 0 -111 -35.5t-46 -87.5v-711h-590zM291 1366q0 178 93 276.5t261 98.5q54 0 103.5 -14.5t80 -32.5t68 -32.5t70.5 -14.5q60 0 96.5 26.5 t36.5 67.5h284q0 -178 -93 -276.5t-261 -98.5q-68 0 -127 23t-106.5 46t-87.5 23q-61 0 -97.5 -26t-36.5 -66h-284z" />
<glyph unicode="&#xf2;" d="M55 604q0 128 57 244t154.5 200.5t235.5 134.5t293 50q154 0 291.5 -50t235 -134.5t154 -200.5t56.5 -244t-56.5 -244t-154 -200.5t-235 -134.5t-291.5 -50q-155 0 -293 50t-235.5 134.5t-154.5 200.5t-57 244zM432 1741h406l96 -377h-297zM645 604q0 -136 37.5 -193 t112.5 -57q74 0 111.5 57.5t37.5 192.5q0 134 -37.5 191t-111.5 57q-75 0 -112.5 -57t-37.5 -191z" />
<glyph unicode="&#xf3;" d="M55 604q0 128 57 244t154.5 200.5t235.5 134.5t293 50q154 0 291.5 -50t235 -134.5t154 -200.5t56.5 -244t-56.5 -244t-154 -200.5t-235 -134.5t-291.5 -50q-155 0 -293 50t-235.5 134.5t-154.5 200.5t-57 244zM641 1364l96 377h406l-205 -377h-297zM645 604 q0 -136 37.5 -193t112.5 -57q74 0 111.5 57.5t37.5 192.5q0 134 -37.5 191t-111.5 57q-75 0 -112.5 -57t-37.5 -191z" />
<glyph unicode="&#xf4;" d="M55 604q0 128 57 244t154.5 200.5t235.5 134.5t293 50q154 0 291.5 -50t235 -134.5t154 -200.5t56.5 -244t-56.5 -244t-154 -200.5t-235 -134.5t-291.5 -50q-155 0 -293 50t-235.5 134.5t-154.5 200.5t-57 244zM301 1364l238 377h510l237 -377h-330l-163 180l-162 -180 h-330zM645 604q0 -136 37.5 -193t112.5 -57q74 0 111.5 57.5t37.5 192.5q0 134 -37.5 191t-111.5 57q-75 0 -112.5 -57t-37.5 -191z" />
<glyph unicode="&#xf5;" d="M55 604q0 128 57 244t154.5 200.5t235.5 134.5t293 50q154 0 291.5 -50t235 -134.5t154 -200.5t56.5 -244t-56.5 -244t-154 -200.5t-235 -134.5t-291.5 -50q-155 0 -293 50t-235.5 134.5t-154.5 200.5t-57 244zM236 1366q0 178 93 276.5t261 98.5q68 0 127 -23.5 t106.5 -47t87.5 -23.5q60 0 96.5 26.5t36.5 67.5h285q0 -178 -93 -276.5t-261 -98.5q-54 0 -103.5 14.5t-80 31.5t-68 31.5t-70.5 14.5q-61 0 -97 -26t-36 -66h-284zM645 604q0 -136 37.5 -193t112.5 -57q74 0 111.5 57.5t37.5 192.5q0 134 -37.5 191t-111.5 57 q-75 0 -112.5 -57t-37.5 -191z" />
<glyph unicode="&#xf6;" d="M55 604q0 128 57 244t154.5 200.5t235.5 134.5t293 50q154 0 291.5 -50t235 -134.5t154 -200.5t56.5 -244t-56.5 -244t-154 -200.5t-235 -134.5t-291.5 -50q-155 0 -293 50t-235.5 134.5t-154.5 200.5t-57 244zM336 1366v375h379v-375h-379zM645 604q0 -136 37.5 -193 t112.5 -57q74 0 111.5 57.5t37.5 192.5q0 134 -37.5 191t-111.5 57q-75 0 -112.5 -57t-37.5 -191zM879 1366v375h378v-375h-378z" />
<glyph unicode="&#xf8;" d="M55 604q0 128 57 244t154.5 200.5t235.5 134.5t293 50q130 0 249 -35l46 74h403l-152 -242q91 -86 141 -195.5t50 -230.5q0 -128 -56.5 -244t-154 -200.5t-235 -134.5t-291.5 -50q-129 0 -248 35l-45 -76h-404l152 240q-93 86 -144 197t-51 233zM645 604 q0 -136 37.5 -193t112.5 -57q74 0 111.5 57.5t37.5 192.5q0 134 -37.5 191t-111.5 57q-75 0 -112.5 -57t-37.5 -191z" />
<glyph unicode="&#xf9;" horiz-adv-x="1634" d="M68 336v872h589v-710q0 -52 46 -87.5t112 -35.5q65 0 111.5 35.5t46.5 87.5v710h588v-1208h-564l-28 143q-59 -69 -169.5 -117.5t-244.5 -48.5q-221 0 -350 95.5t-137 263.5zM463 1741h405l97 -377h-297z" />
<glyph unicode="&#xfa;" horiz-adv-x="1634" d="M68 336v872h589v-710q0 -52 46 -87.5t112 -35.5q65 0 111.5 35.5t46.5 87.5v710h588v-1208h-564l-28 143q-59 -69 -169.5 -117.5t-244.5 -48.5q-221 0 -350 95.5t-137 263.5zM653 1364l97 377h405l-205 -377h-297z" />
<glyph unicode="&#xfb;" horiz-adv-x="1634" d="M68 336v872h589v-710q0 -52 46 -87.5t112 -35.5q65 0 111.5 35.5t46.5 87.5v710h588v-1208h-564l-28 143q-59 -69 -169.5 -117.5t-244.5 -48.5q-221 0 -350 95.5t-137 263.5zM319 1364l238 377h510l238 -377h-330l-164 180l-162 -180h-330z" />
<glyph unicode="&#xfc;" horiz-adv-x="1634" d="M68 336v872h589v-710q0 -52 46 -87.5t112 -35.5q65 0 111.5 35.5t46.5 87.5v710h588v-1208h-564l-28 143q-59 -69 -169.5 -117.5t-244.5 -48.5q-221 0 -350 95.5t-137 263.5zM348 1366v375h379v-375h-379zM891 1366v375h379v-375h-379z" />
<glyph unicode="&#xff;" horiz-adv-x="1505" d="M20 1208h615l190 -581l183 581h497l-512 -1161q-105 -272 -246 -384t-387 -112h-245v392h200q80 0 133 30t78 103zM324 1366v375h378v-375h-378zM866 1366v375h379v-375h-379z" />
<glyph unicode="&#x152;" horiz-adv-x="2613" d="M61 819q0 167 67 318.5t180.5 261t270.5 174.5t330 65h1643v-495h-834v-168h406v-313h-406v-168h834v-494h-1643q-173 0 -330 65t-270.5 174.5t-180.5 261t-67 318.5zM713 819q0 -71 15 -128t39 -93t57 -60t66 -34t68 -10h113v649h-113q-44 0 -85.5 -17t-78.5 -53 t-59 -101.5t-22 -152.5z" />
<glyph unicode="&#x153;" horiz-adv-x="2476" d="M55 586q0 129 56.5 245t154.5 200t235 133.5t292 49.5q248 0 444 -124q196 124 444 124q155 0 293 -49.5t235.5 -133.5t154.5 -200t57 -245q0 -38 -6 -72h-881q10 -96 46.5 -137t100.5 -41q98 0 129 92h586q-61 -205 -257.5 -337t-457.5 -132q-251 0 -442 123 q-194 -123 -446 -123q-154 0 -292 49.5t-235 134t-154 200t-57 243.5zM643 586q0 -135 38 -192.5t112 -57.5q75 0 112 57t37 193t-37 193t-112 57q-74 0 -112 -57.5t-38 -192.5zM1540 692h283q-22 144 -142 144q-59 0 -94 -33.5t-47 -110.5z" />
<glyph unicode="&#x178;" horiz-adv-x="1894" d="M0 1638h741l242 -489l254 489h647l-631 -995v-643h-647v643zM508 1776v374h379v-374h-379zM1051 1776v374h379v-374h-379z" />
<glyph unicode="&#x2c6;" horiz-adv-x="1058" d="M37 1262l237 376h510l238 -376h-330l-164 180l-161 -180h-330z" />
<glyph unicode="&#x2dc;" horiz-adv-x="1191" d="M57 1264q0 178 93.5 276t261.5 98q68 0 127 -23.5t106.5 -47t87.5 -23.5q60 0 96.5 26.5t36.5 67.5h285q0 -178 -93 -276t-261 -98q-54 0 -103.5 14.5t-80 31.5t-68 31.5t-70.5 14.5q-61 0 -97 -26t-36 -66h-285z" />
<glyph unicode="&#x2000;" horiz-adv-x="1075" />
<glyph unicode="&#x2001;" horiz-adv-x="2150" />
<glyph unicode="&#x2002;" horiz-adv-x="1075" />
<glyph unicode="&#x2003;" horiz-adv-x="2150" />
<glyph unicode="&#x2004;" horiz-adv-x="716" />
<glyph unicode="&#x2005;" horiz-adv-x="537" />
<glyph unicode="&#x2006;" horiz-adv-x="358" />
<glyph unicode="&#x2007;" horiz-adv-x="358" />
<glyph unicode="&#x2008;" horiz-adv-x="268" />
<glyph unicode="&#x2009;" horiz-adv-x="430" />
<glyph unicode="&#x200a;" horiz-adv-x="119" />
<glyph unicode="&#x2010;" horiz-adv-x="978" d="M74 526v422h831v-422h-831z" />
<glyph unicode="&#x2011;" horiz-adv-x="978" d="M74 526v422h831v-422h-831z" />
<glyph unicode="&#x2012;" horiz-adv-x="978" d="M74 526v422h831v-422h-831z" />
<glyph unicode="&#x2013;" horiz-adv-x="1171" d="M74 526v422h1024v-422h-1024z" />
<glyph unicode="&#x2014;" horiz-adv-x="2195" d="M74 526v422h2048v-422h-2048z" />
<glyph unicode="&#x2018;" horiz-adv-x="641" d="M74 907v447l358 340h164l-234 -340h207v-447h-495z" />
<glyph unicode="&#x2019;" horiz-adv-x="641" d="M47 852l234 340h-207v446h495v-446l-358 -340h-164z" />
<glyph unicode="&#x201a;" horiz-adv-x="641" d="M47 -340l234 340h-207v446h495v-446l-358 -340h-164z" />
<glyph unicode="&#x201c;" horiz-adv-x="1212" d="M74 907v447l358 340h164l-234 -340h207v-447h-495zM643 907v447l358 340h164l-233 -340h207v-447h-496z" />
<glyph unicode="&#x201d;" horiz-adv-x="1210" d="M47 852l234 340h-207v446h495v-446l-358 -340h-164zM614 852l234 340h-207v446h496v-446l-359 -340h-164z" />
<glyph unicode="&#x201e;" horiz-adv-x="1210" d="M47 -340l234 340h-207v446h495v-446l-358 -340h-164zM614 -340l234 340h-207v446h496v-446l-359 -340h-164z" />
<glyph unicode="&#x2022;" horiz-adv-x="518" d="M31 819q0 95 67 161.5t162 66.5q94 0 160.5 -66.5t66.5 -161.5q0 -94 -66.5 -160.5t-160.5 -66.5q-95 0 -162 66.5t-67 160.5z" />
<glyph unicode="&#x2026;" horiz-adv-x="2025" d="M74 0v446h493v-446h-493zM766 0v446h494v-446h-494zM1458 0v446h494v-446h-494z" />
<glyph unicode="&#x202f;" horiz-adv-x="430" />
<glyph unicode="&#x2039;" horiz-adv-x="888" d="M59 604l222 604h526l-232 -604l232 -604h-526z" />
<glyph unicode="&#x203a;" horiz-adv-x="890" d="M82 0l231 604l-231 604h526l223 -604l-223 -604h-526z" />
<glyph unicode="&#x205f;" horiz-adv-x="537" />
<glyph unicode="&#x2122;" horiz-adv-x="2080" d="M55 1401v237h793v-237h-242v-551h-311v551h-240zM948 850v788h434l99 -346l100 346h444v-788h-311v502l-133 -502h-238l-151 502v-502h-244z" />
<glyph unicode="&#x25fc;" horiz-adv-x="1208" d="M0 0v1208h1208v-1208h-1208z" />
<glyph unicode="&#xfb01;" horiz-adv-x="1900" d="M41 799v319h217v105q0 191 138.5 303t404.5 112h321v-342h-151q-50 0 -86.5 -32.5t-36.5 -71.5v-74h274v-319h-274v-799h-590v799h-217zM1237 0v1208h590v-1208h-590zM1237 1309v329h590v-329h-590z" />
<glyph unicode="&#xfb02;" horiz-adv-x="1898" d="M41 799v319h217v105q0 191 138.5 303t404.5 112h321v-342h-151q-50 0 -86.5 -32.5t-36.5 -71.5v-74h274v-319h-274v-799h-590v799h-217zM1237 0v1638h588v-1638h-588z" />
</font>
</defs>
</svg>
