<?xml version="1.0" standalone="no"?>
<!DOCTYPE svg PUBLIC "-//W3C//DTD SVG 1.1//EN" "http://www.w3.org/Graphics/SVG/1.1/DTD/svg11.dtd" >
<svg xmlns="http://www.w3.org/2000/svg">
<metadata></metadata>
<defs>
<font id="champion_htf-lightweightRg" horiz-adv-x="448" >
<font-face units-per-em="2048" ascent="1638" descent="-410" />
<missing-glyph horiz-adv-x="307" />
<glyph horiz-adv-x="2048" />
<glyph horiz-adv-x="2048" />
<glyph unicode="&#xd;" horiz-adv-x="2048" />
<glyph unicode=" "  horiz-adv-x="307" />
<glyph unicode="&#x09;" horiz-adv-x="307" />
<glyph unicode="&#xa0;" horiz-adv-x="307" />
<glyph unicode="!" horiz-adv-x="491" d="M82 1133v505h328v-505l-80 -689h-166zM96 0v324h301v-324h-301z" />
<glyph unicode="&#x22;" horiz-adv-x="839" d="M59 1110l129 205h-114v323h301v-323l-223 -205h-93zM451 1110l131 205h-117v323h301v-323l-223 -205h-92z" />
<glyph unicode="#" horiz-adv-x="1366" d="M23 377v250h215l59 385h-178v250h215l57 376h303l-59 -376h199l57 376h301l-57 -376h178v-250h-215l-60 -385h176v-250h-215l-57 -377h-301l57 377h-196l-60 -377h-301l60 377h-178zM539 627h198l58 385h-197z" />
<glyph unicode="$" horiz-adv-x="903" d="M29 301v219h309v-153q0 -47 26 -77t72 -30q92 0 92 107q0 94 -56 181t-175 206q-248 243 -248 506q0 148 80.5 254t226.5 135v161h228v-170q115 -34 187.5 -118.5t72.5 -184.5v-219h-307v168q0 41 -22.5 67.5t-55.5 26.5q-32 0 -59 -27t-27 -67q0 -32 2 -55t14.5 -52 t20.5 -45t39.5 -56.5t50.5 -63t73 -86.5q119 -140 160 -201q119 -175 119 -348q0 -137 -79.5 -245.5t-215.5 -141.5v-164h-227v164q-135 30 -218 117.5t-83 191.5z" />
<glyph unicode="%" horiz-adv-x="1933" d="M61 1028v330q0 134 105.5 217.5t259.5 83.5q156 0 261.5 -83.5t105.5 -217.5v-330q0 -135 -105.5 -219t-261.5 -84q-154 0 -259.5 84t-105.5 219zM362 1022q0 -29 18 -44t46 -15q29 0 47.5 15t18.5 44v342q0 29 -18.5 44t-47.5 15q-28 0 -46 -15t-18 -44v-342zM403 0 l832 1638h295l-832 -1638h-295zM1143 281v331q0 134 105 217.5t259 83.5t259.5 -83.5t105.5 -217.5v-331q0 -134 -105.5 -217.5t-259.5 -83.5t-259 83.5t-105 217.5zM1444 276q0 -29 17.5 -44t45.5 -15t46 15t18 44v340q0 29 -18 44.5t-46 15.5t-45.5 -15.5t-17.5 -44.5 v-340z" />
<glyph unicode="&#x26;" horiz-adv-x="1361" d="M27 403q0 123 94 263t215 221q-10 20 -46 89t-48.5 99t-27.5 84.5t-15 104.5q0 76 28 141.5t74 111t106 78.5t124 48.5t128 15.5q162 0 272.5 -95t110.5 -231q0 -138 -93.5 -268.5t-252.5 -239.5q34 -110 105 -252q76 134 76 252h317q-4 -131 -68.5 -264.5t-177.5 -253.5 q22 -49 78 -49q34 0 53 25t19 69v41h248v-92q0 -158 -89 -239.5t-229 -81.5q-62 0 -143.5 24.5t-126.5 61.5q-122 -86 -291 -86q-85 0 -163.5 28.5t-140.5 80.5t-99 133.5t-37 180.5zM358 403q0 -145 156 -145q63 0 94 39q-108 165 -153 311q-41 -37 -69 -94t-28 -111z M530 1284q0 -39 9 -73t17.5 -51.5t39.5 -74.5q73 58 99 107t26 117q0 36 -26.5 56.5t-61.5 20.5q-42 0 -72.5 -28.5t-30.5 -73.5z" />
<glyph unicode="'" d="M59 1110l129 205h-114v323h301v-323l-223 -205h-93z" />
<glyph unicode="(" horiz-adv-x="675" d="M61 612q0 370 146 686.5t379 493.5l90 -82q-134 -163 -214.5 -455.5t-80.5 -642.5q0 -348 80.5 -639t214.5 -454l-90 -82q-234 178 -379.5 491.5t-145.5 683.5z" />
<glyph unicode=")" horiz-adv-x="675" d="M14 -481q134 163 214.5 454t80.5 639q0 350 -80.5 642.5t-214.5 455.5l90 82q233 -177 379 -493.5t146 -686.5t-145.5 -683.5t-379.5 -491.5z" />
<glyph unicode="*" horiz-adv-x="985" d="M25 1065l159 92l105 27l-105 26l-159 93l127 217l157 -90l76 -78l-29 104v182h252v-182l-28 -104l75 78l158 90l127 -217l-160 -93l-102 -26l102 -27l160 -92l-127 -219l-158 92l-75 76l28 -103v-182h-252v182l29 105l-76 -78l-157 -92z" />
<glyph unicode="+" horiz-adv-x="917" d="M72 614v291h241v262h291v-262h242v-291h-242v-262h-291v262h-241z" />
<glyph unicode="," d="M59 -205l129 205h-114v324h301v-324l-225 -205h-91z" />
<glyph unicode="-" horiz-adv-x="501" d="M72 614v291h358v-291h-358z" />
<glyph unicode="." d="M74 0v324h301v-324h-301z" />
<glyph unicode="/" horiz-adv-x="868" d="M70 0l471 1638h327l-469 -1638h-329z" />
<glyph unicode="0" horiz-adv-x="901" d="M61 322v995q0 83 51.5 161.5t142.5 129.5t196 51q79 0 152 -30t124.5 -78.5t82 -110t30.5 -123.5v-995q0 -62 -30.5 -123.5t-82 -110t-124.5 -78.5t-152 -30q-105 0 -196 51t-142.5 129.5t-51.5 161.5zM387 309q0 -21 18.5 -35t45.5 -14t45 14t18 35v1020q0 21 -18 35 t-45 14t-45.5 -14t-18.5 -35v-1020z" />
<glyph unicode="1" horiz-adv-x="700" d="M27 1217v180q98 17 160 79.5t81 161.5h254v-1638h-329v1217h-166z" />
<glyph unicode="2" horiz-adv-x="886" d="M41 0q0 190 71.5 397.5t194.5 397.5q27 43 65.5 101t56 85t40.5 68.5t32 71.5t16 72t7 91q0 45 -24 69.5t-58 24.5q-35 0 -61.5 -25t-26.5 -69v-166h-301v199q0 130 111 236t268 106q194 0 300 -103.5t106 -275.5q0 -37 -3.5 -72t-14.5 -72.5t-19 -64.5t-28 -67.5 t-29.5 -61t-37 -64.5t-37 -59.5t-41.5 -65t-40 -61.5q-72 -110 -107 -194.5t-65 -206.5h379v-291h-754z" />
<glyph unicode="3" horiz-adv-x="854" d="M45 301v150h313v-142q0 -21 19 -35t47 -14q27 0 45 14t18 35v357q0 21 -18 35t-45 14h-143v229h143q26 0 44.5 14.5t18.5 34.5v336q0 21 -18 35t-45 14q-28 0 -47 -14t-19 -35v-141h-313v149q0 128 110 225t269 97q158 0 267.5 -97t109.5 -225v-331q0 -57 -31 -108.5 t-96 -70.5q65 -17 96 -68t31 -110v-348q0 -127 -109.5 -224t-267.5 -97q-159 0 -269 96.5t-110 224.5z" />
<glyph unicode="4" horiz-adv-x="901" d="M35 266v234l469 1138h266v-1108h96v-264h-96v-266h-301v266h-434zM350 530h119v312z" />
<glyph unicode="5" horiz-adv-x="878" d="M61 301v150h316v-142q0 -22 17.5 -35.5t45.5 -13.5q27 0 45.5 14t18.5 35v486q0 20 -19 34.5t-45 14.5q-27 0 -45 -14t-18 -35l-316 12l52 831h714q0 -115 -46 -192.5t-97 -77.5h-283l-22 -338q85 51 184 51q106 0 180 -68t74 -155v-557q0 -127 -109.5 -224t-267.5 -97 q-159 0 -269 96.5t-110 224.5z" />
<glyph unicode="6" horiz-adv-x="880" d="M61 301v1036q0 128 110 225t269 97t269 -97t110 -225v-149h-315v141q0 21 -18.5 35t-45.5 14t-45 -14t-18 -35v-340q70 51 186 51q107 0 181.5 -68.5t74.5 -156.5v-514q0 -128 -110 -224.5t-269 -96.5t-269 96.5t-110 224.5zM377 309q0 -21 18 -35t45 -14t45.5 14 t18.5 35v445q0 20 -19 34.5t-45 14.5t-44.5 -14.5t-18.5 -34.5v-445z" />
<glyph unicode="7" horiz-adv-x="806" d="M68 0l333 1348h-333v290h716l-389 -1638h-327z" />
<glyph unicode="8" horiz-adv-x="880" d="M61 301v328q0 56 45 118t111 80q-66 19 -111 82t-45 119v309q0 128 110 225t269 97t269 -97t110 -225v-309q0 -56 -44.5 -119t-110.5 -82q66 -18 110.5 -80t44.5 -118v-328q0 -128 -110 -224.5t-269 -96.5t-269 96.5t-110 224.5zM377 309q0 -21 18 -35t45 -14t45.5 14 t18.5 35v353q0 20 -19 34.5t-45 14.5t-44.5 -14.5t-18.5 -34.5v-353zM377 997q0 -20 18.5 -34.5t44.5 -14.5t45 14.5t19 34.5v332q0 21 -18.5 35t-45.5 14t-45 -14t-18 -35v-332z" />
<glyph unicode="9" horiz-adv-x="880" d="M61 301v150h316v-142q0 -21 18 -35t45 -14t45.5 14t18.5 35v340q-31 -24 -82.5 -37.5t-104.5 -13.5q-106 0 -181 69t-75 156v514q0 128 110 225t269 97t269 -97t110 -225v-1036q0 -128 -110 -224.5t-269 -96.5t-269 96.5t-110 224.5zM377 885q0 -20 18.5 -34.5 t44.5 -14.5t45 14.5t19 34.5v444q0 21 -18.5 35t-45.5 14t-45 -14t-18 -35v-444z" />
<glyph unicode=":" d="M74 0v324h301v-324h-301zM74 717v323h301v-323h-301z" />
<glyph unicode=";" d="M59 -205l129 205h-114v324h301v-324l-225 -205h-91zM74 719v321h301v-321h-301z" />
<glyph unicode="&#x3c;" horiz-adv-x="827" d="M41 770l469 709l242 -191l-338 -518l338 -516l-242 -191z" />
<glyph unicode="=" horiz-adv-x="792" d="M72 385v293h649v-293h-649zM72 844v291h649v-291h-649z" />
<glyph unicode="&#x3e;" horiz-adv-x="827" d="M76 254l338 516l-338 518l241 191l469 -709l-469 -707z" />
<glyph unicode="?" horiz-adv-x="890" d="M76 1118v219q0 128 108 225t265 97q193 0 297 -103.5t104 -275.5q0 -71 -22.5 -137.5t-57 -115.5t-74 -103t-74 -100.5t-57 -107t-22.5 -122.5q0 -16 4.5 -38t8 -35.5t13 -42.5t11.5 -34h-301q-41 121 -41 177q0 81 22 148.5t55 111t71.5 92t71.5 92.5t55 112t22 150 q0 35 -22 54.5t-56 19.5t-57 -19.5t-23 -54.5v-209h-301zM299 0v324h301v-324h-301z" />
<glyph unicode="@" horiz-adv-x="1669" d="M61 819q0 171 63 327t170 268t254.5 178.5t309.5 66.5q153 0 293.5 -59.5t239.5 -157t158 -227t59 -265.5q0 -245 -135 -406t-340 -161q-208 0 -248 133q-30 -55 -93 -87t-114 -32q-77 0 -122.5 54.5t-33.5 130.5l68 450q10 75 72 128.5t137 53.5q93 0 137 -73l8 53h232 l-72 -473q-10 -66 12.5 -99.5t69.5 -33.5q89 0 134.5 95t45.5 261q0 92 -35 177t-98.5 151t-161 105.5t-213.5 39.5q-238 0 -386 -166t-148 -432q0 -271 145 -434.5t389 -163.5q199 0 350 94l119 -176q-208 -159 -469 -159q-162 0 -309.5 66.5t-254.5 179t-170 267.5 t-63 326zM764 653q-3 -22 9 -35.5t32 -13.5q22 0 38 13.5t19 35.5l45 308q3 20 -9 34.5t-32 14.5t-36 -14.5t-19 -34.5z" />
<glyph unicode="A" horiz-adv-x="872" d="M10 0l217 1638h391l222 -1638h-340l-21 256h-147l-31 -256h-291zM358 547h103l-41 538z" />
<glyph unicode="B" horiz-adv-x="872" d="M74 0v1638h401q62 0 120 -18t107 -52.5t79 -94t30 -134.5v-325q0 -116 -127 -180q127 -64 127 -181v-354q0 -75 -30 -134.5t-79 -94t-107 -52.5t-120 -18h-401zM401 289h48q55 0 55 65v264q0 66 -55 66h-48v-395zM401 975h48q55 0 55 63v244q0 66 -55 66h-48v-373z" />
<glyph unicode="C" horiz-adv-x="907" d="M61 301v1036q0 126 117.5 224t278.5 98q160 0 274.5 -97.5t114.5 -224.5v-325h-326v317q0 21 -18 35t-45 14t-45.5 -14t-18.5 -35v-1020q0 -21 18.5 -35t45.5 -14t45 14t18 35v318h326v-326q0 -127 -114.5 -224t-274.5 -97q-161 0 -278.5 97.5t-117.5 223.5z" />
<glyph unicode="D" horiz-adv-x="921" d="M74 0v1638h428q62 0 123 -18t114.5 -52.5t87 -94t33.5 -134.5v-1040q0 -75 -33.5 -134.5t-87 -94t-114.5 -52.5t-123 -18h-428zM401 289h74q55 0 55 65v928q0 66 -55 66h-74v-1059z" />
<glyph unicode="E" horiz-adv-x="765" d="M74 0v1638h645v-270h-318v-373h209v-290h-209v-414h318v-291h-645z" />
<glyph unicode="F" horiz-adv-x="747" d="M74 0v1638h645v-270h-318v-403h236v-281h-236v-684h-327z" />
<glyph unicode="G" horiz-adv-x="915" d="M61 301v1036q0 127 113.5 224.5t271.5 97.5q160 0 275 -97.5t115 -224.5v-336h-324v328q0 21 -19 35t-47 14q-27 0 -45 -14t-18 -35v-1042q0 -20 18.5 -34.5t44.5 -14.5q28 0 47 14.5t19 34.5v276h-66v238h400v-801h-197l-31 57q-35 -32 -92 -54.5t-116 -22.5 q-154 0 -251.5 91t-97.5 230z" />
<glyph unicode="H" horiz-adv-x="952" d="M74 0v1638h327v-686h148v686h330v-1638h-330v662h-148v-662h-327z" />
<glyph unicode="I" horiz-adv-x="503" d="M88 0v1638h328v-1638h-328z" />
<glyph unicode="J" horiz-adv-x="886" d="M41 301v399h326v-381q0 -22 17.5 -35.5t45.5 -13.5q27 0 45.5 14t18.5 35v1319h331v-1337q0 -126 -118 -223.5t-277 -97.5q-160 0 -274.5 97t-114.5 224z" />
<glyph unicode="K" horiz-adv-x="940" d="M74 0v1638h329v-739l179 739h313l-209 -751l244 -887h-328l-133 598l-66 -209v-389h-329z" />
<glyph unicode="L" horiz-adv-x="755" d="M74 0v1638h329v-1347h316v-291h-645z" />
<glyph unicode="M" horiz-adv-x="1374" d="M74 0v1638h499l121 -747l129 747h477v-1638h-327v1042l-205 -1042h-215l-184 1044v-1044h-295z" />
<glyph unicode="N" horiz-adv-x="985" d="M74 0v1638h299l264 -847v847h274v-1638h-286l-277 834v-834h-274z" />
<glyph unicode="O" horiz-adv-x="901" d="M61 322v995q0 83 51.5 161.5t142.5 129.5t196 51q79 0 152 -30t124.5 -78.5t82 -110t30.5 -123.5v-995q0 -62 -30.5 -123.5t-82 -110t-124.5 -78.5t-152 -30q-105 0 -196 51t-142.5 129.5t-51.5 161.5zM387 309q0 -21 18.5 -35t45.5 -14t45 14t18 35v1020q0 21 -18 35 t-45 14t-45.5 -14t-18.5 -35v-1020z" />
<glyph unicode="P" horiz-adv-x="868" d="M74 0v1638h403q62 0 121.5 -18t110.5 -52.5t82.5 -94t31.5 -134.5v-419q0 -75 -31.5 -134.5t-82.5 -94t-110.5 -52.5t-121.5 -18h-74v-621h-329zM403 911h46q57 0 57 66v305q0 66 -57 66h-46v-437z" />
<glyph unicode="Q" horiz-adv-x="901" d="M61 322v993q0 130 116 237t274 107t273.5 -107t115.5 -237v-993q0 -107 -86 -204.5t-213 -127.5q-19 -51 -19 -103q0 -88 51 -88q27 0 39.5 25t12.5 59q0 14 -13 66h129q25 -68 25 -127q0 -97 -57 -154t-166 -57q-119 0 -178.5 60.5t-59.5 172.5q0 84 35 152 q-120 35 -199.5 129t-79.5 197zM387 307q0 -20 18.5 -33.5t45.5 -13.5q26 0 44.5 13.5t18.5 33.5v1022q0 21 -18 35t-45 14t-45.5 -14t-18.5 -35v-1022z" />
<glyph unicode="R" horiz-adv-x="892" d="M74 0v1638h401q49 0 97 -11t93.5 -34.5t80.5 -57.5t56 -85t21 -111v-366q0 -110 -137 -180q143 -73 143 -181v-338q0 -19 1 -39t2.5 -35.5t5 -37t5 -33.5t6.5 -35t7 -31.5t7.5 -33t6.5 -29.5h-317q-41 118 -41 254v344q0 28 -18 46t-50 18h-43v-662h-327zM401 932h48 q55 0 55 65v285q0 66 -55 66h-48v-416z" />
<glyph unicode="S" horiz-adv-x="903" d="M29 301v219h307v-153q0 -47 27 -77t73 -30q90 0 90 107q0 95 -56 182.5t-175 204.5q-248 248 -248 506q0 173 110 286t302 113q160 0 272.5 -97.5t112.5 -224.5v-219h-309v166q0 42 -21.5 68t-54.5 26q-34 0 -60 -26.5t-26 -67.5q0 -88 33 -144.5t165 -211.5 q117 -138 156 -194q125 -179 125 -355q0 -79 -27.5 -150.5t-78 -127t-127 -88.5t-168.5 -33q-182 0 -302 96t-120 225z" />
<glyph unicode="T" horiz-adv-x="813" d="M25 1358v280h763v-280h-213v-1358h-327v1358h-223z" />
<glyph unicode="U" horiz-adv-x="878" d="M68 301v1337h315v-1329q0 -21 18 -35t45 -14t45.5 14t18.5 35v1329h301v-1337q0 -129 -103.5 -225t-261.5 -96q-159 0 -268.5 96.5t-109.5 224.5z" />
<glyph unicode="V" horiz-adv-x="886" d="M29 1638h325l101 -936l114 936h299l-268 -1638h-303z" />
<glyph unicode="W" horiz-adv-x="1316" d="M29 1638h323l101 -841l98 841h217l98 -841l115 841h297l-254 -1638h-262l-103 733l-102 -733h-276z" />
<glyph unicode="X" horiz-adv-x="905" d="M20 0l246 821l-229 817h315l97 -432l112 432h301l-244 -776l234 -862h-315l-101 432l-114 -432h-302z" />
<glyph unicode="Y" horiz-adv-x="882" d="M20 1638h314l125 -546l112 546h301l-272 -931v-707h-317v707z" />
<glyph unicode="Z" horiz-adv-x="745" d="M16 0l328 1368h-272v270h630l-319 -1347h307v-291h-674z" />
<glyph unicode="[" horiz-adv-x="872" d="M227 -563v2355h645v-270h-317v-1817h317v-268h-645z" />
<glyph unicode="\" horiz-adv-x="868" d="M0 1638h328l471 -1638h-330z" />
<glyph unicode="]" horiz-adv-x="872" d="M0 -295h317v1817h-317v270h645v-2355h-645v268z" />
<glyph unicode="^" horiz-adv-x="884" d="M37 1262l258 376h303l258 -376h-248l-162 182l-161 -182h-248z" />
<glyph unicode="_" horiz-adv-x="1167" d="M72 0v291h1024v-291h-1024z" />
<glyph unicode="`" horiz-adv-x="409" d="M27 1638h301l55 -376h-193z" />
<glyph unicode="a" horiz-adv-x="833" d="M33 281v63q0 31 6.5 59t16 52t29.5 49t37.5 44.5t50.5 43.5t58.5 41.5t70 44t77 44.5t88.5 48v164q0 32 -9.5 45.5t-35.5 13.5t-35.5 -13.5t-9.5 -45.5v-105h-311v99q0 135 105 219t259 84q153 0 245.5 -82.5t92.5 -220.5v-678q0 -114 39 -250h-244l-12 68 q-28 -42 -80 -65t-119 -23q-146 0 -232.5 80t-86.5 221zM340 287q0 -72 63 -72q64 0 64 72v241q-43 -28 -55.5 -36.5t-35.5 -28.5t-29.5 -38.5t-6.5 -43.5v-94z" />
<glyph unicode="b" horiz-adv-x="872" d="M74 0v1638h301v-483q73 76 192 76q102 0 170 -55.5t68 -149.5v-844q0 -94 -68 -148t-170 -54q-60 0 -115 19.5t-87 53.5l-13 -53h-278zM375 276q0 -30 17.5 -45.5t45.5 -15.5q29 0 47.5 15.5t18.5 45.5v658q0 29 -18.5 44t-47.5 15q-28 0 -45.5 -15t-17.5 -44v-658z" />
<glyph unicode="c" horiz-adv-x="839" d="M61 281v647q0 135 105.5 219t261.5 84q154 0 259.5 -84t105.5 -219v-162h-301v168q0 29 -18 44t-46 15q-29 0 -47.5 -15t-18.5 -44v-658q0 -30 18.5 -45.5t47.5 -15.5q28 0 46 16t18 45v166h301v-161q0 -134 -105.5 -217.5t-259.5 -83.5q-156 0 -261.5 83.5t-105.5 217.5 z" />
<glyph unicode="d" horiz-adv-x="870" d="M68 182v844q0 94 67.5 149.5t169.5 55.5q118 0 191 -76v483h301v-1638h-277l-14 53q-32 -33 -87 -53t-114 -20q-102 0 -169.5 54t-67.5 148zM369 276q0 -30 17.5 -45.5t45.5 -15.5t46 16t18 45v658q0 29 -18 44t-46 15t-45.5 -15t-17.5 -44v-658z" />
<glyph unicode="e" horiz-adv-x="854" d="M61 281v647q0 135 105.5 219t261.5 84q154 0 259.5 -84t105.5 -219v-359h-431v-293q0 -30 18.5 -45.5t47.5 -15.5q28 0 46 16t18 45v166h301v-161q0 -134 -105.5 -217.5t-259.5 -83.5q-156 0 -261.5 83.5t-105.5 217.5zM362 721h130v213q0 29 -18 44t-46 15 q-29 0 -47.5 -15t-18.5 -44v-213z" />
<glyph unicode="f" horiz-adv-x="589" d="M35 985v223h96v164q0 118 83 192t210 74h137v-235h-63q-27 0 -45.5 -18.5t-18.5 -41.5v-135h127v-223h-127v-985h-303v985h-96z" />
<glyph unicode="g" horiz-adv-x="888" d="M45 268q0 73 60.5 117.5t152.5 54.5q-63 14 -104 56.5t-56.5 95t-15.5 115.5v221q0 135 104.5 219t259.5 84q18 0 59.5 -4t49.5 -4q77 0 105 23t28 67h232q8 -36 8 -76q0 -69 -35 -105t-92 -36q-15 0 -51 8q61 -70 61 -176v-215q0 -136 -106 -225t-259 -89h-34 q-52 -23 -52 -80q0 -29 30 -55t61 -26q181 0 284 -71t103 -206v-111q0 -152 -104 -226.5t-288 -74.5q-82 0 -150 18t-121 54t-82.5 94.5t-29.5 134.5v87q0 64 30 113t77 75q-125 40 -125 143zM373 -68v-75q0 -33 23 -53.5t65 -20.5q41 0 64.5 20.5t23.5 53.5v75q0 72 -88 72 q-47 0 -67.5 -18t-20.5 -54zM383 696q0 -29 17.5 -44t45.5 -15t46 15t18 44v248q0 29 -18 44.5t-46 15.5t-45.5 -15.5t-17.5 -44.5v-248z" />
<glyph unicode="h" horiz-adv-x="870" d="M74 0v1638h301v-483q73 76 190 76q102 0 170 -55.5t68 -149.5v-1026h-301v934q0 29 -18 44t-46 15t-45.5 -15t-17.5 -44v-934h-301z" />
<glyph unicode="i" d="M74 0v1208h301v-1208h-301zM74 1366v272h301v-272h-301z" />
<glyph unicode="j" horiz-adv-x="450" d="M-53 -197h63q27 0 45.5 19.5t18.5 42.5v1343h303v-1372q0 -118 -83 -192t-210 -74h-137v233zM74 1366v272h303v-272h-303z" />
<glyph unicode="k" horiz-adv-x="860" d="M74 0v1638h301v-878l145 450h301l-200 -510l227 -700h-301l-137 463l-35 -88v-375h-301z" />
<glyph unicode="l" d="M74 0v1638h301v-1638h-301z" />
<glyph unicode="m" horiz-adv-x="1300" d="M74 0v1208h282l15 -53q33 34 85.5 55t110.5 21q72 0 126.5 -33.5t88.5 -79.5q33 48 90 80.5t123 32.5q102 0 170 -55.5t68 -149.5v-1026h-301v924q0 29 -18 44t-46 15t-45.5 -15t-17.5 -44v-924h-301v934q0 29 -18 44t-46 15q-29 0 -47 -15t-18 -44v-934h-301z" />
<glyph unicode="n" horiz-adv-x="872" d="M74 0v1208h278l13 -53q34 34 89 55t113 21q102 0 170 -55.5t68 -149.5v-1026h-301v934q0 29 -18 44t-46 15q-29 0 -47 -15t-18 -44v-934h-301z" />
<glyph unicode="o" horiz-adv-x="854" d="M61 281v647q0 135 105.5 219t261.5 84q154 0 259.5 -84t105.5 -219v-647q0 -134 -105.5 -217.5t-259.5 -83.5q-156 0 -261.5 83.5t-105.5 217.5zM362 276q0 -30 18.5 -45.5t47.5 -15.5q28 0 46 16t18 45v658q0 29 -18 44t-46 15q-29 0 -47.5 -15t-18.5 -44v-658z" />
<glyph unicode="p" horiz-adv-x="872" d="M74 -428v1638h278l13 -53q32 34 87 54t115 20q102 0 170 -54.5t68 -148.5v-844q0 -94 -68 -149t-170 -55q-120 0 -192 75v-483h-301zM375 276q0 -29 17.5 -44t45.5 -15q29 0 47.5 15t18.5 44v658q0 30 -18.5 45.5t-47.5 15.5q-28 0 -45.5 -15.5t-17.5 -45.5v-658z" />
<glyph unicode="q" horiz-adv-x="870" d="M68 184v844q0 94 67.5 148.5t169.5 54.5q59 0 114 -20t89 -54l12 53h277v-1638h-301v483q-72 -75 -191 -75q-102 0 -169.5 55t-67.5 149zM369 276q0 -29 17.5 -44t45.5 -15q64 0 64 59v658q0 30 -17.5 45.5t-46.5 15.5q-28 0 -45.5 -15.5t-17.5 -45.5v-658z" />
<glyph unicode="r" horiz-adv-x="645" d="M74 0v1208h288l15 -65q36 37 99.5 62.5t144.5 26.5v-269q-56 0 -89.5 -1.5t-67 -8t-51 -19t-28 -34.5t-10.5 -54v-846h-301z" />
<glyph unicode="s" horiz-adv-x="823" d="M49 897q0 91 30 158t82.5 104t115.5 54.5t137 17.5q153 0 251.5 -83.5t98.5 -219.5v-103h-272v103q0 30 -19.5 47.5t-52.5 17.5q-70 0 -70 -84q0 -15 0.5 -27t5 -23.5t6.5 -18.5t12 -18.5t15 -17t21.5 -19t26 -20t34 -25t39.5 -29.5q118 -85 193 -187t75 -213 q0 -66 -23 -124.5t-66.5 -105t-114.5 -74t-160 -27.5q-164 0 -258.5 81.5t-94.5 219.5v104h275v-104q0 -31 19.5 -51.5t52.5 -20.5q34 0 51.5 21t17.5 71q0 27 -2 45.5t-14 39.5t-20.5 33t-40.5 38t-53 41.5t-78 55.5q-4 3 -7 5t-7 5t-7 5q-199 140 -199 328z" />
<glyph unicode="t" horiz-adv-x="675" d="M31 985v223h137v168h301v-168h156v-223h-156v-700q0 -21 18 -35t45 -14h78v-236h-161q-121 0 -201 73t-80 173v739h-137z" />
<glyph unicode="u" horiz-adv-x="870" d="M68 182v1026h301v-932q0 -30 17.5 -45.5t45.5 -15.5t46 16t18 45v932h301v-1208h-271l-14 53q-32 -33 -89.5 -53t-117.5 -20q-102 0 -169.5 54t-67.5 148z" />
<glyph unicode="v" horiz-adv-x="739" d="M-4 1208h280l86 -628l82 628h281l-242 -1208h-243z" />
<glyph unicode="w" horiz-adv-x="1144" d="M6 1208h295l72 -608l96 608h227l99 -608l69 608h295l-258 -1208h-229l-103 569l-102 -569h-231z" />
<glyph unicode="x" horiz-adv-x="821" d="M14 0l236 600l-236 608h314l86 -319l86 319h315l-237 -563l237 -645h-315l-84 338l-88 -338h-314z" />
<glyph unicode="y" horiz-adv-x="786" d="M6 1208h295l98 -661l97 661h295l-318 -1435q-46 -203 -303 -203h-113v235h84q59 0 72 50l51 215z" />
<glyph unicode="z" horiz-adv-x="671" d="M2 0l279 985h-250v223h606l-279 -983h279v-225h-635z" />
<glyph unicode="{" horiz-adv-x="794" d="M94 506v229h101q26 0 44.5 14.5t18.5 34.5v678q0 71 21.5 128.5t56.5 94.5t81.5 61.5t94 35t96.5 10.5h187v-270h-152q-57 0 -57 -78v-645q0 -59 -31 -110t-96 -68q65 -19 96 -70.5t31 -108.5v-659q0 -78 57 -78h152v-268h-187q-49 0 -96.5 10t-94 34.5t-81.5 61 t-56.5 93.5t-21.5 128v693q0 21 -18 35t-45 14h-101z" />
<glyph unicode="|" horiz-adv-x="503" d="M88 0v1638h328v-1638h-328z" />
<glyph unicode="}" horiz-adv-x="794" d="M0 -295h152q57 0 57 78v659q0 57 31 108.5t96 70.5q-65 17 -96 68t-31 110v645q0 78 -57 78h-152v270h186q62 0 121 -17.5t112 -54.5t85.5 -103.5t32.5 -154.5v-678q0 -20 18.5 -34.5t44.5 -14.5h100v-229h-100q-27 0 -45 -14t-18 -35v-693q0 -71 -21.5 -128t-56.5 -93.5 t-82 -61t-94.5 -34.5t-96.5 -10h-186v268z" />
<glyph unicode="~" horiz-adv-x="931" d="M57 668q0 145 75 224t212 79q55 0 102.5 -23.5t86 -47t71.5 -23.5q109 0 109 94h161q0 -145 -74.5 -224t-211.5 -79q-44 0 -84 14.5t-64.5 32.5t-55 32.5t-56.5 14.5q-109 0 -109 -94h-162z" />
<glyph unicode="&#xa1;" horiz-adv-x="491" d="M82 -92l82 688h166l80 -688v-506h-328v506zM96 717v323h301v-323h-301z" />
<glyph unicode="&#xa2;" horiz-adv-x="839" d="M61 281v647q0 106 67 181.5t177 104.5v175h227v-170q116 -27 187.5 -104t71.5 -187v-162h-302v168q0 29 -17.5 44t-45.5 15t-46 -15t-18 -44v-658q0 -29 18 -44t46 -15t45.5 15t17.5 44v166h302v-161q0 -107 -72.5 -184.5t-186.5 -104.5v-158h-227v160q-110 30 -177 106 t-67 181z" />
<glyph unicode="&#xa3;" horiz-adv-x="1202" d="M14 164q0 102 71.5 162.5t201.5 60.5q19 0 55.5 -6.5t56.5 -13.5q3 5 14.5 24t14 23t11.5 20t10.5 22t7.5 20.5t7.5 24t4.5 25t3.5 31t0.5 33.5q0 64 -22 125h-242v217h186q-7 20 -33 74t-38.5 105.5t-12.5 127.5q0 114 44.5 208t137.5 153t220 59q88 0 163 -31 t123.5 -80.5t75.5 -109.5t27 -121v-199h-324v189q0 33 -17 53t-48 20t-47.5 -20.5t-16.5 -52.5q0 -95 14.5 -161.5t39.5 -126t32 -87.5h238v-217h-219q2 -20 2 -66q0 -88 -33.5 -162.5t-116.5 -199.5q90 -54 137 -54q45 0 73 31.5t28 91.5v164h323v-198q0 -147 -98.5 -244.5 t-275.5 -97.5q-84 0 -174.5 33t-131.5 75q-84 -108 -229 -108q-108 0 -176 50.5t-68 133.5zM209 201q0 -17 13 -27t34 -10q44 0 70 41q-23 35 -70 35q-22 0 -34.5 -11t-12.5 -28z" />
<glyph unicode="&#xa5;" horiz-adv-x="958" d="M43 348v240h276v14l-26 80h-250v240h170l-170 510h315l140 -486l123 486h301l-174 -510h174v-240h-258l-27 -80v-14h285v-240h-285v-348h-318v348h-276z" />
<glyph unicode="&#xa7;" horiz-adv-x="825" d="M47 1327q0 73 20.5 131t54.5 95t81.5 61.5t99 34.5t109.5 10q154 0 253 -83t99 -218v-84h-275v84q0 31 -18.5 48t-52.5 17q-70 0 -70 -84q0 -59 162 -157q124 -72 196 -165.5t72 -191.5q0 -76 -30 -143t-89 -113q132 -126 132 -258q0 -66 -23 -124.5t-67 -105t-115 -74 t-160 -27.5q-164 0 -258 81.5t-94 219.5v84h274v-84q0 -31 19.5 -51.5t52.5 -20.5q35 0 52 20.5t17 71.5q0 48 -47 94.5t-182 130.5q-96 60 -147.5 129.5t-51.5 159.5q0 183 123 268q-137 105 -137 244zM362 772q0 -29 20.5 -49.5t49.5 -20.5t49.5 20.5t20.5 49.5v88 q0 29 -20.5 49.5t-49.5 20.5t-49.5 -20.5t-20.5 -49.5v-88z" />
<glyph unicode="&#xa8;" horiz-adv-x="931" d="M72 1315v323h301v-323h-301zM559 1315v323h301v-323h-301z" />
<glyph unicode="&#xa9;" horiz-adv-x="1802" d="M61 819q0 114 30 223.5t84.5 201.5t132 169.5t169.5 131.5t201 84t223 30q171 0 327 -66.5t268 -178.5t178.5 -268t66.5 -327t-66.5 -326t-178.5 -267.5t-268 -179t-327 -66.5t-326.5 66.5t-268 179t-179 267.5t-66.5 326zM209 819q0 -188 92.5 -347.5t252 -252 t347.5 -92.5t347.5 92.5t252 252t92.5 347.5t-92.5 347.5t-252 252t-347.5 92.5t-347.5 -92.5t-252 -252t-92.5 -347.5zM532 819q0 164 114.5 279.5t275.5 115.5q144 0 240.5 -93.5t111.5 -237.5h-244q-7 49 -36 74.5t-62 25.5q-41 0 -71 -41t-30 -123t30 -123t71 -41 q33 0 62 26t36 73h244q-15 -142 -112.5 -236t-239.5 -94q-161 0 -275.5 116t-114.5 279z" />
<glyph unicode="&#xaa;" horiz-adv-x="575" d="M31 1087v39q0 33 13.5 61.5t32.5 50t60 48t76 45.5t100 51v99q0 20 -5.5 27.5t-22.5 7.5t-23 -8t-6 -27v-64h-203v60q0 81 68.5 131.5t167.5 50.5q100 0 160.5 -49.5t60.5 -132.5v-408q0 -65 25 -149h-158l-8 41q-41 -54 -129 -54q-95 0 -152 47.5t-57 132.5zM231 1092 q0 -43 41 -43t41 43v145q-57 -34 -69 -49q-13 -17 -13 -39v-57z" />
<glyph unicode="&#xab;" horiz-adv-x="1118" d="M51 604l187 604h346l-193 -604l193 -604h-346zM537 604l186 604h348l-192 -604l192 -604h-348z" />
<glyph unicode="&#xad;" horiz-adv-x="501" d="M72 614v291h358v-291h-358z" />
<glyph unicode="&#xae;" horiz-adv-x="1802" d="M61 819q0 114 30 223.5t84.5 201.5t132 169.5t169.5 131.5t201 84t223 30q171 0 327 -66.5t268 -178.5t178.5 -268t66.5 -327t-66.5 -326t-178.5 -267.5t-268 -179t-327 -66.5t-326.5 66.5t-268 179t-179 267.5t-66.5 326zM209 819q0 -188 92.5 -347.5t252 -252 t347.5 -92.5t347.5 92.5t252 252t92.5 347.5t-92.5 347.5t-252 252t-347.5 92.5t-347.5 -92.5t-252 -252t-92.5 -347.5zM543 444v752h493q111 0 178.5 -56.5t67.5 -133.5q0 -73 -37.5 -123t-101.5 -68q54 -14 96.5 -58t42.5 -126v-62q0 -53 37 -125h-279q-39 56 -39 117v137 q0 16 -10.5 27.5t-27.5 11.5h-123v-293h-297zM840 879h123q16 0 27 14.5t11 30.5t-11 30.5t-27 14.5h-123v-90z" />
<glyph unicode="&#xaf;" horiz-adv-x="714" d="M55 1419v219h604v-219h-604z" />
<glyph unicode="&#xb0;" horiz-adv-x="745" d="M41 1327q0 138 97 235t235 97t235 -97t97 -235t-97 -235t-235 -97t-235 97t-97 235zM213 1327q0 -65 46.5 -112.5t113.5 -47.5q64 0 111.5 47.5t47.5 112.5t-47.5 112.5t-111.5 47.5q-67 0 -113.5 -47.5t-46.5 -112.5z" />
<glyph unicode="&#xb4;" horiz-adv-x="409" d="M33 1262l53 376h301l-162 -376h-192z" />
<glyph unicode="&#xb6;" horiz-adv-x="1253" d="M45 1151q0 115 32 210t84 154t112.5 91t121.5 32h402v-1638h-219v664h-183q-61 0 -121.5 32t-112.5 91t-84 154t-32 210zM958 0v1638h222v-1638h-222z" />
<glyph unicode="&#xb7;" d="M74 717v323h301v-323h-301z" />
<glyph unicode="&#xb8;" horiz-adv-x="428" d="M76 -199l12 199h119l-8 -96q33 26 69 26q41 0 70 -30t29 -72v-143q0 -62 -42 -106t-104 -44t-103.5 44t-41.5 106v43h121v-39q0 -11 7 -18t17 -7q9 0 17 7.5t8 17.5v108q0 9 -8 17t-17 8q-10 0 -17 -8t-7 -17z" />
<glyph unicode="&#xba;" horiz-adv-x="600" d="M61 1087v390q0 81 69 131.5t171 50.5q101 0 169.5 -50.5t68.5 -131.5v-390q0 -80 -68.5 -130t-169.5 -50q-102 0 -171 50t-69 130zM258 1085q0 -36 43 -36q41 0 41 36v396q0 35 -41 35q-43 0 -43 -35v-396z" />
<glyph unicode="&#xbb;" horiz-adv-x="1118" d="M47 0l193 604l-193 604h348l187 -604l-187 -604h-348zM535 0l192 604l-192 604h346l186 -604l-186 -604h-346z" />
<glyph unicode="&#xbf;" horiz-adv-x="890" d="M41 -240q0 71 22.5 137.5t57 115.5t74 103t74 100.5t57 107t22.5 122.5q0 16 -4.5 38t-8 35.5t-13 42.5t-11.5 34h301q41 -121 41 -176q0 -70 -16.5 -129t-42.5 -101.5t-57.5 -82t-63.5 -79t-58 -82.5t-42.5 -102.5t-16.5 -130.5q0 -35 22 -54t56 -19t57 19t23 54v209 h301v-219q0 -128 -107.5 -224.5t-265.5 -96.5q-193 0 -297 103t-104 275zM291 717v323h301v-323h-301z" />
<glyph unicode="&#xc0;" horiz-adv-x="872" d="M10 0l217 1638h391l222 -1638h-340l-21 256h-147l-31 -256h-291zM180 2150h301l56 -376h-193zM358 547h103l-41 538z" />
<glyph unicode="&#xc1;" horiz-adv-x="872" d="M10 0l217 1638h391l222 -1638h-340l-21 256h-147l-31 -256h-291zM328 1774l53 376h301l-162 -376h-192zM358 547h103l-41 538z" />
<glyph unicode="&#xc2;" horiz-adv-x="872" d="M10 0l217 1638h391l222 -1638h-340l-21 256h-147l-31 -256h-291zM25 1774l258 376h303l258 -376h-248l-162 182l-162 -182h-247zM358 547h103l-41 538z" />
<glyph unicode="&#xc3;" horiz-adv-x="872" d="M10 0l217 1638h391l222 -1638h-340l-21 256h-147l-31 -256h-291zM33 1825q0 145 74.5 224t211.5 79q43 0 83.5 -14.5t65 -32.5t55 -32.5t57.5 -14.5q108 0 108 94h162q0 -145 -75 -224t-212 -79q-44 0 -84 14.5t-64.5 32.5t-55 32.5t-56.5 14.5q-108 0 -108 -94h-162z M358 547h103l-41 538z" />
<glyph unicode="&#xc4;" horiz-adv-x="872" d="M10 0l217 1638h391l222 -1638h-340l-21 256h-147l-31 -256h-291zM41 1827v323h301v-323h-301zM358 547h103l-41 538zM528 1827v323h301v-323h-301z" />
<glyph unicode="&#xc5;" horiz-adv-x="872" d="M10 0l217 1638h138q-62 21 -102 75t-40 122q0 88 60.5 148.5t146.5 60.5t146.5 -60.5t60.5 -148.5q0 -68 -39.5 -122.5t-101.5 -74.5h122l222 -1638h-340l-21 256h-147l-31 -256h-291zM330 1835q0 -40 29.5 -69t70.5 -29q40 0 70 29t30 69q0 41 -30 70.5t-70 29.5 q-41 0 -70.5 -29.5t-29.5 -70.5zM358 547h103l-41 538z" />
<glyph unicode="&#xc6;" horiz-adv-x="1191" d="M10 0l307 1638h828v-270h-318v-373h209v-290h-209v-414h318v-291h-645v256h-156l-43 -256h-291zM389 547h111v651z" />
<glyph unicode="&#xc7;" horiz-adv-x="907" d="M61 301v1036q0 126 117.5 224t278.5 98q160 0 274.5 -97.5t114.5 -224.5v-325h-326v317q0 21 -18 35t-45 14t-45.5 -14t-18.5 -35v-1020q0 -21 18.5 -35t45.5 -14t45 14t18 35v318h326v-326q0 -119 -102 -214t-250 -105l-7 -78q33 26 70 26q41 0 69.5 -30t28.5 -72v-143 q0 -62 -41.5 -106t-103.5 -44t-103.5 44t-41.5 106v43h120v-39q0 -11 7.5 -18t17.5 -7q9 0 17 7.5t8 17.5v108q0 9 -8 17t-17 8q-10 0 -17.5 -8t-7.5 -17l-120 4l10 187q-134 25 -224 114.5t-90 198.5z" />
<glyph unicode="&#xc8;" horiz-adv-x="765" d="M74 0v1638h645v-270h-318v-373h209v-290h-209v-414h318v-291h-645zM168 2150h301l55 -376h-192z" />
<glyph unicode="&#xc9;" horiz-adv-x="765" d="M74 0v1638h645v-270h-318v-373h209v-290h-209v-414h318v-291h-645zM309 1774l53 376h302l-162 -376h-193z" />
<glyph unicode="&#xca;" horiz-adv-x="765" d="M-25 1774l258 376h304l258 -376h-248l-162 182l-162 -182h-248zM74 0v1638h645v-270h-318v-373h209v-290h-209v-414h318v-291h-645z" />
<glyph unicode="&#xcb;" horiz-adv-x="765" d="M-2 1827v323h301v-323h-301zM74 0v1638h645v-270h-318v-373h209v-290h-209v-414h318v-291h-645zM485 1827v323h301v-323h-301z" />
<glyph unicode="&#xcc;" horiz-adv-x="503" d="M-10 2150h301l55 -376h-192zM88 0v1638h328v-1638h-328z" />
<glyph unicode="&#xcd;" horiz-adv-x="503" d="M88 0v1638h328v-1638h-328zM162 1774l53 376h301l-162 -376h-192z" />
<glyph unicode="&#xce;" horiz-adv-x="503" d="M-160 1774l258 376h303l258 -376h-247l-162 182l-162 -182h-248zM88 0v1638h328v-1638h-328z" />
<glyph unicode="&#xcf;" horiz-adv-x="503" d="M-143 1827v323h301v-323h-301zM88 0v1638h328v-1638h-328zM344 1827v323h301v-323h-301z" />
<glyph unicode="&#xd1;" horiz-adv-x="985" d="M74 0v1638h299l264 -847v847h274v-1638h-286l-277 834v-834h-274zM94 1825q0 145 75 224t212 79q55 0 102.5 -23.5t86 -47t71.5 -23.5q109 0 109 94h161q0 -145 -74.5 -224t-211.5 -79q-44 0 -84 14.5t-64.5 32.5t-55 32.5t-56.5 14.5q-109 0 -109 -94h-162z" />
<glyph unicode="&#xd2;" horiz-adv-x="901" d="M61 322v995q0 83 51.5 161.5t142.5 129.5t196 51q79 0 152 -30t124.5 -78.5t82 -110t30.5 -123.5v-995q0 -62 -30.5 -123.5t-82 -110t-124.5 -78.5t-152 -30q-105 0 -196 51t-142.5 129.5t-51.5 161.5zM180 2150h301l56 -376h-193zM387 309q0 -21 18.5 -35t45.5 -14 t45 14t18 35v1020q0 21 -18 35t-45 14t-45.5 -14t-18.5 -35v-1020z" />
<glyph unicode="&#xd3;" horiz-adv-x="901" d="M61 322v995q0 83 51.5 161.5t142.5 129.5t196 51q79 0 152 -30t124.5 -78.5t82 -110t30.5 -123.5v-995q0 -62 -30.5 -123.5t-82 -110t-124.5 -78.5t-152 -30q-105 0 -196 51t-142.5 129.5t-51.5 161.5zM352 1774l54 376h301l-162 -376h-193zM387 309q0 -21 18.5 -35 t45.5 -14t45 14t18 35v1020q0 21 -18 35t-45 14t-45.5 -14t-18.5 -35v-1020z" />
<glyph unicode="&#xd4;" horiz-adv-x="901" d="M43 1774l258 376h303l258 -376h-248l-161 182l-162 -182h-248zM61 322v995q0 83 51.5 161.5t142.5 129.5t196 51q79 0 152 -30t124.5 -78.5t82 -110t30.5 -123.5v-995q0 -62 -30.5 -123.5t-82 -110t-124.5 -78.5t-152 -30q-105 0 -196 51t-142.5 129.5t-51.5 161.5z M387 309q0 -21 18.5 -35t45.5 -14t45 14t18 35v1020q0 21 -18 35t-45 14t-45.5 -14t-18.5 -35v-1020z" />
<glyph unicode="&#xd5;" horiz-adv-x="901" d="M33 1825q0 145 74.5 224t211.5 79q43 0 83.5 -14.5t65 -32.5t55 -32.5t57.5 -14.5q108 0 108 94h162q0 -145 -75 -224t-212 -79q-44 0 -84 14.5t-64.5 32.5t-55 32.5t-56.5 14.5q-108 0 -108 -94h-162zM61 322v995q0 83 51.5 161.5t142.5 129.5t196 51q79 0 152 -30 t124.5 -78.5t82 -110t30.5 -123.5v-995q0 -62 -30.5 -123.5t-82 -110t-124.5 -78.5t-152 -30q-105 0 -196 51t-142.5 129.5t-51.5 161.5zM387 309q0 -21 18.5 -35t45.5 -14t45 14t18 35v1020q0 21 -18 35t-45 14t-45.5 -14t-18.5 -35v-1020z" />
<glyph unicode="&#xd6;" horiz-adv-x="901" d="M59 1827v323h301v-323h-301zM61 322v995q0 83 51.5 161.5t142.5 129.5t196 51q79 0 152 -30t124.5 -78.5t82 -110t30.5 -123.5v-995q0 -62 -30.5 -123.5t-82 -110t-124.5 -78.5t-152 -30q-105 0 -196 51t-142.5 129.5t-51.5 161.5zM387 309q0 -21 18.5 -35t45.5 -14 t45 14t18 35v1020q0 21 -18 35t-45 14t-45.5 -14t-18.5 -35v-1020zM547 1827v323h301v-323h-301z" />
<glyph unicode="&#xd8;" horiz-adv-x="901" d="M41 -61l65 233q-45 73 -45 150v995q0 83 51.5 161.5t142.5 129.5t196 51q102 0 184 -45l22 88h203l-65 -236q45 -73 45 -149v-995q0 -62 -30.5 -123.5t-82 -110t-124.5 -78.5t-152 -30q-97 0 -185 43l-20 -84h-205zM387 309q0 -21 18.5 -35t45.5 -14t45 14t18 35v1020 q0 21 -18 35t-45 14t-45.5 -14t-18.5 -35v-1020z" />
<glyph unicode="&#xd9;" horiz-adv-x="878" d="M68 301v1337h315v-1329q0 -21 18 -35t45 -14t45.5 14t18.5 35v1329h301v-1337q0 -129 -103.5 -225t-261.5 -96q-159 0 -268.5 96.5t-109.5 224.5zM180 2150h301l56 -376h-193z" />
<glyph unicode="&#xda;" horiz-adv-x="878" d="M68 301v1337h315v-1329q0 -21 18 -35t45 -14t45.5 14t18.5 35v1329h301v-1337q0 -129 -103.5 -225t-261.5 -96q-159 0 -268.5 96.5t-109.5 224.5zM346 1774l53 376h301l-161 -376h-193z" />
<glyph unicode="&#xdb;" horiz-adv-x="878" d="M25 1774l258 376h303l258 -376h-248l-162 182l-162 -182h-247zM68 301v1337h315v-1329q0 -21 18 -35t45 -14t45.5 14t18.5 35v1329h301v-1337q0 -129 -103.5 -225t-261.5 -96q-159 0 -268.5 96.5t-109.5 224.5z" />
<glyph unicode="&#xdc;" horiz-adv-x="878" d="M53 1827v323h301v-323h-301zM68 301v1337h315v-1329q0 -21 18 -35t45 -14t45.5 14t18.5 35v1329h301v-1337q0 -129 -103.5 -225t-261.5 -96q-159 0 -268.5 96.5t-109.5 224.5zM541 1827v323h301v-323h-301z" />
<glyph unicode="&#xdf;" horiz-adv-x="892" d="M74 0v1315q0 61 24 121t68 110t115.5 81.5t158.5 31.5q96 0 172.5 -33.5t123 -89t71 -123t24.5 -139.5q0 -92 -43 -176t-106 -115q75 -21 112 -83t37 -148v-441q0 -162 -101 -241.5t-290 -79.5v248q40 0 65 21.5t25 68.5v430q0 45 -25.5 67.5t-64.5 22.5v248 q111 0 111 157q0 77 -24 118.5t-68 41.5q-36 0 -59 -27.5t-23 -68.5v-1317h-303z" />
<glyph unicode="&#xe0;" horiz-adv-x="833" d="M33 281v63q0 31 6.5 59t16 52t29.5 49t37.5 44.5t50.5 43.5t58.5 41.5t70 44t77 44.5t88.5 48v164q0 32 -9.5 45.5t-35.5 13.5t-35.5 -13.5t-9.5 -45.5v-105h-311v99q0 135 105 219t259 84q153 0 245.5 -82.5t92.5 -220.5v-678q0 -114 39 -250h-244l-12 68 q-28 -42 -80 -65t-119 -23q-146 0 -232.5 80t-86.5 221zM180 1741h301l56 -377h-193zM340 287q0 -72 63 -72q64 0 64 72v241q-43 -28 -55.5 -36.5t-35.5 -28.5t-29.5 -38.5t-6.5 -43.5v-94z" />
<glyph unicode="&#xe1;" horiz-adv-x="833" d="M33 281v63q0 31 6.5 59t16 52t29.5 49t37.5 44.5t50.5 43.5t58.5 41.5t70 44t77 44.5t88.5 48v164q0 32 -9.5 45.5t-35.5 13.5t-35.5 -13.5t-9.5 -45.5v-105h-311v99q0 135 105 219t259 84q153 0 245.5 -82.5t92.5 -220.5v-678q0 -114 39 -250h-244l-12 68 q-28 -42 -80 -65t-119 -23q-146 0 -232.5 80t-86.5 221zM328 1364l53 377h301l-162 -377h-192zM340 287q0 -72 63 -72q64 0 64 72v241q-43 -28 -55.5 -36.5t-35.5 -28.5t-29.5 -38.5t-6.5 -43.5v-94z" />
<glyph unicode="&#xe2;" horiz-adv-x="833" d="M12 1364l258 377h303l258 -377h-247l-162 182l-162 -182h-248zM33 281v63q0 31 6.5 59t16 52t29.5 49t37.5 44.5t50.5 43.5t58.5 41.5t70 44t77 44.5t88.5 48v164q0 32 -9.5 45.5t-35.5 13.5t-35.5 -13.5t-9.5 -45.5v-105h-311v99q0 135 105 219t259 84 q153 0 245.5 -82.5t92.5 -220.5v-678q0 -114 39 -250h-244l-12 68q-28 -42 -80 -65t-119 -23q-146 0 -232.5 80t-86.5 221zM340 287q0 -72 63 -72q64 0 64 72v241q-43 -28 -55.5 -36.5t-35.5 -28.5t-29.5 -38.5t-6.5 -43.5v-94z" />
<glyph unicode="&#xe3;" horiz-adv-x="833" d="M14 1415q0 145 75 224t212 79q55 0 102.5 -23.5t86 -47t71.5 -23.5q109 0 109 94h161q0 -145 -74.5 -224t-211.5 -79q-44 0 -84 14.5t-64.5 32.5t-55 32.5t-56.5 14.5q-109 0 -109 -94h-162zM33 281v63q0 31 6.5 59t16 52t29.5 49t37.5 44.5t50.5 43.5t58.5 41.5t70 44 t77 44.5t88.5 48v164q0 32 -9.5 45.5t-35.5 13.5t-35.5 -13.5t-9.5 -45.5v-105h-311v99q0 135 105 219t259 84q153 0 245.5 -82.5t92.5 -220.5v-678q0 -114 39 -250h-244l-12 68q-28 -42 -80 -65t-119 -23q-146 0 -232.5 80t-86.5 221zM340 287q0 -72 63 -72q64 0 64 72v241 q-43 -28 -55.5 -36.5t-35.5 -28.5t-29.5 -38.5t-6.5 -43.5v-94z" />
<glyph unicode="&#xe4;" horiz-adv-x="833" d="M33 281v63q0 31 6.5 59t16 52t29.5 49t37.5 44.5t50.5 43.5t58.5 41.5t70 44t77 44.5t88.5 48v164q0 32 -9.5 45.5t-35.5 13.5t-35.5 -13.5t-9.5 -45.5v-105h-311v99q0 135 105 219t259 84q153 0 245.5 -82.5t92.5 -220.5v-678q0 -114 39 -250h-244l-12 68 q-28 -42 -80 -65t-119 -23q-146 0 -232.5 80t-86.5 221zM41 1417v324h301v-324h-301zM340 287q0 -72 63 -72q64 0 64 72v241q-43 -28 -55.5 -36.5t-35.5 -28.5t-29.5 -38.5t-6.5 -43.5v-94zM528 1417v324h301v-324h-301z" />
<glyph unicode="&#xe5;" horiz-adv-x="833" d="M33 281v63q0 31 6.5 59t16 52t29.5 49t37.5 44.5t50.5 43.5t58.5 41.5t70 44t77 44.5t88.5 48v164q0 32 -9.5 45.5t-35.5 13.5t-35.5 -13.5t-9.5 -45.5v-105h-311v99q0 135 105 219t259 84q153 0 245.5 -82.5t92.5 -220.5v-678q0 -114 39 -250h-244l-12 68 q-28 -42 -80 -65t-119 -23q-146 0 -232.5 80t-86.5 221zM223 1552q0 88 60.5 148.5t146.5 60.5t146.5 -60.5t60.5 -148.5q0 -86 -60.5 -146t-146.5 -60t-146.5 60t-60.5 146zM330 1552q0 -40 29.5 -69t70.5 -29q40 0 70 29t30 69q0 41 -30 71t-70 30q-41 0 -70.5 -30 t-29.5 -71zM340 287q0 -72 63 -72q64 0 64 72v241q-43 -28 -55.5 -36.5t-35.5 -28.5t-29.5 -38.5t-6.5 -43.5v-94z" />
<glyph unicode="&#xe6;" horiz-adv-x="1261" d="M33 281v63q0 39 10.5 74.5t26 64.5t48 60t61.5 54.5t82.5 55.5t94.5 55t113 62v164q0 32 -9.5 45.5t-35.5 13.5t-35.5 -13.5t-9.5 -45.5v-105h-311v99q0 135 105 219t259 84q56 0 112.5 -21t84.5 -51q31 30 90 51t115 21q156 0 261 -84t105 -219v-359h-430v-293 q0 -29 18 -44t46 -15q63 0 63 59v166h303v-161q0 -134 -105 -217.5t-261 -83.5t-261 88q-27 -40 -88.5 -64t-132.5 -24q-146 0 -232.5 80.5t-86.5 220.5zM342 287q0 -70 64 -70q63 0 63 70v241q-43 -28 -55.5 -36.5t-35.5 -28.5t-29.5 -38.5t-6.5 -43.5v-94zM770 721h127 v213q0 59 -63 59q-28 0 -46 -15t-18 -44v-213z" />
<glyph unicode="&#xe7;" horiz-adv-x="839" d="M61 281v647q0 135 105.5 219t261.5 84q154 0 259.5 -84t105.5 -219v-162h-301v168q0 29 -18 44t-46 15q-29 0 -47.5 -15t-18.5 -44v-658q0 -30 18.5 -45.5t47.5 -15.5q28 0 46 16t18 45v166h301v-161q0 -126 -94 -208t-236 -91l-6 -78q33 26 69 26q41 0 70 -30t29 -72 v-143q0 -62 -42 -106t-104 -44t-103.5 44t-41.5 106v43h121v-39q0 -11 7 -18t17 -7q9 0 17 7.5t8 17.5v108q0 9 -8 17t-17 8q-10 0 -17 -8t-7 -17l-121 4l12 185q-127 22 -206 101t-79 194z" />
<glyph unicode="&#xe8;" horiz-adv-x="854" d="M61 281v647q0 135 105.5 219t261.5 84q154 0 259.5 -84t105.5 -219v-359h-431v-293q0 -30 18.5 -45.5t47.5 -15.5q28 0 46 16t18 45v166h301v-161q0 -134 -105.5 -217.5t-259.5 -83.5q-156 0 -261.5 83.5t-105.5 217.5zM180 1741h301l56 -377h-193zM362 721h130v213 q0 29 -18 44t-46 15q-29 0 -47.5 -15t-18.5 -44v-213z" />
<glyph unicode="&#xe9;" horiz-adv-x="854" d="M61 281v647q0 135 105.5 219t261.5 84q154 0 259.5 -84t105.5 -219v-359h-431v-293q0 -30 18.5 -45.5t47.5 -15.5q28 0 46 16t18 45v166h301v-161q0 -134 -105.5 -217.5t-259.5 -83.5q-156 0 -261.5 83.5t-105.5 217.5zM328 1364l53 377h301l-162 -377h-192zM362 721h130 v213q0 29 -18 44t-46 15q-29 0 -47.5 -15t-18.5 -44v-213z" />
<glyph unicode="&#xea;" horiz-adv-x="854" d="M18 1364l258 377h304l258 -377h-248l-162 182l-162 -182h-248zM61 281v647q0 135 105.5 219t261.5 84q154 0 259.5 -84t105.5 -219v-359h-431v-293q0 -30 18.5 -45.5t47.5 -15.5q28 0 46 16t18 45v166h301v-161q0 -134 -105.5 -217.5t-259.5 -83.5q-156 0 -261.5 83.5 t-105.5 217.5zM362 721h130v213q0 29 -18 44t-46 15q-29 0 -47.5 -15t-18.5 -44v-213z" />
<glyph unicode="&#xeb;" horiz-adv-x="854" d="M47 1417v324h301v-324h-301zM61 281v647q0 135 105.5 219t261.5 84q154 0 259.5 -84t105.5 -219v-359h-431v-293q0 -30 18.5 -45.5t47.5 -15.5q28 0 46 16t18 45v166h301v-161q0 -134 -105.5 -217.5t-259.5 -83.5q-156 0 -261.5 83.5t-105.5 217.5zM362 721h130v213 q0 29 -18 44t-46 15q-29 0 -47.5 -15t-18.5 -44v-213zM535 1417v324h301v-324h-301z" />
<glyph unicode="&#xec;" d="M-35 1741h301l56 -377h-193zM74 0v1208h301v-1208h-301z" />
<glyph unicode="&#xed;" d="M74 0v1208h301v-1208h-301zM125 1364l53 377h301l-162 -377h-192z" />
<glyph unicode="&#xee;" d="M-190 1364l258 377h303l258 -377h-248l-162 182l-162 -182h-247zM74 0v1208h301v-1208h-301z" />
<glyph unicode="&#xef;" d="M-168 1417v324h301v-324h-301zM74 0v1208h301v-1208h-301zM319 1417v324h302v-324h-302z" />
<glyph unicode="&#xf1;" horiz-adv-x="872" d="M51 1415q0 145 75 224t212 79q55 0 102.5 -23.5t86 -47t71.5 -23.5q109 0 109 94h161q0 -145 -74.5 -224t-211.5 -79q-44 0 -84 14.5t-64.5 32.5t-55 32.5t-56.5 14.5q-109 0 -109 -94h-162zM74 0v1208h278l13 -53q34 34 89 55t113 21q102 0 170 -55.5t68 -149.5v-1026 h-301v934q0 29 -18 44t-46 15q-29 0 -47 -15t-18 -44v-934h-301z" />
<glyph unicode="&#xf2;" horiz-adv-x="854" d="M61 281v647q0 135 105.5 219t261.5 84q154 0 259.5 -84t105.5 -219v-647q0 -134 -105.5 -217.5t-259.5 -83.5q-156 0 -261.5 83.5t-105.5 217.5zM168 1741h301l55 -377h-192zM362 276q0 -30 18.5 -45.5t47.5 -15.5q28 0 46 16t18 45v658q0 29 -18 44t-46 15 q-29 0 -47.5 -15t-18.5 -44v-658z" />
<glyph unicode="&#xf3;" horiz-adv-x="854" d="M61 281v647q0 135 105.5 219t261.5 84q154 0 259.5 -84t105.5 -219v-647q0 -134 -105.5 -217.5t-259.5 -83.5q-156 0 -261.5 83.5t-105.5 217.5zM340 1364l53 377h301l-162 -377h-192zM362 276q0 -30 18.5 -45.5t47.5 -15.5q28 0 46 16t18 45v658q0 29 -18 44t-46 15 q-29 0 -47.5 -15t-18.5 -44v-658z" />
<glyph unicode="&#xf4;" horiz-adv-x="854" d="M12 1364l258 377h303l258 -377h-247l-162 182l-162 -182h-248zM61 281v647q0 135 105.5 219t261.5 84q154 0 259.5 -84t105.5 -219v-647q0 -134 -105.5 -217.5t-259.5 -83.5q-156 0 -261.5 83.5t-105.5 217.5zM362 276q0 -30 18.5 -45.5t47.5 -15.5q28 0 46 16t18 45v658 q0 29 -18 44t-46 15q-29 0 -47.5 -15t-18.5 -44v-658z" />
<glyph unicode="&#xf5;" horiz-adv-x="854" d="M33 1415q0 145 74.5 224t211.5 79q43 0 83.5 -14.5t65 -32.5t55 -32.5t57.5 -14.5q108 0 108 94h162q0 -145 -75 -224t-212 -79q-44 0 -84 14.5t-64.5 32.5t-55 32.5t-56.5 14.5q-108 0 -108 -94h-162zM61 281v647q0 135 105.5 219t261.5 84q154 0 259.5 -84t105.5 -219 v-647q0 -134 -105.5 -217.5t-259.5 -83.5q-156 0 -261.5 83.5t-105.5 217.5zM362 276q0 -30 18.5 -45.5t47.5 -15.5q28 0 46 16t18 45v658q0 29 -18 44t-46 15q-29 0 -47.5 -15t-18.5 -44v-658z" />
<glyph unicode="&#xf6;" horiz-adv-x="854" d="M41 1417v324h301v-324h-301zM61 281v647q0 135 105.5 219t261.5 84q154 0 259.5 -84t105.5 -219v-647q0 -134 -105.5 -217.5t-259.5 -83.5q-156 0 -261.5 83.5t-105.5 217.5zM362 276q0 -30 18.5 -45.5t47.5 -15.5q28 0 46 16t18 45v658q0 29 -18 44t-46 15 q-29 0 -47.5 -15t-18.5 -44v-658zM528 1417v324h301v-324h-301z" />
<glyph unicode="&#xf8;" horiz-adv-x="854" d="M39 -61l57 206q-35 62 -35 136v647q0 135 105.5 219t261.5 84q83 0 162 -29l18 70h205l-57 -205q37 -61 37 -139v-647q0 -134 -105.5 -217.5t-259.5 -83.5q-92 0 -168 30l-18 -71h-203zM362 276q0 -30 18.5 -45.5t47.5 -15.5q28 0 46 16t18 45v658q0 29 -18 44t-46 15 q-29 0 -47.5 -15t-18.5 -44v-658z" />
<glyph unicode="&#xf9;" horiz-adv-x="870" d="M68 182v1026h301v-932q0 -30 17.5 -45.5t45.5 -15.5t46 16t18 45v932h301v-1208h-271l-14 53q-32 -33 -89.5 -53t-117.5 -20q-102 0 -169.5 54t-67.5 148zM180 1741h301l56 -377h-193z" />
<glyph unicode="&#xfa;" horiz-adv-x="870" d="M68 182v1026h301v-932q0 -30 17.5 -45.5t45.5 -15.5t46 16t18 45v932h301v-1208h-271l-14 53q-32 -33 -89.5 -53t-117.5 -20q-102 0 -169.5 54t-67.5 148zM346 1364l53 377h301l-161 -377h-193z" />
<glyph unicode="&#xfb;" horiz-adv-x="870" d="M31 1364l258 377h303l258 -377h-248l-162 182l-161 -182h-248zM68 182v1026h301v-932q0 -30 17.5 -45.5t45.5 -15.5t46 16t18 45v932h301v-1208h-271l-14 53q-32 -33 -89.5 -53t-117.5 -20q-102 0 -169.5 54t-67.5 148z" />
<glyph unicode="&#xfc;" horiz-adv-x="870" d="M41 1417v324h301v-324h-301zM68 182v1026h301v-932q0 -30 17.5 -45.5t45.5 -15.5t46 16t18 45v932h301v-1208h-271l-14 53q-32 -33 -89.5 -53t-117.5 -20q-102 0 -169.5 54t-67.5 148zM528 1417v324h301v-324h-301z" />
<glyph unicode="&#xff;" horiz-adv-x="786" d="M4 1417v324h301v-324h-301zM6 1208h295l98 -661l97 661h295l-318 -1435q-46 -203 -303 -203h-113v235h84q59 0 72 50l51 215zM492 1417v324h301v-324h-301z" />
<glyph unicode="&#x152;" horiz-adv-x="1212" d="M61 299v1040q0 75 33.5 134.5t87.5 94t115 52.5t123 18h745v-270h-317v-373h209v-290h-209v-414h317v-291h-745q-49 0 -98 11t-96.5 35t-84 58t-58.5 84.5t-22 110.5zM389 354q0 -65 57 -65h74v1059h-74q-57 0 -57 -66v-928z" />
<glyph unicode="&#x153;" horiz-adv-x="1282" d="M61 281v647q0 135 105.5 219t259.5 84q126 0 215 -76q89 76 215 76q154 0 259.5 -84t105.5 -219v-359h-428v-293q0 -29 17.5 -44t45.5 -15t46 15t18 44v166h301v-161q0 -134 -105.5 -217.5t-259.5 -83.5q-62 0 -121.5 19.5t-93.5 53.5q-34 -34 -93.5 -53.5t-121.5 -19.5 q-154 0 -259.5 83.5t-105.5 217.5zM362 276q0 -29 18 -44t46 -15q29 0 47.5 15t18.5 44v658q0 29 -18.5 44t-47.5 15q-28 0 -46 -15t-18 -44v-658zM793 721h127v213q0 29 -18 44t-46 15t-45.5 -15t-17.5 -44v-213z" />
<glyph unicode="&#x178;" horiz-adv-x="882" d="M20 1638h314l125 -546l112 546h301l-272 -931v-707h-317v707zM53 1827v323h301v-323h-301zM541 1827v323h301v-323h-301z" />
<glyph unicode="&#x2c6;" horiz-adv-x="884" d="M37 1262l258 376h303l258 -376h-248l-162 182l-161 -182h-248z" />
<glyph unicode="&#x2dc;" horiz-adv-x="931" d="M57 1356q0 145 75 224t212 79q55 0 102.5 -23.5t86 -47t71.5 -23.5q109 0 109 94h161q0 -145 -74.5 -224t-211.5 -79q-44 0 -84 14.5t-64.5 32.5t-55 32.5t-56.5 14.5q-109 0 -109 -94h-162z" />
<glyph unicode="&#x2000;" horiz-adv-x="1075" />
<glyph unicode="&#x2001;" horiz-adv-x="2150" />
<glyph unicode="&#x2002;" horiz-adv-x="1075" />
<glyph unicode="&#x2003;" horiz-adv-x="2150" />
<glyph unicode="&#x2004;" horiz-adv-x="716" />
<glyph unicode="&#x2005;" horiz-adv-x="537" />
<glyph unicode="&#x2006;" horiz-adv-x="358" />
<glyph unicode="&#x2007;" horiz-adv-x="358" />
<glyph unicode="&#x2008;" horiz-adv-x="268" />
<glyph unicode="&#x2009;" horiz-adv-x="430" />
<glyph unicode="&#x200a;" horiz-adv-x="119" />
<glyph unicode="&#x2010;" horiz-adv-x="501" d="M72 614v291h358v-291h-358z" />
<glyph unicode="&#x2011;" horiz-adv-x="501" d="M72 614v291h358v-291h-358z" />
<glyph unicode="&#x2012;" horiz-adv-x="501" d="M72 614v291h358v-291h-358z" />
<glyph unicode="&#x2013;" horiz-adv-x="1167" d="M72 614v291h1024v-291h-1024z" />
<glyph unicode="&#x2014;" horiz-adv-x="2191" d="M72 614v291h2048v-291h-2048z" />
<glyph unicode="&#x2018;" d="M74 1130v324l223 205h92l-129 -205h115v-324h-301z" />
<glyph unicode="&#x2019;" d="M59 1110l129 205h-114v323h301v-323l-223 -205h-93z" />
<glyph unicode="&#x201a;" d="M59 -205l129 205h-114v324h301v-324l-225 -205h-91z" />
<glyph unicode="&#x201c;" horiz-adv-x="839" d="M74 1130v324l223 205h92l-129 -205h115v-324h-301zM465 1130v324l225 205h90l-129 -205h115v-324h-301z" />
<glyph unicode="&#x201d;" horiz-adv-x="839" d="M59 1110l129 205h-114v323h301v-323l-223 -205h-93zM451 1110l131 205h-117v323h301v-323l-223 -205h-92z" />
<glyph unicode="&#x201e;" horiz-adv-x="839" d="M59 -205l129 205h-114v324h301v-324l-223 -205h-93zM451 -205l131 205h-117v324h301v-324l-223 -205h-92z" />
<glyph unicode="&#x2022;" horiz-adv-x="518" d="M31 819q0 95 67 161.5t162 66.5q94 0 160.5 -66.5t66.5 -161.5q0 -94 -66.5 -160.5t-160.5 -66.5q-95 0 -162 66.5t-67 160.5z" />
<glyph unicode="&#x2026;" horiz-adv-x="1447" d="M74 0v324h301v-324h-301zM573 0v324h301v-324h-301zM1073 0v324h301v-324h-301z" />
<glyph unicode="&#x202f;" horiz-adv-x="430" />
<glyph unicode="&#x2039;" horiz-adv-x="630" d="M51 604l187 604h346l-193 -604l193 -604h-346z" />
<glyph unicode="&#x203a;" horiz-adv-x="632" d="M47 0l193 604l-193 604h348l187 -604l-187 -604h-348z" />
<glyph unicode="&#x205f;" horiz-adv-x="537" />
<glyph unicode="&#x2122;" horiz-adv-x="2080" d="M55 1401v237h793v-237h-242v-551h-311v551h-240zM948 850v788h434l99 -346l100 346h444v-788h-311v502l-133 -502h-238l-151 502v-502h-244z" />
<glyph unicode="&#x25fc;" horiz-adv-x="1208" d="M0 0v1208h1208v-1208h-1208z" />
<glyph unicode="&#xfb01;" horiz-adv-x="1038" d="M35 985v223h96v164q0 118 83 192t210 74h137v-235h-63q-27 0 -45.5 -18.5t-18.5 -41.5v-135h127v-223h-127v-985h-303v985h-96zM664 0v1208h301v-1208h-301zM664 1366v272h301v-272h-301z" />
<glyph unicode="&#xfb02;" horiz-adv-x="1038" d="M35 985v223h96v164q0 118 83 192t210 74h137v-235h-63q-27 0 -45.5 -18.5t-18.5 -41.5v-135h127v-223h-127v-985h-303v985h-96zM664 0v1638h301v-1638h-301z" />
</font>
</defs>
</svg>
