<?xml version="1.0" standalone="no"?>
<!DOCTYPE svg PUBLIC "-//W3C//DTD SVG 1.1//EN" "http://www.w3.org/Graphics/SVG/1.1/DTD/svg11.dtd" >
<svg xmlns="http://www.w3.org/2000/svg">
<metadata></metadata>
<defs>
<font id="champion_htf-middleweightRg" horiz-adv-x="1191" >
<font-face units-per-em="2048" ascent="1638" descent="-410" />
<missing-glyph horiz-adv-x="399" />
<glyph horiz-adv-x="2048" />
<glyph horiz-adv-x="2048" />
<glyph unicode="&#xd;" horiz-adv-x="2048" />
<glyph unicode=" "  horiz-adv-x="399" />
<glyph unicode="&#x09;" horiz-adv-x="399" />
<glyph unicode="&#xa0;" horiz-adv-x="399" />
<glyph unicode="!" horiz-adv-x="598" d="M82 1133v505h434v-505l-98 -646h-238zM98 0v375h396v-375h-396z" />
<glyph unicode="&#x22;" horiz-adv-x="1038" d="M53 1057l185 207h-164v374h395v-374l-285 -207h-131zM549 1057l186 207h-166v374h396v-374l-285 -207h-131z" />
<glyph unicode="#" horiz-adv-x="1603" d="M41 342v322h221l49 311h-172v323h219l54 340h405l-53 -340h219l53 340h406l-51 -340h172v-323h-222l-49 -311h172v-322h-219l-53 -342h-406l52 342h-220l-51 -342h-405l53 342h-174zM668 664h219l47 311h-217z" />
<glyph unicode="$" horiz-adv-x="1128" d="M41 362v189h385v-143q0 -47 35.5 -77t97.5 -30q123 0 123 107q0 20 -4 38.5t-8 33.5t-17 32t-21.5 28t-30.5 29t-35 28t-45 31t-49 32t-59 37t-65 40q-149 95 -222 225.5t-73 276.5q0 149 102 269t287 157v150h277v-148q163 -34 262.5 -142.5t99.5 -250.5v-166h-385v135 q0 41 -30.5 67.5t-73.5 26.5q-46 0 -81.5 -26.5t-35.5 -71.5q0 -40 4 -68t18 -54t29.5 -43.5t50 -41t66.5 -42t92 -51.5q6 -3 10 -5.5t10 -5.5t11 -6q159 -86 248.5 -228t89.5 -297q0 -156 -111.5 -279t-306.5 -153v-147h-274v153q-176 34 -273.5 135.5t-97.5 255.5z" />
<glyph unicode="%" horiz-adv-x="2183" d="M61 944v414q0 88 60 158t152.5 106.5t195.5 36.5q102 0 194 -36.5t151.5 -107t59.5 -157.5v-414q0 -87 -59.5 -157.5t-151.5 -107t-194 -36.5q-103 0 -195.5 36.5t-152.5 106.5t-60 158zM406 938q0 -29 17.5 -44t45.5 -15t45.5 15t17.5 44v426q0 29 -17.5 44t-45.5 15 t-45.5 -15t-17.5 -44v-426zM467 0l893 1638h356l-893 -1638h-356zM1309 281v413q0 88 60 158t152 106.5t195 36.5q102 0 194 -36.5t152 -107t60 -157.5v-413q0 -87 -60 -157.5t-152 -107t-194 -36.5q-103 0 -195 36.5t-152 106.5t-60 158zM1651 276q0 -29 18 -44t47 -15 q28 0 46 15t18 44v424q0 29 -18 44.5t-46 15.5q-29 0 -47 -15t-18 -45v-424z" />
<glyph unicode="&#x26;" horiz-adv-x="1873" d="M29 414q0 84 30 156.5t87 130t124.5 101.5t155.5 85q-78 106 -112.5 186.5t-34.5 179.5q0 127 75.5 225.5t200.5 149.5t276 51q231 0 389 -121.5t158 -285.5q0 -100 -37.5 -175.5t-132 -147t-260.5 -144.5q77 -134 131 -184q68 41 96.5 88t28.5 116h398q0 -72 -11.5 -126 t-41.5 -110.5t-87 -109.5t-145 -108q17 -26 37 -37.5t63 -11.5q50 0 77.5 24.5t27.5 69.5v71h319v-165q0 -166 -115 -264.5t-307 -98.5q-207 0 -389 160q-75 -72 -184 -116t-234 -44q-162 0 -294.5 56.5t-210.5 161t-78 237.5zM457 449q0 -49 45 -88t123 -39q81 0 143 51 q-93 95 -174 235q-75 -38 -97 -58q-40 -38 -40 -101zM715 1223q0 -43 17 -80t61 -92q94 48 125.5 90.5t31.5 91.5q0 38 -33 64t-81 26q-55 0 -88 -28.5t-33 -71.5z" />
<glyph unicode="'" horiz-adv-x="542" d="M53 1057l185 207h-164v374h395v-374l-285 -207h-131z" />
<glyph unicode="(" horiz-adv-x="888" d="M61 612q0 187 56.5 366t157.5 329.5t238.5 274.5t301.5 210l74 -82q-190 -159 -296 -450t-106 -648q0 -354 106 -644t296 -449l-74 -82q-164 86 -301 209.5t-238.5 273t-158 327.5t-56.5 365z" />
<glyph unicode=")" horiz-adv-x="888" d="M0 -481q190 159 295.5 448.5t105.5 644.5q0 358 -105.5 648.5t-295.5 449.5l74 82q219 -116 387.5 -293t267 -408t98.5 -479q0 -187 -56.5 -365t-157.5 -327.5t-238 -273t-301 -209.5z" />
<glyph unicode="*" horiz-adv-x="1087" d="M49 1044l123 72l125 39l-125 39l-123 72l152 262l123 -70l96 -88l-29 127v141h303v-141l-26 -127l96 88l123 70l151 -262l-123 -70l-124 -41l124 -39l123 -72l-151 -262l-123 72l-96 86l28 -127v-141h-303v141l27 129l-96 -88l-123 -72z" />
<glyph unicode="+" horiz-adv-x="1083" d="M74 614v334h301v301h334v-301h301v-334h-301v-301h-334v301h-301z" />
<glyph unicode="," horiz-adv-x="544" d="M53 -205l187 205h-166v375h397v-375l-287 -205h-131z" />
<glyph unicode="-" horiz-adv-x="739" d="M74 614v334h592v-334h-592z" />
<glyph unicode="." horiz-adv-x="542" d="M74 0v375h395v-375h-395z" />
<glyph unicode="/" horiz-adv-x="1040" d="M70 0l565 1638h440l-565 -1638h-440z" />
<glyph unicode="0" horiz-adv-x="1208" d="M61 365v909q0 110 70 203t195.5 147.5t277.5 54.5t277.5 -54.5t195.5 -147.5t70 -203v-909q0 -169 -156 -287.5t-387 -118.5t-387 118.5t-156 287.5zM512 391q0 -31 26.5 -50t65.5 -19t65.5 19t26.5 50v856q0 32 -26.5 51t-65.5 19t-65.5 -19t-26.5 -51v-856z" />
<glyph unicode="1" horiz-adv-x="995" d="M98 1124v273q141 17 232 80t116 161h328v-1638h-434v1124h-242z" />
<glyph unicode="2" horiz-adv-x="1185" d="M43 0q0 201 87 408t253 387q53 58 113.5 115t93.5 87t63.5 65t43 69t12.5 79q0 48 -31 77.5t-78 29.5q-46 0 -72 -28.5t-26 -78.5v-133h-434v197q0 64 38 134.5t102.5 131t164.5 100t211 39.5q136 0 243 -36.5t173 -100t100.5 -146t34.5 -177.5q0 -34 -5 -66.5 t-17.5 -64.5t-24.5 -58.5t-35 -59.5t-40 -55t-48.5 -57.5t-50.5 -56t-57 -60.5t-58 -61q-103 -111 -147 -173.5t-89 -152.5h527v-354h-1047z" />
<glyph unicode="3" horiz-adv-x="1171" d="M45 344v148h444v-101q0 -22 28.5 -45.5t64.5 -23.5t64 23.5t28 45.5v238q0 21 -19.5 35t-56.5 14h-221v303h221q37 0 56.5 14t19.5 35v217q0 22 -28 46t-64 24t-64.5 -24t-28.5 -46v-100h-444v149q0 62 41 129.5t110 124t171.5 93t214.5 36.5t214.5 -36.5t171 -93 t109.5 -123.5t41 -130v-233q0 -28 -10.5 -62.5t-30.5 -70.5t-57.5 -64t-85.5 -37q62 -12 106.5 -58t61 -92t16.5 -85v-250q0 -63 -41 -131t-110 -124.5t-171 -93t-214 -36.5t-214.5 36.5t-171.5 93t-110 124.5t-41 131z" />
<glyph unicode="4" horiz-adv-x="1179" d="M35 246v274l637 1118h334v-1085h139v-307h-139v-246h-383v246h-588zM455 553h168v330z" />
<glyph unicode="5" horiz-adv-x="1200" d="M61 358v103h445v-70q0 -22 28 -45.5t64 -23.5q35 0 62.5 23.5t27.5 45.5v328q0 34 -31 59t-69 25q-39 0 -71 -26t-32 -58l-424 45l74 874h963q0 -81 -25.5 -157t-71 -125t-98.5 -49h-401l-21 -263q49 34 122.5 52t150.5 18q157 0 268 -89.5t111 -211.5v-455 q0 -102 -73 -193.5t-202 -148.5t-280 -57q-113 0 -212 35t-164.5 92t-103 128t-37.5 144z" />
<glyph unicode="6" horiz-adv-x="1193" d="M61 358v924q0 74 40.5 145.5t110 127t170.5 90t214 34.5q114 0 215.5 -34.5t171 -90t110 -127t40.5 -145.5v-94h-445v59q0 22 -28 46t-64 24q-35 0 -62.5 -24t-27.5 -46v-278q109 61 268 61q156 0 257.5 -85.5t101.5 -209.5v-377q0 -76 -40.5 -148.5t-110 -128t-171 -89 t-215.5 -33.5q-113 0 -214 34.5t-170.5 90.5t-110 128t-40.5 146zM506 391q0 -22 27.5 -45.5t62.5 -23.5q36 0 64 23.5t28 45.5v258q0 22 -28 46t-64 24q-35 0 -62.5 -24t-27.5 -46v-258z" />
<glyph unicode="7" horiz-adv-x="1110" d="M68 1307v331h1019l-534 -1638h-451l441 1307h-475z" />
<glyph unicode="8" horiz-adv-x="1196" d="M61 344v209q0 89 58 173t153 103q-95 18 -153 102t-58 173v192q0 62 41 129.5t110 124t171.5 93t214.5 36.5t214.5 -36.5t171.5 -93t110 -124t41 -129.5v-192q0 -89 -58 -173t-153 -102q95 -19 153 -103t58 -173v-209q0 -63 -41 -131t-110 -124.5t-171.5 -93 t-214.5 -36.5t-214.5 36.5t-171.5 93t-110 124.5t-41 131zM506 391q0 -22 28 -45.5t64 -23.5t64 23.5t28 45.5v219q0 22 -28 46t-64 24t-64 -24t-28 -46v-219zM506 1049q0 -22 28 -46t64 -24t64 24t28 46v198q0 22 -28 46t-64 24t-64 -24t-28 -46v-198z" />
<glyph unicode="9" horiz-adv-x="1193" d="M61 356v95h445v-60q0 -22 28 -45.5t64 -23.5q35 0 62.5 23.5t27.5 45.5v279q-50 -28 -122.5 -45t-145.5 -17q-156 0 -257.5 85.5t-101.5 209.5v377q0 76 40.5 148.5t110 128t171 89t215.5 33.5q113 0 214 -34.5t170.5 -90.5t110 -128t40.5 -146v-924q0 -74 -40.5 -145.5 t-110 -127t-170.5 -90t-214 -34.5q-114 0 -215.5 34.5t-171 90t-110 127t-40.5 145.5zM506 989q0 -22 28 -45.5t64 -23.5q35 0 62.5 23.5t27.5 45.5v258q0 22 -27.5 46t-62.5 24q-36 0 -64 -24t-28 -46v-258z" />
<glyph unicode=":" horiz-adv-x="532" d="M74 0v375h397v-375h-397zM74 696v375h397v-375h-397z" />
<glyph unicode=";" horiz-adv-x="542" d="M53 -205l185 205h-164v375h395v-375l-285 -205h-131zM74 696v375h397v-375h-397z" />
<glyph unicode="&#x3c;" horiz-adv-x="1007" d="M53 770l565 709l336 -191l-405 -518l405 -516l-336 -191z" />
<glyph unicode="=" horiz-adv-x="1081" d="M72 367v333h936v-333h-936zM72 866v332h936v-332h-936z" />
<glyph unicode="&#x3e;" horiz-adv-x="1007" d="M53 254l406 516l-406 518l336 191l565 -709l-565 -707z" />
<glyph unicode="?" horiz-adv-x="1118" d="M33 1139v125q0 73 36.5 146.5t100 133.5t161.5 97.5t210 37.5q129 0 235.5 -38t172.5 -99t102 -134t36 -148q0 -67 -23.5 -127t-61.5 -105t-83.5 -86t-91 -78.5t-83.5 -74.5t-61.5 -82t-23.5 -93q0 -59 52 -127h-437q-59 76 -59 154q0 63 25 123.5t64.5 108.5t87.5 93 t96.5 83t88 71t64.5 65t25 58q0 37 -34 65.5t-79 28.5q-46 0 -81.5 -28.5t-35.5 -65.5v-104h-403zM303 0v375h397v-375h-397z" />
<glyph unicode="@" horiz-adv-x="1826" d="M61 819q0 183 69.5 344t188 273.5t280 177.5t341.5 65q170 0 323.5 -58t263 -156.5t174 -233t64.5 -281.5q0 -166 -60.5 -296.5t-180.5 -208.5t-283 -78q-226 0 -272 135q-33 -55 -102.5 -87t-127.5 -32q-83 0 -133 54t-37 130l74 477q12 77 80 132t151 55q48 0 88 -20.5 t62 -55.5l10 55h254l-80 -491q-10 -67 15.5 -106.5t76.5 -39.5q97 0 148 102t51 271q0 102 -38.5 191.5t-108.5 155.5t-176.5 104.5t-235.5 38.5q-268 0 -430 -165t-162 -452q0 -291 160 -453.5t432 -162.5q220 0 385 96l131 -178q-227 -162 -516 -162q-180 0 -341.5 65 t-280 177.5t-188 273.5t-69.5 344zM836 641q-3 -22 10 -36.5t35 -14.5q23 0 41.5 14.5t21.5 36.5l51 332q3 20 -10.5 34.5t-36.5 14.5q-22 0 -40 -14.5t-21 -34.5z" />
<glyph unicode="A" horiz-adv-x="1112" d="M0 0l291 1638h526l295 -1638h-455l-22 215h-211l-33 -215h-391zM473 567h125l-57 518z" />
<glyph unicode="B" horiz-adv-x="1171" d="M74 0v1638h647q166 0 277.5 -85t111.5 -234v-272q0 -62 -44.5 -122t-125.5 -91q81 -31 125.5 -90t44.5 -121v-304q0 -149 -111.5 -234t-277.5 -85h-647zM514 330h109q75 0 75 65v203q0 64 -75 64h-109v-332zM514 975h109q75 0 75 63v203q0 66 -75 66h-109v-332z" />
<glyph unicode="C" horiz-adv-x="1224" d="M61 344v950q0 63 41.5 131t113 124.5t179 93t226.5 36.5q120 0 225.5 -36.5t174.5 -93t108.5 -124t39.5 -131.5v-272h-448v225q0 31 -29.5 50.5t-70.5 19.5t-70 -19.5t-29 -50.5v-856q0 -31 29 -50t70 -19t70.5 19t29.5 50v225h448v-272q0 -64 -39.5 -131.5t-108.5 -124 t-174.5 -93t-225.5 -36.5q-119 0 -226.5 36.5t-179 93t-113 124.5t-41.5 131z" />
<glyph unicode="D" horiz-adv-x="1148" d="M74 0v1638h622q163 0 277 -94.5t114 -245.5v-958q0 -151 -114 -245.5t-277 -94.5h-622zM514 330h84q76 0 76 65v846q0 66 -76 66h-84v-977z" />
<glyph unicode="E" horiz-adv-x="991" d="M74 0v1638h866v-321h-426v-322h281v-311h-281v-340h426v-344h-866z" />
<glyph unicode="F" horiz-adv-x="968" d="M74 0v1638h866v-321h-426v-342h317v-324h-317v-651h-440z" />
<glyph unicode="G" horiz-adv-x="1239" d="M61 344v950q0 64 41.5 131.5t112.5 124t178.5 93t227.5 36.5q119 0 225 -36.5t175.5 -93t109.5 -124t40 -131.5v-272h-454v225q0 32 -27 51t-69 19q-41 0 -70 -19.5t-29 -50.5v-846q0 -33 30 -56t81 -23q54 0 82 22.5t28 56.5v162h-122v258h563v-821h-256l-49 90 q-32 -45 -129 -88t-187 -43q-115 0 -212 34t-159 89.5t-96.5 123.5t-34.5 138z" />
<glyph unicode="H" horiz-adv-x="1288" d="M74 0v1638h440v-663h260v663h440v-1638h-440v600h-260v-600h-440z" />
<glyph unicode="I" horiz-adv-x="604" d="M82 0v1638h440v-1638h-440z" />
<glyph unicode="J" horiz-adv-x="1071" d="M41 344v303h393v-256q0 -31 25 -50t61 -19t61 19t25 50v1247h404v-1294q0 -63 -36.5 -131t-98.5 -124.5t-156 -93t-199 -36.5q-104 0 -196.5 36.5t-153 93t-95 124t-34.5 131.5z" />
<glyph unicode="K" horiz-adv-x="1222" d="M74 0v1638h440v-665l236 665h444l-303 -751l350 -887h-461l-190 567l-76 -188v-379h-440z" />
<glyph unicode="L" horiz-adv-x="960" d="M74 0v1638h440v-1284h426v-354h-866z" />
<glyph unicode="M" horiz-adv-x="1736" d="M74 0v1638h604l188 -788l185 788h612v-1638h-440v1106l-238 -1106h-299l-219 1106v-1106h-393z" />
<glyph unicode="N" horiz-adv-x="1271" d="M74 0v1638h381l352 -784v784h391v-1638h-362l-369 770v-770h-393z" />
<glyph unicode="O" horiz-adv-x="1208" d="M61 365v909q0 110 70 203t195.5 147.5t277.5 54.5t277.5 -54.5t195.5 -147.5t70 -203v-909q0 -169 -156 -287.5t-387 -118.5t-387 118.5t-156 287.5zM512 391q0 -31 26.5 -50t65.5 -19t65.5 19t26.5 50v856q0 32 -26.5 51t-65.5 19t-65.5 -19t-26.5 -51v-856z" />
<glyph unicode="P" horiz-adv-x="1116" d="M74 0v1638h581q107 0 199.5 -41t151.5 -120t59 -179v-389q0 -101 -59 -180t-151.5 -119.5t-199.5 -40.5h-141v-569h-440zM514 901h64q75 0 75 66v274q0 66 -75 66h-64v-406z" />
<glyph unicode="Q" horiz-adv-x="1208" d="M61 365v909q0 110 70 203t195.5 147.5t277.5 54.5t277.5 -54.5t195.5 -147.5t70 -203v-909q0 -163 -116.5 -266t-311.5 -132q-23 -44 -23 -94q0 -35 16.5 -55.5t49.5 -20.5q34 0 49.5 22t15.5 52q0 16 -16 53h166q33 -64 33 -112q0 -95 -75 -156.5t-214 -61.5 q-152 0 -233.5 64.5t-81.5 175.5q0 87 53 137q-175 35 -286.5 145t-111.5 249zM512 391q0 -31 26.5 -50t65.5 -19t65.5 19t26.5 50v856q0 32 -26.5 51t-65.5 19t-65.5 -19t-26.5 -51v-856z" />
<glyph unicode="R" horiz-adv-x="1173" d="M74 0v1638h624q107 0 200.5 -41t152.5 -120t59 -179v-294q0 -62 -44.5 -121t-125.5 -90q82 -31 130 -91.5t48 -121.5v-306q0 -114 58 -274h-414q-55 120 -55 254v291q0 31 -25.5 58.5t-67.5 27.5h-100v-631h-440zM514 942h107q75 0 75 66v233q0 66 -75 66h-107v-365z" />
<glyph unicode="S" horiz-adv-x="1128" d="M41 365v186h385v-141q0 -48 35.5 -78.5t97.5 -30.5q123 0 123 107q0 37 -11.5 67.5t-29.5 54.5t-56.5 53.5t-75.5 54t-103 65.5q-38 23 -58 36q-149 93 -222 223.5t-73 276.5q0 85 35 163t100.5 140.5t170 99.5t233.5 37q213 0 351 -117.5t138 -287.5v-166h-385v135 q0 42 -30 68t-74 26q-46 0 -81.5 -25.5t-35.5 -70.5q0 -27 3 -49t5.5 -39.5t14 -35.5t18 -29.5t28.5 -28.5t34 -26.5t46 -29.5t53 -30.5t67 -36.5q14 -8 22 -12q159 -86 248.5 -228t89.5 -297q0 -85 -35 -163.5t-99.5 -140.5t-165.5 -99t-224 -37q-252 0 -395.5 108 t-143.5 298z" />
<glyph unicode="T" horiz-adv-x="1112" d="M31 1307v331h1050v-331h-301v-1307h-440v1307h-309z" />
<glyph unicode="U" horiz-adv-x="1204" d="M68 365v1273h452v-1247q0 -31 26 -50t64 -19q41 0 66.5 18.5t25.5 50.5v1247h435v-1273q0 -170 -148.5 -288t-378.5 -118q-151 0 -276 55t-195.5 148t-70.5 203z" />
<glyph unicode="V" horiz-adv-x="1130" d="M0 1638h440l152 -936l131 936h401l-358 -1638h-408z" />
<glyph unicode="W" horiz-adv-x="1718" d="M0 1638h436l135 -821l154 821h289l153 -821l154 821h397l-364 -1638h-348l-136 754l-137 -754h-366z" />
<glyph unicode="X" horiz-adv-x="1222" d="M0 0l354 821l-329 817h452l141 -432l160 432h432l-350 -776l338 -862h-455l-145 432l-166 -432h-432z" />
<glyph unicode="Y" horiz-adv-x="1220" d="M0 1638h453l180 -546l160 546h434l-402 -931v-707h-440v707z" />
<glyph unicode="Z" horiz-adv-x="1030" d="M16 0l453 1317h-375v321h910l-443 -1294h422v-344h-967z" />
<glyph unicode="[" horiz-adv-x="1130" d="M307 -563v2355h864v-322h-426v-1710h426v-323h-864z" />
<glyph unicode="\" horiz-adv-x="1040" d="M-35 1638h441l565 -1638h-441z" />
<glyph unicode="]" horiz-adv-x="1130" d="M-41 -240h426v1710h-426v322h864v-2355h-864v323z" />
<glyph unicode="^" horiz-adv-x="1058" d="M37 1262l237 376h510l238 -376h-330l-164 180l-161 -180h-330z" />
<glyph unicode="_" horiz-adv-x="1171" d="M74 0v334h1024v-334h-1024z" />
<glyph unicode="`" horiz-adv-x="555" d="M14 1638h406l96 -376h-297z" />
<glyph unicode="a" horiz-adv-x="1148" d="M16 311q0 58 17.5 105.5t51 85t83 71t114.5 63.5t144 61t172 66q31 11 47 17v90q0 70 -67 70q-64 0 -64 -70v-61h-428v88q0 155 141.5 244.5t364.5 89.5q217 0 351 -98t134 -256v-627q0 -114 56 -250h-361l-20 98q-26 -28 -43.5 -43t-50.5 -35.5t-78 -30t-103 -9.5 q-214 0 -337.5 85.5t-123.5 245.5zM461 328q0 -36 23.5 -58t68.5 -22t68.5 22t23.5 58v211q-94 -41 -139 -80t-45 -90v-41z" />
<glyph unicode="b" d="M74 0v1638h432v-524q4 4 20 16.5t21.5 17t20.5 16t23 16l24 13.5t27.5 13t28.5 10t33 8.5t36.5 4.5t41.5 2q148 0 245 -62t97 -174v-782q0 -112 -96.5 -172.5t-245.5 -60.5q-176 0 -290 114l-19 -94h-399zM506 338q0 -30 26.5 -50t65.5 -20t65.5 20t26.5 50v532 q0 30 -26.5 50t-65.5 20t-65.5 -20t-26.5 -50v-532z" />
<glyph unicode="c" horiz-adv-x="1155" d="M61 344v522q0 103 71 187t191.5 131t264.5 47t264.5 -47t191 -131t70.5 -187v-108h-434v112q0 31 -27 51.5t-65 20.5t-65 -20.5t-27 -51.5v-532q0 -30 26.5 -50t65.5 -20t65.5 20t26.5 50v114h434v-108q0 -103 -70.5 -187t-191 -130.5t-264.5 -46.5t-264.5 46.5 t-191.5 130.5t-71 187z" />
<glyph unicode="d" d="M68 213v782q0 113 96.5 174.5t245.5 61.5q21 0 41.5 -2t36 -4t34 -9t28.5 -10t27.5 -13.5t23 -13t23 -16t20 -15.5t21 -17.5t19.5 -16.5v524h434v-1638h-399l-21 94q-114 -114 -288 -114q-150 0 -246 60.5t-96 172.5zM500 338q0 -30 26.5 -50t65.5 -20t65.5 20t26.5 50 v532q0 30 -26.5 50t-65.5 20t-65.5 -20t-26.5 -50v-532z" />
<glyph unicode="e" horiz-adv-x="1167" d="M61 344v522q0 103 71 187t191.5 131t264.5 47t264 -47t190 -131t70 -187v-338h-616v-190q0 -30 26.5 -50t65.5 -20t65.5 20t26.5 50v63h432v-57q0 -103 -70 -187t-190 -130.5t-264 -46.5t-264.5 46.5t-191.5 130.5t-71 187zM496 731h184v129q0 30 -26.5 50t-65.5 20 t-65.5 -20t-26.5 -50v-129z" />
<glyph unicode="f" horiz-adv-x="860" d="M53 932v276h160v70q0 165 102 262.5t297 97.5h238v-297h-113q-36 0 -63 -28t-27 -62v-43h203v-276h-203v-932h-434v932h-160z" />
<glyph unicode="g" horiz-adv-x="1173" d="M8 301q0 82 73 128t185 52q-98 24 -151.5 102.5t-53.5 186.5v129q0 152 150 242t375 90q26 0 72.5 -3t58.5 -3q112 0 152 23t40 67h359q12 -35 12 -76q0 -69 -50.5 -105t-131.5 -36q-40 0 -76 8q41 -32 65.5 -91t24.5 -116v-123q0 -158 -143.5 -251t-382.5 -93h-49 q-76 -17 -76 -80q0 -29 43.5 -55.5t89.5 -26.5q269 0 412 -79t143 -218v-110q0 -158 -144.5 -245t-418.5 -87q-253 0 -402 87.5t-149 244.5v76q0 67 45 130.5t108 88.5q-180 40 -180 143zM481 -68v-53q0 -35 34 -59.5t93 -24.5q57 0 92 24.5t35 59.5v53q0 35 -32 59.5 t-95 24.5q-66 0 -96.5 -23.5t-30.5 -60.5zM494 780q0 -30 26.5 -49.5t65.5 -19.5t65.5 19.5t26.5 49.5v103q0 30 -26.5 49.5t-65.5 19.5t-65.5 -19.5t-26.5 -49.5v-103z" />
<glyph unicode="h" d="M74 0v1638h432v-524q35 33 54.5 49t53 35t73.5 26t95 7q150 0 246 -67.5t96 -198.5v-965h-434v870q0 30 -26.5 50t-65.5 20t-65.5 -20t-26.5 -50v-870h-432z" />
<glyph unicode="i" horiz-adv-x="581" d="M74 0v1208h434v-1208h-434zM74 1343v295h434v-295h-434z" />
<glyph unicode="j" horiz-adv-x="579" d="M-131 -152h113q38 0 65 27.5t27 63.5v1269h432v-1298q0 -164 -101 -261.5t-296 -97.5h-240v297zM74 1343v295h434v-295h-434z" />
<glyph unicode="k" horiz-adv-x="1148" d="M74 0v1638h432v-868l184 440h447l-265 -510l304 -700h-447l-182 442l-41 -88v-354h-432z" />
<glyph unicode="l" horiz-adv-x="579" d="M74 0v1638h432v-1638h-432z" />
<glyph unicode="m" horiz-adv-x="1808" d="M74 0v1208h405l21 -94q109 117 282 117q185 0 310 -144q52 64 123 104t184 40q146 0 244 -70.5t98 -185.5v-975h-432v860q0 30 -26.5 50t-65.5 20t-66 -20t-27 -50v-860h-434v870q0 30 -26.5 50t-65.5 20q-38 0 -65 -20t-27 -50v-870h-432z" />
<glyph unicode="n" horiz-adv-x="1193" d="M74 0v1208h399l21 -94q56 54 123 85.5t167 31.5q154 0 248 -76.5t94 -179.5v-975h-434v870q0 30 -26.5 50t-65.5 20t-65.5 -20t-26.5 -50v-870h-434z" />
<glyph unicode="o" horiz-adv-x="1173" d="M61 332v545q0 115 72 196.5t188.5 119.5t264.5 38q149 0 265.5 -38t188.5 -119.5t72 -196.5v-545q0 -115 -72 -196t-188.5 -118.5t-265.5 -37.5q-148 0 -264.5 37.5t-188.5 118.5t-72 196zM494 338q0 -30 26.5 -50t65.5 -20t65.5 20t26.5 50v532q0 30 -26.5 50t-65.5 20 t-65.5 -20t-26.5 -50v-532z" />
<glyph unicode="p" d="M74 -449v1657h399l19 -94q115 115 290 115q148 0 245 -61t97 -173v-782q0 -112 -96.5 -172.5t-245.5 -60.5q-64 0 -116.5 17t-79.5 35t-68 52q-8 7 -12 10v-543h-432zM506 338q0 -30 26.5 -50t65.5 -20t65.5 20t26.5 50v532q0 30 -26.5 50t-65.5 20t-65.5 -20t-26.5 -50 v-532z" />
<glyph unicode="q" d="M68 213v782q0 76 46.5 129.5t122.5 79t173 25.5q173 0 288 -115l21 94h399v-1657h-434v543q-69 -58 -100 -75q-74 -42 -174 -42q-149 0 -245.5 61.5t-96.5 174.5zM500 338q0 -31 27 -51.5t65 -20.5t65 20.5t27 51.5v532q0 30 -26.5 50t-65.5 20t-65.5 -20t-26.5 -50v-532 z" />
<glyph unicode="r" horiz-adv-x="870" d="M74 0v1208h413l23 -106q52 63 131.5 96t218.5 33v-342q-187 0 -269.5 -28.5t-82.5 -108.5v-752h-434z" />
<glyph unicode="s" horiz-adv-x="1081" d="M39 332v74h393v-64q0 -40 28 -65t77 -25q100 0 100 90q0 20 -5 34.5t-19 28t-29 23t-46.5 22.5t-58.5 23t-78.5 29t-93.5 35q-149 58 -206.5 143.5t-57.5 196.5q0 74 26 133.5t72 100t110 68t137.5 40t156.5 12.5q218 0 355.5 -98t137.5 -256v-64h-395v53q0 34 -23 60 t-67 26q-51 0 -75.5 -20t-24.5 -64q0 -57 42.5 -83t158.5 -62q9 -2 13.5 -3.5t12.5 -4t14 -4.5q91 -28 157.5 -64.5t103 -72.5t57.5 -81t26.5 -80.5t5.5 -80.5q0 -67 -29 -128t-87 -112t-157 -81.5t-226 -30.5q-235 0 -370.5 96.5t-135.5 255.5z" />
<glyph unicode="t" horiz-adv-x="903" d="M20 932v276h187v230h432v-230h223v-276h-223v-555q0 -36 26.5 -58t65.5 -22h111v-297h-238q-99 0 -177 29t-125 77t-71 105t-24 117v604h-187z" />
<glyph unicode="u" d="M68 236v972h434v-870q0 -30 26.5 -50t63.5 -20q39 0 65.5 20t26.5 50v870h434v-1208h-399l-19 94q-110 -114 -290 -114q-145 0 -243.5 70t-98.5 186z" />
<glyph unicode="v" horiz-adv-x="1101" d="M0 1208h418l145 -628l146 628h393l-377 -1208h-350z" />
<glyph unicode="w" horiz-adv-x="1658" d="M0 1208h424l123 -546l139 546h305l121 -546l123 546h424l-371 -1208h-332l-145 508l-149 -508h-332z" />
<glyph unicode="x" horiz-adv-x="1202" d="M27 0l307 600l-307 608h454l121 -329l125 329h455l-312 -563l312 -645h-455l-121 328l-125 -328h-454z" />
<glyph unicode="y" horiz-adv-x="1167" d="M31 1208h434l141 -620l142 620h434l-469 -1435q-34 -105 -126.5 -163.5t-211.5 -58.5h-260v297h133q74 0 90 50l76 172z" />
<glyph unicode="z" horiz-adv-x="952" d="M14 0l369 932h-330v276h862l-370 -932h381v-276h-912z" />
<glyph unicode="{" horiz-adv-x="976" d="M123 453v305h100q90 0 90 90v518q0 201 127.5 313.5t368.5 112.5h209v-322h-172q-35 0 -63.5 -23.5t-28.5 -45.5v-576q0 -27 -10 -58.5t-30.5 -65t-58.5 -59.5t-86 -36q64 -13 108 -54t60.5 -83.5t16.5 -81.5v-557q0 -22 28.5 -46t63.5 -24h172v-323h-209 q-241 0 -368.5 113.5t-127.5 314.5v497q0 91 -90 91h-100z" />
<glyph unicode="|" horiz-adv-x="604" d="M82 0v1638h440v-1638h-440z" />
<glyph unicode="}" horiz-adv-x="976" d="M-41 -240h172q35 0 63.5 24t28.5 46v557q0 39 16.5 81.5t60.5 83.5t108 54q-48 10 -86 36t-58.5 59.5t-30.5 65t-10 58.5v576q0 22 -28.5 45.5t-63.5 23.5h-172v322h209q241 0 368.5 -112.5t127.5 -313.5v-518q0 -90 90 -90h100v-305h-100q-90 0 -90 -91v-497 q0 -201 -127.5 -314.5t-368.5 -113.5h-209v323z" />
<glyph unicode="~" d="M57 608q0 178 93.5 276.5t261.5 98.5q68 0 127 -23.5t106.5 -47t87.5 -23.5q60 0 96.5 26.5t36.5 67.5h285q0 -178 -93 -276.5t-261 -98.5q-54 0 -103.5 14.5t-80 31.5t-68 31.5t-70.5 14.5q-61 0 -97 -26t-36 -66h-285z" />
<glyph unicode="&#xa1;" horiz-adv-x="598" d="M82 -61l98 645h238l98 -645v-506h-434v506zM98 696v375h396v-375h-396z" />
<glyph unicode="&#xa2;" horiz-adv-x="1155" d="M63 344v524q0 127 105 222.5t272 128.5v174h275v-172q175 -28 287 -125t112 -228v-108h-434v112q0 30 -26.5 50t-65.5 20t-65.5 -20t-26.5 -50v-532q0 -30 26.5 -50t65.5 -20t65.5 20t26.5 50v115h434v-111q0 -131 -112 -227.5t-287 -124.5v-162h-273v164 q-167 33 -273 128t-106 222z" />
<glyph unicode="&#xa3;" horiz-adv-x="1449" d="M-18 178q0 122 95 190t242 68q70 0 140 -20q102 59 102 174q0 51 -29 84h-350v301h240q-32 43 -62 126.5t-30 158.5q0 79 34 153.5t96 134t160 95.5t216 36t215.5 -38t155.5 -97t89 -123.5t31 -124.5v-178h-397v125q0 33 -24.5 53.5t-69.5 20.5q-44 0 -67.5 -21 t-23.5 -53q0 -55 20 -108t47 -98.5t32 -61.5h366v-301h-315q6 0 6 -45q0 -46 -10.5 -84t-35.5 -73.5t-52 -63t-74 -68.5q7 -6 20.5 -15.5t53.5 -25.5t78 -16q79 0 112 31t33 92v94h395v-156q0 -81 -24.5 -146.5t-79.5 -121t-155.5 -86.5t-239.5 -31q-240 0 -400 109 q-50 -51 -122.5 -80t-153.5 -29q-111 0 -187.5 66t-76.5 153zM213 201q0 -17 17.5 -30t48.5 -13q49 0 83 49q-30 41 -86 41q-30 0 -46.5 -13t-16.5 -34z" />
<glyph unicode="&#xa5;" horiz-adv-x="1341" d="M61 266v281h381l-34 92h-347v283h226l-226 510h437l192 -424l172 424h418l-233 -510h233v-283h-360l-35 -92h395v-281h-395v-266h-441v266h-383z" />
<glyph unicode="&#xa7;" horiz-adv-x="1085" d="M49 1307q0 73 29 135t78 105t112.5 73.5t131.5 44.5t137 14q120 0 229.5 -47t176.5 -126.5t67 -168.5v-63h-379v43q0 30 -23 46.5t-63 16.5q-84 0 -84 -67q0 -37 44.5 -63.5t147.5 -49.5q129 -26 215 -85t122 -130t36 -154q0 -76 -36.5 -146t-106.5 -116 q157 -82 157 -235q0 -74 -29 -136.5t-77.5 -105.5t-112 -73.5t-131.5 -45t-137 -14.5q-119 0 -228 47t-176 126.5t-67 168.5v64h377v-43q0 -30 23.5 -47t62.5 -17q84 0 84 68q0 37 -45 64t-148 48q-189 39 -279.5 139.5t-90.5 229.5q0 76 36.5 146t104.5 116 q-158 82 -158 238zM461 780q0 -29 24.5 -49t59.5 -20t59.5 20t24.5 49v78q0 29 -24.5 49.5t-59.5 20.5t-59.5 -20.5t-24.5 -49.5v-78z" />
<glyph unicode="&#xa8;" horiz-adv-x="1003" d="M41 1264v374h379v-374h-379zM584 1264v374h379v-374h-379z" />
<glyph unicode="&#xa9;" horiz-adv-x="1802" d="M61 819q0 114 30 223.5t84.5 201.5t132 169.5t169.5 131.5t201 84t223 30q171 0 327 -66.5t268 -178.5t178.5 -268t66.5 -327t-66.5 -326t-178.5 -267.5t-268 -179t-327 -66.5t-326.5 66.5t-268 179t-179 267.5t-66.5 326zM209 819q0 -188 92.5 -347.5t252 -252 t347.5 -92.5t347.5 92.5t252 252t92.5 347.5t-92.5 347.5t-252 252t-347.5 92.5t-347.5 -92.5t-252 -252t-92.5 -347.5zM532 819q0 164 114.5 279.5t275.5 115.5q144 0 240.5 -93.5t111.5 -237.5h-244q-7 49 -36 74.5t-62 25.5q-41 0 -71 -41t-30 -123t30 -123t71 -41 q33 0 62 26t36 73h244q-15 -142 -112.5 -236t-239.5 -94q-161 0 -275.5 116t-114.5 279z" />
<glyph unicode="&#xaa;" horiz-adv-x="778" d="M16 1126q0 35 11 63.5t34.5 52t54 43t77 39t94.5 37t115 40.5q5 1 8 2.5t7.5 3t8.5 2.5v53q0 41 -45 41q-41 0 -41 -41v-37h-279v54q0 93 92.5 146.5t237.5 53.5q140 0 228 -59t88 -154v-376q0 -70 34 -150h-233l-12 59q-24 -23 -40 -34.5t-54 -24t-87 -12.5 q-138 0 -218.5 51.5t-80.5 146.5zM305 1137q0 -47 60 -47q61 0 61 47v127q-61 -25 -91 -48.5t-30 -54.5v-24z" />
<glyph unicode="&#xab;" horiz-adv-x="1400" d="M51 604l221 604h443l-230 -604l230 -604h-443zM676 604l223 604h442l-231 -604l231 -604h-442z" />
<glyph unicode="&#xad;" horiz-adv-x="739" d="M74 614v334h592v-334h-592z" />
<glyph unicode="&#xae;" horiz-adv-x="1802" d="M61 819q0 114 30 223.5t84.5 201.5t132 169.5t169.5 131.5t201 84t223 30q171 0 327 -66.5t268 -178.5t178.5 -268t66.5 -327t-66.5 -326t-178.5 -267.5t-268 -179t-327 -66.5t-326.5 66.5t-268 179t-179 267.5t-66.5 326zM209 819q0 -188 92.5 -347.5t252 -252 t347.5 -92.5t347.5 92.5t252 252t92.5 347.5t-92.5 347.5t-252 252t-347.5 92.5t-347.5 -92.5t-252 -252t-92.5 -347.5zM543 444v752h493q111 0 178.5 -56.5t67.5 -133.5q0 -73 -37.5 -123t-101.5 -68q54 -14 96.5 -58t42.5 -126v-62q0 -53 37 -125h-279q-39 56 -39 117v137 q0 16 -10.5 27.5t-27.5 11.5h-123v-293h-297zM840 879h123q16 0 27 14.5t11 30.5t-11 30.5t-27 14.5h-123v-90z" />
<glyph unicode="&#xaf;" horiz-adv-x="919" d="M55 1350v288h809v-288h-809z" />
<glyph unicode="&#xb0;" horiz-adv-x="745" d="M41 1327q0 138 97 235t235 97t235 -97t97 -235t-97 -235t-235 -97t-235 97t-97 235zM213 1327q0 -65 46.5 -112.5t113.5 -47.5q64 0 111.5 47.5t47.5 112.5t-47.5 112.5t-111.5 47.5q-67 0 -113.5 -47.5t-46.5 -112.5z" />
<glyph unicode="&#xb4;" horiz-adv-x="557" d="M33 1262l96 376h406l-205 -376h-297z" />
<glyph unicode="&#xb6;" horiz-adv-x="1447" d="M53 1112q0 124 41 226.5t108 166.5t150 98.5t170 34.5h426v-1638h-274v586h-152q-87 0 -170 34.5t-150 98.5t-108 166.5t-41 226.5zM1098 0v1638h276v-1638h-276z" />
<glyph unicode="&#xb7;" horiz-adv-x="532" d="M74 696v375h397v-375h-397z" />
<glyph unicode="&#xb8;" horiz-adv-x="655" d="M72 -322l20 322h213l-14 -156q61 41 125 41q75 0 125.5 -48.5t50.5 -117.5v-231q0 -102 -74.5 -174t-185.5 -72t-185.5 72t-74.5 174v70h215v-64q0 -17 13 -29t32 -12t31 12t12 29v174q0 17 -12 29t-31 12t-32 -12t-13 -29z" />
<glyph unicode="&#xba;" horiz-adv-x="806" d="M61 1139v327q0 102 97 157.5t245 55.5t245 -55.5t97 -157.5v-327q0 -101 -96.5 -156t-245.5 -55t-245.5 55t-96.5 156zM344 1143q0 -18 17 -29.5t42 -11.5t42.5 11.5t17.5 29.5v319q0 18 -17.5 29.5t-42.5 11.5t-42 -11.5t-17 -29.5v-319z" />
<glyph unicode="&#xbb;" horiz-adv-x="1400" d="M59 0l232 604l-232 604h443l223 -604l-223 -604h-443zM686 0l229 604l-229 604h442l222 -604l-222 -604h-442z" />
<glyph unicode="&#xbf;" horiz-adv-x="1118" d="M31 -188q0 67 23.5 127t61.5 105t83.5 86t91 78.5t83.5 74.5t61.5 81.5t23.5 92.5q0 61 -51 127h436q59 -76 59 -154q0 -63 -25 -123.5t-64.5 -108.5t-87.5 -93t-96 -83t-87.5 -71t-64.5 -65t-25 -58q0 -37 33.5 -65.5t78.5 -28.5q46 0 81.5 28.5t35.5 65.5v104h403v-125 q0 -73 -36 -146.5t-100 -133.5t-161.5 -97.5t-209.5 -37.5q-129 0 -235.5 38t-173 99t-102.5 134.5t-36 148.5zM418 696v375h397v-375h-397z" />
<glyph unicode="&#xc0;" horiz-adv-x="1112" d="M0 0l291 1638h526l295 -1638h-455l-22 215h-211l-33 -215h-391zM195 2150h405l96 -376h-297zM473 567h125l-57 518z" />
<glyph unicode="&#xc1;" horiz-adv-x="1112" d="M0 0l291 1638h526l295 -1638h-455l-22 215h-211l-33 -215h-391zM406 1774l96 376h405l-205 -376h-296zM473 567h125l-57 518z" />
<glyph unicode="&#xc2;" horiz-adv-x="1112" d="M0 0l291 1638h526l295 -1638h-455l-22 215h-211l-33 -215h-391zM61 1774l238 376h510l238 -376h-330l-164 180l-162 -180h-330zM473 567h125l-57 518z" />
<glyph unicode="&#xc3;" horiz-adv-x="1112" d="M0 0l291 1638h526l295 -1638h-455l-22 215h-211l-33 -215h-391zM25 1763q0 178 93 276.5t261 98.5q68 0 127 -23.5t106.5 -47t87.5 -23.5q60 0 97 26.5t37 67.5h284q0 -178 -93 -276.5t-261 -98.5q-54 0 -103.5 14.5t-80 31.5t-68 31.5t-70.5 14.5q-61 0 -97 -26t-36 -66 h-284zM473 567h125l-57 518z" />
<glyph unicode="&#xc4;" horiz-adv-x="1112" d="M0 0l291 1638h526l295 -1638h-455l-22 215h-211l-33 -215h-391zM78 1776v374h379v-374h-379zM473 567h125l-57 518zM621 1776v374h378v-374h-378z" />
<glyph unicode="&#xc5;" horiz-adv-x="1112" d="M0 0l291 1638h198q-62 20 -101.5 74.5t-39.5 122.5q0 88 60.5 148.5t146.5 60.5t146.5 -60.5t60.5 -148.5q0 -68 -40 -122.5t-104 -74.5h199l295 -1638h-455l-22 215h-211l-33 -215h-391zM455 1835q0 -40 29.5 -69t70.5 -29q40 0 70 29t30 69q0 41 -30 70.5t-70 29.5 q-41 0 -70.5 -29.5t-29.5 -70.5zM473 567h125l-57 518z" />
<glyph unicode="&#xc6;" horiz-adv-x="1574" d="M0 0l465 1638h1059v-321h-426v-322h280v-311h-280v-340h426v-344h-867v215h-208l-58 -215h-391zM535 567h122v518z" />
<glyph unicode="&#xc7;" horiz-adv-x="1224" d="M61 344v950q0 63 41.5 131t113 124.5t179 93t226.5 36.5q120 0 225.5 -36.5t174.5 -93t108.5 -124t39.5 -131.5v-272h-448v225q0 31 -29.5 50.5t-70.5 19.5t-70 -19.5t-29 -50.5v-856q0 -31 29 -50t70 -19t70.5 19t29.5 50v225h448v-272q0 -60 -35 -123.5t-96.5 -118.5 t-156.5 -94t-203 -47l-10 -117q61 41 125 41q75 0 125.5 -48.5t50.5 -117.5v-231q0 -102 -74.5 -174t-185.5 -72t-185.5 72t-74.5 174v70h215v-64q0 -17 13 -29t32 -12t31 12t12 29v174q0 17 -12 29t-31 12t-32 -12t-13 -29l-215 10l18 297q-177 38 -291.5 148t-114.5 221z " />
<glyph unicode="&#xc8;" horiz-adv-x="991" d="M74 0v1638h866v-321h-426v-322h281v-311h-281v-340h426v-344h-866zM182 2150h406l96 -376h-297z" />
<glyph unicode="&#xc9;" horiz-adv-x="991" d="M74 0v1638h866v-321h-426v-322h281v-311h-281v-340h426v-344h-866zM373 1774l96 376h405l-204 -376h-297z" />
<glyph unicode="&#xca;" horiz-adv-x="991" d="M12 1774l238 376h510l237 -376h-329l-164 180l-162 -180h-330zM74 0v1638h866v-321h-426v-322h281v-311h-281v-340h426v-344h-866z" />
<glyph unicode="&#xcb;" horiz-adv-x="991" d="M57 1776v374h379v-374h-379zM74 0v1638h866v-321h-426v-322h281v-311h-281v-340h426v-344h-866zM600 1776v374h379v-374h-379z" />
<glyph unicode="&#xcc;" horiz-adv-x="604" d="M-51 2150h405l97 -376h-297zM82 0v1638h440v-1638h-440z" />
<glyph unicode="&#xcd;" horiz-adv-x="604" d="M82 0v1638h440v-1638h-440zM156 1774l96 376h405l-204 -376h-297z" />
<glyph unicode="&#xce;" horiz-adv-x="604" d="M-193 1774l238 376h510l238 -376h-330l-164 180l-162 -180h-330zM82 0v1638h440v-1638h-440z" />
<glyph unicode="&#xcf;" horiz-adv-x="604" d="M-172 1776v374h379v-374h-379zM82 0v1638h440v-1638h-440zM371 1776v374h379v-374h-379z" />
<glyph unicode="&#xd1;" horiz-adv-x="1271" d="M74 0v1638h381l352 -784v784h391v-1638h-362l-369 770v-770h-393zM106 1763q0 178 93.5 276.5t261.5 98.5q68 0 127 -23.5t106.5 -47t87.5 -23.5q60 0 96.5 26.5t36.5 67.5h285q0 -178 -93 -276.5t-261 -98.5q-54 0 -103.5 14.5t-80 31.5t-68 31.5t-70.5 14.5 q-61 0 -97 -26t-36 -66h-285z" />
<glyph unicode="&#xd2;" horiz-adv-x="1208" d="M61 365v909q0 110 70 203t195.5 147.5t277.5 54.5t277.5 -54.5t195.5 -147.5t70 -203v-909q0 -169 -156 -287.5t-387 -118.5t-387 118.5t-156 287.5zM248 2150h405l97 -376h-297zM512 391q0 -31 26.5 -50t65.5 -19t65.5 19t26.5 50v856q0 32 -26.5 51t-65.5 19t-65.5 -19 t-26.5 -51v-856z" />
<glyph unicode="&#xd3;" horiz-adv-x="1208" d="M61 365v909q0 110 70 203t195.5 147.5t277.5 54.5t277.5 -54.5t195.5 -147.5t70 -203v-909q0 -169 -156 -287.5t-387 -118.5t-387 118.5t-156 287.5zM442 1774l97 376h405l-205 -376h-297zM512 391q0 -31 26.5 -50t65.5 -19t65.5 19t26.5 50v856q0 32 -26.5 51t-65.5 19 t-65.5 -19t-26.5 -51v-856z" />
<glyph unicode="&#xd4;" horiz-adv-x="1208" d="M61 365v909q0 110 70 203t195.5 147.5t277.5 54.5t277.5 -54.5t195.5 -147.5t70 -203v-909q0 -169 -156 -287.5t-387 -118.5t-387 118.5t-156 287.5zM115 1774l237 376h510l238 -376h-330l-164 180l-162 -180h-329zM512 391q0 -31 26.5 -50t65.5 -19t65.5 19t26.5 50v856 q0 32 -26.5 51t-65.5 19t-65.5 -19t-26.5 -51v-856z" />
<glyph unicode="&#xd5;" horiz-adv-x="1208" d="M57 1763q0 178 93.5 276.5t261.5 98.5q68 0 127 -23.5t106.5 -47t87.5 -23.5q60 0 96.5 26.5t36.5 67.5h285q0 -178 -93 -276.5t-261 -98.5q-54 0 -103.5 14.5t-80 31.5t-68 31.5t-70.5 14.5q-61 0 -97 -26t-36 -66h-285zM61 365v909q0 110 70 203t195.5 147.5 t277.5 54.5t277.5 -54.5t195.5 -147.5t70 -203v-909q0 -169 -156 -287.5t-387 -118.5t-387 118.5t-156 287.5zM512 391q0 -31 26.5 -50t65.5 -19t65.5 19t26.5 50v856q0 32 -26.5 51t-65.5 19t-65.5 -19t-26.5 -51v-856z" />
<glyph unicode="&#xd6;" horiz-adv-x="1208" d="M61 365v909q0 110 70 203t195.5 147.5t277.5 54.5t277.5 -54.5t195.5 -147.5t70 -203v-909q0 -169 -156 -287.5t-387 -118.5t-387 118.5t-156 287.5zM147 1776v374h379v-374h-379zM512 391q0 -31 26.5 -50t65.5 -19t65.5 19t26.5 50v856q0 32 -26.5 51t-65.5 19 t-65.5 -19t-26.5 -51v-856zM690 1776v374h379v-374h-379z" />
<glyph unicode="&#xd8;" horiz-adv-x="1208" d="M61 -82l76 236q-76 99 -76 211v909q0 110 70 203t195.5 147.5t277.5 54.5q129 0 230 -37l24 80h289l-78 -237q78 -97 78 -211v-909q0 -169 -156 -287.5t-387 -118.5q-127 0 -231 37l-23 -78h-289zM512 391q0 -31 26.5 -50t65.5 -19t65.5 19t26.5 50v856q0 32 -26.5 51 t-65.5 19t-65.5 -19t-26.5 -51v-856z" />
<glyph unicode="&#xd9;" horiz-adv-x="1204" d="M68 365v1273h452v-1247q0 -31 26 -50t64 -19q41 0 66.5 18.5t25.5 50.5v1247h435v-1273q0 -170 -148.5 -288t-378.5 -118q-151 0 -276 55t-195.5 148t-70.5 203zM256 2150h406l96 -376h-297z" />
<glyph unicode="&#xda;" horiz-adv-x="1204" d="M68 365v1273h452v-1247q0 -31 26 -50t64 -19q41 0 66.5 18.5t25.5 50.5v1247h435v-1273q0 -170 -148.5 -288t-378.5 -118q-151 0 -276 55t-195.5 148t-70.5 203zM459 1774l96 376h406l-205 -376h-297z" />
<glyph unicode="&#xdb;" horiz-adv-x="1204" d="M68 365v1273h452v-1247q0 -31 26 -50t64 -19q41 0 66.5 18.5t25.5 50.5v1247h435v-1273q0 -170 -148.5 -288t-378.5 -118q-151 0 -276 55t-195.5 148t-70.5 203zM119 1774l237 376h510l238 -376h-330l-164 180l-161 -180h-330z" />
<glyph unicode="&#xdc;" horiz-adv-x="1204" d="M68 365v1273h452v-1247q0 -31 26 -50t64 -19q41 0 66.5 18.5t25.5 50.5v1247h435v-1273q0 -170 -148.5 -288t-378.5 -118q-151 0 -276 55t-195.5 148t-70.5 203zM147 1776v374h379v-374h-379zM690 1776v374h379v-374h-379z" />
<glyph unicode="&#xdf;" horiz-adv-x="1208" d="M74 0v1178q0 229 143.5 365t386.5 136q112 0 203.5 -23.5t153.5 -64.5t104.5 -97t62 -119.5t19.5 -133.5q0 -220 -176 -280q63 -14 104 -54t56.5 -88.5t15.5 -107.5v-269q0 -234 -144 -343t-421 -109v309q63 0 97 29t34 84v262q0 53 -35.5 81.5t-95.5 28.5v289 q74 0 116.5 48.5t42.5 117.5q0 64 -29 102.5t-87 38.5q-53 0 -84 -28.5t-31 -81.5v-1270h-436z" />
<glyph unicode="&#xe0;" horiz-adv-x="1148" d="M16 311q0 58 17.5 105.5t51 85t83 71t114.5 63.5t144 61t172 66q31 11 47 17v90q0 70 -67 70q-64 0 -64 -70v-61h-428v88q0 155 141.5 244.5t364.5 89.5q217 0 351 -98t134 -256v-627q0 -114 56 -250h-361l-20 98q-26 -28 -43.5 -43t-50.5 -35.5t-78 -30t-103 -9.5 q-214 0 -337.5 85.5t-123.5 245.5zM223 1741h406l96 -377h-297zM461 328q0 -36 23.5 -58t68.5 -22t68.5 22t23.5 58v211q-94 -41 -139 -80t-45 -90v-41z" />
<glyph unicode="&#xe1;" horiz-adv-x="1148" d="M16 311q0 58 17.5 105.5t51 85t83 71t114.5 63.5t144 61t172 66q31 11 47 17v90q0 70 -67 70q-64 0 -64 -70v-61h-428v88q0 155 141.5 244.5t364.5 89.5q217 0 351 -98t134 -256v-627q0 -114 56 -250h-361l-20 98q-26 -28 -43.5 -43t-50.5 -35.5t-78 -30t-103 -9.5 q-214 0 -337.5 85.5t-123.5 245.5zM430 1364l96 377h406l-205 -377h-297zM461 328q0 -36 23.5 -58t68.5 -22t68.5 22t23.5 58v211q-94 -41 -139 -80t-45 -90v-41z" />
<glyph unicode="&#xe2;" horiz-adv-x="1148" d="M16 311q0 58 17.5 105.5t51 85t83 71t114.5 63.5t144 61t172 66q31 11 47 17v90q0 70 -67 70q-64 0 -64 -70v-61h-428v88q0 155 141.5 244.5t364.5 89.5q217 0 351 -98t134 -256v-627q0 -114 56 -250h-361l-20 98q-26 -28 -43.5 -43t-50.5 -35.5t-78 -30t-103 -9.5 q-214 0 -337.5 85.5t-123.5 245.5zM98 1364l238 377h510l237 -377h-329l-164 180l-162 -180h-330zM461 328q0 -36 23.5 -58t68.5 -22t68.5 22t23.5 58v211q-94 -41 -139 -80t-45 -90v-41z" />
<glyph unicode="&#xe3;" horiz-adv-x="1148" d="M16 311q0 58 17.5 105.5t51 85t83 71t114.5 63.5t144 61t172 66q31 11 47 17v90q0 70 -67 70q-64 0 -64 -70v-61h-428v88q0 155 141.5 244.5t364.5 89.5q217 0 351 -98t134 -256v-627q0 -114 56 -250h-361l-20 98q-26 -28 -43.5 -43t-50.5 -35.5t-78 -30t-103 -9.5 q-214 0 -337.5 85.5t-123.5 245.5zM25 1354q0 178 93 276.5t261 98.5q54 0 103.5 -15t80 -32.5t67.5 -32.5t70 -15q60 0 97 27t37 68h284q0 -178 -93 -276.5t-261 -98.5q-54 0 -103.5 14.5t-80 31.5t-68 31.5t-70.5 14.5q-61 0 -97 -26t-36 -66h-284zM461 328 q0 -36 23.5 -58t68.5 -22t68.5 22t23.5 58v211q-94 -41 -139 -80t-45 -90v-41z" />
<glyph unicode="&#xe4;" horiz-adv-x="1148" d="M16 311q0 58 17.5 105.5t51 85t83 71t114.5 63.5t144 61t172 66q31 11 47 17v90q0 70 -67 70q-64 0 -64 -70v-61h-428v88q0 155 141.5 244.5t364.5 89.5q217 0 351 -98t134 -256v-627q0 -114 56 -250h-361l-20 98q-26 -28 -43.5 -43t-50.5 -35.5t-78 -30t-103 -9.5 q-214 0 -337.5 85.5t-123.5 245.5zM139 1366v375h379v-375h-379zM461 328q0 -36 23.5 -58t68.5 -22t68.5 22t23.5 58v211q-94 -41 -139 -80t-45 -90v-41zM682 1366v375h379v-375h-379z" />
<glyph unicode="&#xe5;" horiz-adv-x="1148" d="M16 311q0 58 17.5 105.5t51 85t83 71t114.5 63.5t144 61t172 66q31 11 47 17v90q0 70 -67 70q-64 0 -64 -70v-61h-428v88q0 155 141.5 244.5t364.5 89.5q217 0 351 -98t134 -256v-627q0 -114 56 -250h-361l-20 98q-26 -28 -43.5 -43t-50.5 -35.5t-78 -30t-103 -9.5 q-214 0 -337.5 85.5t-123.5 245.5zM385 1552q0 88 60.5 148.5t146.5 60.5t146.5 -60.5t60.5 -148.5q0 -86 -60.5 -146t-146.5 -60t-146.5 60t-60.5 146zM461 328q0 -36 23.5 -58t68.5 -22t68.5 22t23.5 58v211q-94 -41 -139 -80t-45 -90v-41zM492 1552q0 -40 29.5 -69 t70.5 -29q40 0 70 29t30 69q0 41 -30 71t-70 30q-41 0 -70.5 -30t-29.5 -71z" />
<glyph unicode="&#xe6;" horiz-adv-x="1748" d="M16 311q0 50 14.5 92.5t33.5 74.5t65 66t81 55.5t110.5 54t124 51.5t150.5 57l48 18v90q0 72 -65 72q-64 0 -64 -72v-61h-428v88q0 155 141 244.5t363 89.5q86 0 176 -29t133 -74q44 46 125 74.5t164 28.5q219 0 362.5 -103.5t143.5 -261.5v-338h-617v-190 q0 -30 26.5 -50t65.5 -20t66 20t27 50v63h432v-57q0 -156 -153 -260t-372 -104q-96 0 -213.5 34.5t-156.5 89.5q-41 -52 -138 -88t-184 -36q-214 0 -337.5 85.5t-123.5 245.5zM459 328q0 -36 23.5 -58t68.5 -22t68.5 22t23.5 58v211q-94 -41 -139 -79.5t-45 -88.5v-43z M1077 731h185v129q0 30 -27 50t-66 20t-65.5 -20t-26.5 -50v-129z" />
<glyph unicode="&#xe7;" horiz-adv-x="1155" d="M61 344v522q0 103 71 187t191.5 131t264.5 47t264.5 -47t191 -131t70.5 -187v-108h-434v112q0 31 -27 51.5t-65 20.5t-65 -20.5t-27 -51.5v-532q0 -30 26.5 -50t65.5 -20t65.5 20t26.5 50v115h434v-109q0 -147 -136 -247.5t-339 -114.5l-12 -138q61 41 125 41 q75 0 125.5 -48.5t50.5 -117.5v-231q0 -102 -74.5 -174t-185.5 -72t-185.5 72t-74.5 174v70h215v-64q0 -17 13 -29t32 -12t31 12t12 29v174q0 17 -12 29t-31 12t-32 -12t-13 -29l-215 10l20 318q-163 34 -265 128.5t-102 219.5z" />
<glyph unicode="&#xe8;" horiz-adv-x="1167" d="M61 344v522q0 103 71 187t191.5 131t264.5 47t264 -47t190 -131t70 -187v-338h-616v-190q0 -30 26.5 -50t65.5 -20t65.5 20t26.5 50v63h432v-57q0 -103 -70 -187t-190 -130.5t-264 -46.5t-264.5 46.5t-191.5 130.5t-71 187zM223 1741h406l96 -377h-297zM496 731h184v129 q0 30 -26.5 50t-65.5 20t-65.5 -20t-26.5 -50v-129z" />
<glyph unicode="&#xe9;" horiz-adv-x="1167" d="M61 344v522q0 103 71 187t191.5 131t264.5 47t264 -47t190 -131t70 -187v-338h-616v-190q0 -30 26.5 -50t65.5 -20t65.5 20t26.5 50v63h432v-57q0 -103 -70 -187t-190 -130.5t-264 -46.5t-264.5 46.5t-191.5 130.5t-71 187zM430 1364l96 377h406l-205 -377h-297zM496 731 h184v129q0 30 -26.5 50t-65.5 20t-65.5 -20t-26.5 -50v-129z" />
<glyph unicode="&#xea;" horiz-adv-x="1167" d="M61 344v522q0 103 71 187t191.5 131t264.5 47t264 -47t190 -131t70 -187v-338h-616v-190q0 -30 26.5 -50t65.5 -20t65.5 20t26.5 50v63h432v-57q0 -103 -70 -187t-190 -130.5t-264 -46.5t-264.5 46.5t-191.5 130.5t-71 187zM98 1364l238 377h510l237 -377h-329l-164 180 l-162 -180h-330zM496 731h184v129q0 30 -26.5 50t-65.5 20t-65.5 -20t-26.5 -50v-129z" />
<glyph unicode="&#xeb;" horiz-adv-x="1167" d="M61 344v522q0 103 71 187t191.5 131t264.5 47t264 -47t190 -131t70 -187v-338h-616v-190q0 -30 26.5 -50t65.5 -20t65.5 20t26.5 50v63h432v-57q0 -103 -70 -187t-190 -130.5t-264 -46.5t-264.5 46.5t-191.5 130.5t-71 187zM131 1366v375h379v-375h-379zM496 731h184v129 q0 30 -26.5 50t-65.5 20t-65.5 -20t-26.5 -50v-129zM674 1366v375h379v-375h-379z" />
<glyph unicode="&#xec;" horiz-adv-x="581" d="M-68 1741h406l96 -377h-297zM74 0v1208h434v-1208h-434z" />
<glyph unicode="&#xed;" horiz-adv-x="581" d="M74 0v1208h434v-1208h-434zM139 1364l97 377h405l-205 -377h-297z" />
<glyph unicode="&#xee;" horiz-adv-x="581" d="M-201 1364l238 377h510l237 -377h-329l-164 180l-162 -180h-330zM74 0v1208h434v-1208h-434z" />
<glyph unicode="&#xef;" horiz-adv-x="581" d="M-176 1366v375h379v-375h-379zM74 0v1208h434v-1208h-434zM367 1366v375h378v-375h-378z" />
<glyph unicode="&#xf1;" horiz-adv-x="1193" d="M70 1354q0 178 93 276.5t261 98.5q54 0 103.5 -15t80 -32.5t67.5 -32.5t70 -15q60 0 97 27t37 68h284q0 -178 -93 -276.5t-261 -98.5q-54 0 -103.5 14.5t-80 31.5t-68 31.5t-70.5 14.5q-61 0 -97 -26t-36 -66h-284zM74 0v1208h399l21 -94q56 54 123 85.5t167 31.5 q154 0 248 -76.5t94 -179.5v-975h-434v870q0 30 -26.5 50t-65.5 20t-65.5 -20t-26.5 -50v-870h-434z" />
<glyph unicode="&#xf2;" horiz-adv-x="1173" d="M61 332v545q0 115 72 196.5t188.5 119.5t264.5 38q149 0 265.5 -38t188.5 -119.5t72 -196.5v-545q0 -115 -72 -196t-188.5 -118.5t-265.5 -37.5q-148 0 -264.5 37.5t-188.5 118.5t-72 196zM223 1741h406l96 -377h-297zM494 338q0 -30 26.5 -50t65.5 -20t65.5 20t26.5 50 v532q0 30 -26.5 50t-65.5 20t-65.5 -20t-26.5 -50v-532z" />
<glyph unicode="&#xf3;" horiz-adv-x="1173" d="M61 332v545q0 115 72 196.5t188.5 119.5t264.5 38q149 0 265.5 -38t188.5 -119.5t72 -196.5v-545q0 -115 -72 -196t-188.5 -118.5t-265.5 -37.5q-148 0 -264.5 37.5t-188.5 118.5t-72 196zM430 1364l96 377h406l-205 -377h-297zM494 338q0 -30 26.5 -50t65.5 -20t65.5 20 t26.5 50v532q0 30 -26.5 50t-65.5 20t-65.5 -20t-26.5 -50v-532z" />
<glyph unicode="&#xf4;" horiz-adv-x="1173" d="M61 332v545q0 115 72 196.5t188.5 119.5t264.5 38q149 0 265.5 -38t188.5 -119.5t72 -196.5v-545q0 -115 -72 -196t-188.5 -118.5t-265.5 -37.5q-148 0 -264.5 37.5t-188.5 118.5t-72 196zM94 1364l238 377h510l237 -377h-329l-164 180l-162 -180h-330zM494 338 q0 -30 26.5 -50t65.5 -20t65.5 20t26.5 50v532q0 30 -26.5 50t-65.5 20t-65.5 -20t-26.5 -50v-532z" />
<glyph unicode="&#xf5;" horiz-adv-x="1173" d="M41 1354q0 178 93 276.5t261 98.5q54 0 103.5 -15t80 -32.5t68 -32.5t70.5 -15q60 0 96.5 27t36.5 68h285q0 -178 -93.5 -276.5t-261.5 -98.5q-68 0 -127 23t-106.5 46t-87.5 23q-61 0 -97 -26t-36 -66h-285zM61 332v545q0 115 72 196.5t188.5 119.5t264.5 38 q149 0 265.5 -38t188.5 -119.5t72 -196.5v-545q0 -115 -72 -196t-188.5 -118.5t-265.5 -37.5q-148 0 -264.5 37.5t-188.5 118.5t-72 196zM494 338q0 -30 26.5 -50t65.5 -20t65.5 20t26.5 50v532q0 30 -26.5 50t-65.5 20t-65.5 -20t-26.5 -50v-532z" />
<glyph unicode="&#xf6;" horiz-adv-x="1173" d="M61 332v545q0 115 72 196.5t188.5 119.5t264.5 38q149 0 265.5 -38t188.5 -119.5t72 -196.5v-545q0 -115 -72 -196t-188.5 -118.5t-265.5 -37.5q-148 0 -264.5 37.5t-188.5 118.5t-72 196zM119 1366v375h379v-375h-379zM494 338q0 -30 26.5 -50t65.5 -20t65.5 20t26.5 50 v532q0 30 -26.5 50t-65.5 20t-65.5 -20t-26.5 -50v-532zM662 1366v375h378v-375h-378z" />
<glyph unicode="&#xf8;" horiz-adv-x="1173" d="M61 334v543q0 115 72 196.5t188.5 119.5t264.5 38q84 0 178 -17l18 58h289l-55 -174q96 -87 96 -221v-543q0 -116 -72 -197.5t-188.5 -119t-265.5 -37.5q-87 0 -178 16l-17 -57h-289l56 172q-97 87 -97 223zM494 338q0 -30 26.5 -50t65.5 -20t65.5 20t26.5 50v532 q0 31 -27 51.5t-65 20.5t-65 -20.5t-27 -51.5v-532z" />
<glyph unicode="&#xf9;" d="M68 236v972h434v-870q0 -30 26.5 -50t63.5 -20q39 0 65.5 20t26.5 50v870h434v-1208h-399l-19 94q-110 -114 -290 -114q-145 0 -243.5 70t-98.5 186zM223 1741h406l96 -377h-297z" />
<glyph unicode="&#xfa;" d="M68 236v972h434v-870q0 -30 26.5 -50t63.5 -20q39 0 65.5 20t26.5 50v870h434v-1208h-399l-19 94q-110 -114 -290 -114q-145 0 -243.5 70t-98.5 186zM442 1364l97 377h405l-205 -377h-297z" />
<glyph unicode="&#xfb;" d="M68 236v972h434v-870q0 -30 26.5 -50t63.5 -20q39 0 65.5 20t26.5 50v870h434v-1208h-399l-19 94q-110 -114 -290 -114q-145 0 -243.5 70t-98.5 186zM98 1364l238 377h510l237 -377h-329l-164 180l-162 -180h-330z" />
<glyph unicode="&#xfc;" d="M68 236v972h434v-870q0 -30 26.5 -50t63.5 -20q39 0 65.5 20t26.5 50v870h434v-1208h-399l-19 94q-110 -114 -290 -114q-145 0 -243.5 70t-98.5 186zM131 1366v375h379v-375h-379zM674 1366v375h379v-375h-379z" />
<glyph unicode="&#xff;" horiz-adv-x="1167" d="M31 1208h434l141 -620l142 620h434l-469 -1435q-34 -105 -126.5 -163.5t-211.5 -58.5h-260v297h133q74 0 90 50l76 172zM135 1366v375h379v-375h-379zM678 1366v375h379v-375h-379z" />
<glyph unicode="&#x152;" horiz-adv-x="1550" d="M61 340v958q0 151 113.5 245.5t276.5 94.5h1048v-321h-426v-322h281v-311h-281v-340h426v-344h-1048q-163 0 -276.5 94.5t-113.5 245.5zM475 395q0 -34 19 -48.5t57 -14.5h82v975h-82q-76 0 -76 -66v-846z" />
<glyph unicode="&#x153;" horiz-adv-x="1783" d="M61 332v545q0 115 72 196t188.5 118.5t264.5 37.5q86 0 176 -28.5t133 -72.5q43 44 133 72.5t176 28.5q144 0 264 -46.5t190.5 -130t70.5 -186.5v-338h-617v-190q0 -30 26.5 -50t65.5 -20t65.5 20t26.5 50v63h433v-59q0 -155 -152.5 -258.5t-372.5 -103.5 q-87 0 -176.5 28t-132.5 72q-43 -44 -132.5 -72t-176.5 -28q-148 0 -264.5 37.5t-188.5 118.5t-72 196zM494 338q0 -30 26.5 -50t65.5 -20t65.5 20t26.5 50v532q0 30 -26.5 50t-65.5 20t-65.5 -20t-26.5 -50v-532zM1112 731h184v129q0 30 -26.5 50t-65.5 20t-65.5 -20 t-26.5 -50v-129z" />
<glyph unicode="&#x178;" horiz-adv-x="1220" d="M0 1638h453l180 -546l160 546h434l-402 -931v-707h-440v707zM160 1776v374h379v-374h-379zM702 1776v374h379v-374h-379z" />
<glyph unicode="&#x2c6;" horiz-adv-x="1058" d="M37 1262l237 376h510l238 -376h-330l-164 180l-161 -180h-330z" />
<glyph unicode="&#x2dc;" d="M57 1264q0 178 93.5 276t261.5 98q68 0 127 -23.5t106.5 -47t87.5 -23.5q60 0 96.5 26.5t36.5 67.5h285q0 -178 -93 -276t-261 -98q-54 0 -103.5 14.5t-80 31.5t-68 31.5t-70.5 14.5q-61 0 -97 -26t-36 -66h-285z" />
<glyph unicode="&#x2000;" horiz-adv-x="1075" />
<glyph unicode="&#x2001;" horiz-adv-x="2150" />
<glyph unicode="&#x2002;" horiz-adv-x="1075" />
<glyph unicode="&#x2003;" horiz-adv-x="2150" />
<glyph unicode="&#x2004;" horiz-adv-x="716" />
<glyph unicode="&#x2005;" horiz-adv-x="537" />
<glyph unicode="&#x2006;" horiz-adv-x="358" />
<glyph unicode="&#x2007;" horiz-adv-x="358" />
<glyph unicode="&#x2008;" horiz-adv-x="268" />
<glyph unicode="&#x2009;" horiz-adv-x="430" />
<glyph unicode="&#x200a;" horiz-adv-x="119" />
<glyph unicode="&#x2010;" horiz-adv-x="739" d="M74 614v334h592v-334h-592z" />
<glyph unicode="&#x2011;" horiz-adv-x="739" d="M74 614v334h592v-334h-592z" />
<glyph unicode="&#x2012;" horiz-adv-x="739" d="M74 614v334h592v-334h-592z" />
<glyph unicode="&#x2013;" horiz-adv-x="1171" d="M74 614v334h1024v-334h-1024z" />
<glyph unicode="&#x2014;" horiz-adv-x="2195" d="M74 614v334h2048v-334h-2048z" />
<glyph unicode="&#x2018;" horiz-adv-x="542" d="M74 1141v375l284 206h131l-184 -206h164v-375h-395z" />
<glyph unicode="&#x2019;" horiz-adv-x="542" d="M53 1057l185 207h-164v374h395v-374l-285 -207h-131z" />
<glyph unicode="&#x201a;" horiz-adv-x="544" d="M53 -205l187 205h-166v375h397v-375l-287 -205h-131z" />
<glyph unicode="&#x201c;" horiz-adv-x="1040" d="M74 1141v375l284 206h131l-184 -206h164v-375h-395zM569 1141v375l287 206h131l-186 -206h166v-375h-398z" />
<glyph unicode="&#x201d;" horiz-adv-x="1038" d="M53 1057l185 207h-164v374h395v-374l-285 -207h-131zM549 1057l186 207h-166v374h396v-374l-285 -207h-131z" />
<glyph unicode="&#x201e;" horiz-adv-x="1038" d="M53 -207l185 207h-164v375h395v-375l-285 -207h-131zM549 -207l186 207h-166v375h396v-375l-285 -207h-131z" />
<glyph unicode="&#x2022;" horiz-adv-x="518" d="M31 819q0 95 67 161.5t162 66.5q94 0 160.5 -66.5t66.5 -161.5q0 -94 -66.5 -160.5t-160.5 -66.5q-95 0 -162 66.5t-67 160.5z" />
<glyph unicode="&#x2026;" horiz-adv-x="1730" d="M74 0v375h395v-375h-395zM668 0v375h395v-375h-395zM1262 0v375h395v-375h-395z" />
<glyph unicode="&#x202f;" horiz-adv-x="430" />
<glyph unicode="&#x2039;" horiz-adv-x="774" d="M51 604l221 604h443l-230 -604l230 -604h-443z" />
<glyph unicode="&#x203a;" horiz-adv-x="776" d="M59 0l232 604l-232 604h443l223 -604l-223 -604h-443z" />
<glyph unicode="&#x205f;" horiz-adv-x="537" />
<glyph unicode="&#x2122;" horiz-adv-x="2080" d="M55 1401v237h793v-237h-242v-551h-311v551h-240zM948 850v788h434l99 -346l100 346h444v-788h-311v502l-133 -502h-238l-151 502v-502h-244z" />
<glyph unicode="&#x25fc;" horiz-adv-x="1208" d="M0 0v1208h1208v-1208h-1208z" />
<glyph unicode="&#xfb01;" horiz-adv-x="1441" d="M53 932v276h160v70q0 165 102 262.5t297 97.5h238v-297h-113q-36 0 -63 -28t-27 -62v-43h203v-276h-203v-932h-434v932h-160zM934 0v1208h434v-1208h-434zM934 1343v295h434v-295h-434z" />
<glyph unicode="&#xfb02;" horiz-adv-x="1441" d="M53 932v276h160v70q0 165 102 262.5t297 97.5h238v-297h-113q-36 0 -63 -28t-27 -62v-43h203v-276h-203v-932h-434v932h-160zM934 0v1638h432v-1638h-432z" />
</font>
</defs>
</svg>
