<?xml version="1.0" standalone="no"?>
<!DOCTYPE svg PUBLIC "-//W3C//DTD SVG 1.1//EN" "http://www.w3.org/Graphics/SVG/1.1/DTD/svg11.dtd" >
<svg xmlns="http://www.w3.org/2000/svg">
<metadata></metadata>
<defs>
<font id="champion_htf-welterweightRg" horiz-adv-x="1038" >
<font-face units-per-em="2048" ascent="1638" descent="-410" />
<missing-glyph horiz-adv-x="358" />
<glyph horiz-adv-x="2048" />
<glyph horiz-adv-x="2048" />
<glyph unicode="&#xd;" horiz-adv-x="2048" />
<glyph unicode=" "  horiz-adv-x="358" />
<glyph unicode="&#x09;" horiz-adv-x="358" />
<glyph unicode="&#xa0;" horiz-adv-x="358" />
<glyph unicode="!" horiz-adv-x="526" d="M82 1133v505h362v-505l-82 -676h-198zM96 0v334h330v-334h-330z" />
<glyph unicode="&#x22;" horiz-adv-x="917" d="M57 1100l156 205h-139v333h332v-333l-240 -205h-109zM496 1100l155 205h-137v333h330v-333l-238 -205h-110z" />
<glyph unicode="#" horiz-adv-x="1482" d="M29 342v322h221l47 311h-172v323h221l53 340h383l-51 -340h197l53 340h342l-51 -340h172v-323h-221l-49 -311h172v-322h-220l-53 -342h-342l51 342h-196l-54 -342h-385l54 342h-172zM633 664h198l50 311h-199z" />
<glyph unicode="$" horiz-adv-x="1001" d="M45 334v196h332v-131q0 -47 30.5 -77.5t84.5 -30.5q104 0 104 108q0 39 -11.5 72t-42.5 69.5t-56 60.5t-83.5 75t-93.5 84q-127 119 -189.5 237t-62.5 254q0 145 84.5 257t239.5 147v162h274v-168q125 -40 203 -139t78 -203v-199h-330v147q0 41 -26.5 68t-63.5 27 t-67.5 -27.5t-30.5 -67.5q0 -34 3.5 -59.5t17 -53.5t27.5 -49t48 -55.5t64.5 -63t89.5 -81.5q288 -258 288 -504q0 -150 -87.5 -263t-245.5 -144v-164h-273v170q-142 36 -223.5 130.5t-81.5 215.5z" />
<glyph unicode="%" horiz-adv-x="2058" d="M61 1028v330q0 88 60 158t152.5 106.5t195.5 36.5q102 0 194 -36.5t151.5 -107t59.5 -157.5v-330q0 -88 -59.5 -159t-151.5 -107.5t-194 -36.5q-103 0 -195.5 36.5t-152.5 107.5t-60 159zM403 0l936 1638h316l-936 -1638h-316zM406 1022q0 -29 17.5 -44t45.5 -15t45.5 15 t17.5 44v342q0 29 -17.5 44t-45.5 15t-45.5 -15t-17.5 -44v-342zM1184 281v331q0 88 60 158t152 106.5t195 36.5q102 0 194 -36.5t152 -107t60 -157.5v-331q0 -87 -60 -157.5t-152 -107t-194 -36.5q-103 0 -195 36.5t-152 106.5t-60 158zM1526 276q0 -29 18 -44t47 -15 q28 0 46 15t18 44v340q0 29 -18 44.5t-46 15.5q-29 0 -47 -15t-18 -45v-340z" />
<glyph unicode="&#x26;" horiz-adv-x="1564" d="M27 414q0 84 26.5 156.5t77 130t106.5 101t130 85.5q-48 80 -71.5 124.5t-43 109.5t-19.5 132q0 127 66.5 223t173 144.5t234.5 48.5q190 0 322 -108.5t132 -247.5q0 -77 -15.5 -141t-53.5 -129t-107.5 -124.5t-171.5 -113.5q30 -74 113 -213q90 103 90 233h350 q-6 -136 -64.5 -249t-189.5 -228q14 -25 30.5 -36t51.5 -11q41 0 63.5 24t22.5 68v53h268v-124q0 -164 -95.5 -258.5t-256.5 -94.5q-73 0 -171 34.5t-155 84.5q-142 -119 -348 -119q-135 0 -247 53.5t-180 156.5t-68 235zM403 438q0 -62 40 -99.5t118 -37.5q37 0 59.5 12 t49.5 39q-66 74 -102 127.5t-70 128.5q-95 -73 -95 -170zM610 1243q0 -39 10.5 -73t21.5 -53t42 -66q44 29 70 54t37 53t13.5 49t2.5 61q0 38 -23 58t-63 20q-48 0 -79.5 -28.5t-31.5 -74.5z" />
<glyph unicode="'" horiz-adv-x="479" d="M57 1100l156 205h-139v333h332v-333l-240 -205h-109z" />
<glyph unicode="(" horiz-adv-x="770" d="M61 612q0 371 174.5 687t456.5 493l78 -82q-159 -159 -247.5 -449.5t-88.5 -648.5q0 -355 88.5 -644.5t247.5 -448.5l-78 -82q-282 177 -456.5 490.5t-174.5 684.5z" />
<glyph unicode=")" horiz-adv-x="770" d="M0 -481q159 159 247.5 448.5t88.5 644.5q0 358 -88.5 648.5t-247.5 449.5l78 82q282 -177 456.5 -493t174.5 -687t-174.5 -684.5t-456.5 -490.5z" />
<glyph unicode="*" horiz-adv-x="1062" d="M37 1044l123 72l125 39l-125 39l-123 72l151 262l123 -70l97 -88l-29 127v141h303v-141l-27 -127l97 88l122 70l152 -262l-123 -70l-125 -41l125 -39l123 -72l-152 -262l-122 72l-97 86l29 -127v-141h-303v141l27 129l-97 -88l-123 -72z" />
<glyph unicode="+" horiz-adv-x="1005" d="M74 614v312h268v268h322v-268h268v-312h-268v-268h-322v268h-268z" />
<glyph unicode="," horiz-adv-x="477" d="M57 -205l156 205h-139v334h329v-334l-237 -205h-109z" />
<glyph unicode="-" horiz-adv-x="614" d="M74 614v314h467v-314h-467z" />
<glyph unicode="." horiz-adv-x="477" d="M74 0v334h329v-334h-329z" />
<glyph unicode="/" horiz-adv-x="890" d="M74 0l481 1638h377l-481 -1638h-377z" />
<glyph unicode="0" d="M61 332v975q0 62 35.5 126.5t95 117t146.5 85.5t182 33q94 0 180.5 -33t146 -85.5t95 -117t35.5 -126.5v-975q0 -62 -35.5 -126.5t-95 -117t-146 -86t-180.5 -33.5q-95 0 -182 33.5t-146.5 86t-95 117t-35.5 126.5zM442 360q0 -31 22.5 -50t55.5 -19q32 0 54 19t22 50 v918q0 31 -22 50.5t-54 19.5q-33 0 -55.5 -19.5t-22.5 -50.5v-918z" />
<glyph unicode="1" horiz-adv-x="884" d="M98 1186v211q118 17 193.5 80t97.5 161h273v-1638h-363v1186h-201z" />
<glyph unicode="2" horiz-adv-x="993" d="M55 0q0 199 74 406t213 389q31 40 79 101t67.5 86.5t48 67t38.5 68t18.5 61.5t8.5 74q0 46 -24 70.5t-64 24.5q-39 0 -61.5 -24.5t-22.5 -70.5v-135h-362v189q0 63 32 127t87.5 116.5t139 85.5t177.5 33q115 0 205.5 -34t146.5 -92.5t84.5 -133.5t28.5 -160 q0 -72 -18 -138t-63.5 -142t-76.5 -119.5t-103 -136.5q-5 -7 -8.5 -11.5t-7.5 -9.5q-87 -113 -122 -181t-70 -187h415v-324h-860z" />
<glyph unicode="3" horiz-adv-x="1013" d="M45 311v129h381v-90q0 -21 23 -40t53 -19q31 0 54.5 19t23.5 40v299q0 20 -23 34.5t-55 14.5h-170v263h170q32 0 55 14.5t23 34.5v278q0 21 -23.5 40.5t-54.5 19.5q-30 0 -53 -19.5t-23 -40.5v-90h-381v129q0 83 59 161.5t166 129.5t232 51t232.5 -51t167 -129.5 t59.5 -161.5v-299q0 -61 -38.5 -121.5t-115.5 -77.5q53 -13 89.5 -49t50.5 -74.5t14 -76.5v-318q0 -83 -59.5 -161.5t-167 -129.5t-232.5 -51t-232 51t-166 129.5t-59 161.5z" />
<glyph unicode="4" horiz-adv-x="1003" d="M35 266v234l530 1138h289v-1108h115v-264h-115v-266h-330v266h-489zM381 530h143v332z" />
<glyph unicode="5" horiz-adv-x="1017" d="M61 311v150h361v-111q0 -21 23 -40t53 -19q31 0 54 19t23 40v414q0 21 -23 40t-54 19q-30 0 -53 -19t-23 -40l-361 10l62 864h809q0 -115 -54.5 -192.5t-117.5 -77.5h-307l-23 -326q111 52 215 52q127 0 219 -78.5t92 -167.5v-537q0 -62 -35.5 -123.5t-95.5 -110 t-146.5 -78.5t-180.5 -30t-177.5 30t-139 78.5t-88 110t-32.5 123.5z" />
<glyph unicode="6" d="M61 311v1016q0 83 59 161.5t166 129.5t232 51t232.5 -51t167 -129.5t59.5 -161.5v-129h-381v90q0 21 -23.5 40.5t-54.5 19.5q-30 0 -53 -19.5t-23 -40.5v-299q41 28 102.5 45t121.5 17q129 0 220 -68.5t91 -155.5v-516q0 -83 -59.5 -161.5t-167 -129.5t-232.5 -51 t-232 51t-166 129.5t-59 161.5zM442 350q0 -21 23 -40t53 -19q31 0 54.5 19t23.5 40v350q0 22 -23.5 41t-54.5 19q-30 0 -53 -19t-23 -41v-350z" />
<glyph unicode="7" horiz-adv-x="937" d="M68 1348v290h847l-464 -1638h-363l399 1348h-419z" />
<glyph unicode="8" d="M61 311v297q0 57 58 129.5t137 91.5q-79 17 -137 90t-58 130v278q0 83 59 161.5t166 129.5t232 51t232.5 -51t167 -129.5t59.5 -161.5v-278q0 -57 -59 -130t-138 -90q79 -19 138 -91.5t59 -129.5v-297q0 -83 -59.5 -161.5t-167 -129.5t-232.5 -51t-232 51t-166 129.5 t-59 161.5zM442 350q0 -21 23 -40t53 -19q31 0 54.5 19t23.5 40v281q0 21 -23.5 40t-54.5 19q-30 0 -53 -19t-23 -40v-281zM442 1028q0 -21 23 -40t53 -19q31 0 54.5 19t23.5 40v260q0 21 -23.5 40.5t-54.5 19.5q-30 0 -53 -19.5t-23 -40.5v-260z" />
<glyph unicode="9" d="M61 311v129h381v-90q0 -21 23.5 -40t54.5 -19q30 0 53 19t23 40v299q-41 -28 -102 -44.5t-121 -16.5q-129 0 -220.5 68t-91.5 155v516q0 83 59.5 161.5t167 129.5t232.5 51t232 -51t166 -129.5t59 -161.5v-1016q0 -83 -59 -161.5t-166 -129.5t-232 -51t-232.5 51 t-167 129.5t-59.5 161.5zM442 938q0 -22 23.5 -40.5t54.5 -18.5q30 0 53 18.5t23 40.5v350q0 21 -23 40.5t-53 19.5q-31 0 -54.5 -19.5t-23.5 -40.5v-350z" />
<glyph unicode=":" horiz-adv-x="477" d="M74 0v334h329v-334h-329zM74 707v333h329v-333h-329z" />
<glyph unicode=";" horiz-adv-x="479" d="M57 -205l156 205h-139v334h332v-334l-240 -205h-109zM74 709v331h332v-331h-332z" />
<glyph unicode="&#x3c;" horiz-adv-x="952" d="M61 770l566 709l274 -191l-405 -518l405 -516l-274 -191z" />
<glyph unicode="=" horiz-adv-x="927" d="M74 377v313h780v-313h-780zM74 856v311h780v-311h-780z" />
<glyph unicode="&#x3e;" horiz-adv-x="952" d="M51 254l406 516l-406 518l275 191l565 -709l-565 -707z" />
<glyph unicode="?" horiz-adv-x="1001" d="M51 1128v199q0 62 32.5 123.5t88.5 110t139.5 78.5t177.5 30q217 0 344.5 -113.5t127.5 -285.5q0 -61 -21 -118.5t-54.5 -102.5t-74.5 -88.5t-81.5 -84.5t-74 -82t-54.5 -90t-21 -100q0 -12 2.5 -26.5t8 -32t10 -29.5t12.5 -32t10 -27h-347q-49 112 -49 174 q0 70 20 132.5t52.5 109.5t71.5 89t78.5 80t72 74.5t52.5 79.5t20 88q0 36 -27.5 60t-66.5 24t-68 -24t-29 -60v-156h-352zM291 0v334h330v-334h-330z" />
<glyph unicode="@" horiz-adv-x="1732" d="M61 829q0 181 65.5 340t177.5 270t265 175.5t322 64.5q161 0 306 -57.5t248.5 -154t164.5 -229t61 -277.5q0 -164 -57 -294t-171 -207t-267 -77q-212 0 -258 133q-30 -55 -95.5 -87t-120.5 -32q-78 0 -125 54t-36 131l71 471q10 75 74.5 128.5t142.5 53.5q47 0 84 -20 t58 -54l8 53h242l-76 -483q-10 -66 15 -104.5t73 -38.5q90 0 138 100t48 266q0 209 -142.5 347.5t-385.5 138.5q-252 0 -404.5 -164t-152.5 -447q0 -287 150 -447.5t407 -160.5q206 0 364 94l123 -176q-215 -159 -487 -159q-169 0 -322 64t-265 175.5t-177.5 270 t-65.5 339.5zM793 653q-3 -21 9.5 -35t33.5 -14q22 0 39 14t20 35l49 328q3 20 -10 34.5t-35 14.5q-20 0 -37 -14.5t-20 -34.5z" />
<glyph unicode="A" horiz-adv-x="952" d="M0 0l248 1638h450l254 -1638h-389l-18 236h-183l-28 -236h-334zM406 567h106l-41 518z" />
<glyph unicode="B" horiz-adv-x="1015" d="M74 0v1638h522q71 0 135 -18t117.5 -53t85 -94t31.5 -134v-315q0 -58 -38 -108t-110 -82q72 -32 110 -81.5t38 -109.5v-344q0 -75 -31.5 -134t-85 -94t-117.5 -53t-135 -18h-522zM451 309h94q65 0 65 66v233q0 64 -65 64h-94v-363zM451 975h94q65 0 65 63v224 q0 65 -65 65h-94v-352z" />
<glyph unicode="C" horiz-adv-x="1015" d="M61 311v1016q0 62 34 123.5t93.5 110t147.5 78.5t188 30q98 0 184.5 -30t143.5 -78.5t90 -110t33 -123.5v-315h-373v266q0 31 -22.5 50.5t-55.5 19.5q-36 0 -59 -19t-23 -51v-918q0 -32 23 -50.5t59 -18.5q33 0 55.5 19t22.5 50v267h373v-316q0 -62 -33 -123.5t-90 -110 t-143.5 -78.5t-184.5 -30q-100 0 -188 30t-147.5 78.5t-93.5 110t-34 123.5z" />
<glyph unicode="D" horiz-adv-x="1005" d="M74 0v1638h504q71 0 133.5 -17.5t116 -53t85 -99.5t31.5 -149v-1000q0 -85 -31.5 -149t-85 -99.5t-116 -53t-133.5 -17.5h-504zM451 309h73q66 0 66 66v887q0 65 -66 65h-73v-1018z" />
<glyph unicode="E" horiz-adv-x="862" d="M74 0v1638h741v-290h-364v-353h241v-311h-241v-373h364v-311h-741z" />
<glyph unicode="F" horiz-adv-x="847" d="M74 0v1638h741v-290h-364v-373h272v-303h-272v-672h-377z" />
<glyph unicode="G" d="M61 311v1016q0 62 34.5 123.5t93.5 110t146.5 78.5t186.5 30q132 0 238.5 -51.5t161.5 -129t55 -161.5v-326h-373v277q0 31 -23.5 50.5t-58.5 19.5q-34 0 -57 -19t-23 -51v-938q0 -33 22.5 -51.5t57.5 -18.5t58.5 18.5t23.5 51.5v223h-82v238h482v-801h-226l-49 70 q-37 -40 -107 -70.5t-147 -30.5q-191 0 -302.5 99.5t-111.5 242.5z" />
<glyph unicode="H" horiz-adv-x="1091" d="M74 0v1638h377v-686h188v686h379v-1638h-379v621h-188v-621h-377z" />
<glyph unicode="I" horiz-adv-x="550" d="M86 0v1638h379v-1638h-379z" />
<glyph unicode="J" horiz-adv-x="946" d="M47 311v357h338v-297q0 -32 21 -51t53 -19q31 0 52 19t21 51v1267h347v-1327q0 -62 -31 -123.5t-84.5 -110t-133.5 -78.5t-171 -30q-90 0 -169 30t-131 78.5t-82 110t-30 123.5z" />
<glyph unicode="K" horiz-adv-x="1075" d="M74 0v1638h379v-739l202 739h389l-251 -751l292 -887h-395l-158 598l-79 -209v-389h-379z" />
<glyph unicode="L" horiz-adv-x="856" d="M74 0v1638h377v-1316h364v-322h-741z" />
<glyph unicode="M" horiz-adv-x="1540" d="M74 0v1638h532l162 -747l158 747h540v-1638h-376v1042l-238 -1042h-238l-202 1044v-1044h-338z" />
<glyph unicode="N" horiz-adv-x="1112" d="M74 0v1638h344l284 -804v804h336v-1638h-329l-299 791v-791h-336z" />
<glyph unicode="O" d="M61 332v975q0 62 35.5 126.5t95 117t146.5 85.5t182 33q94 0 180.5 -33t146 -85.5t95 -117t35.5 -126.5v-975q0 -62 -35.5 -126.5t-95 -117t-146 -86t-180.5 -33.5q-95 0 -182 33.5t-146.5 86t-95 117t-35.5 126.5zM442 360q0 -31 22.5 -50t55.5 -19q32 0 54 19t22 50 v918q0 31 -22 50.5t-54 19.5q-33 0 -55.5 -19.5t-22.5 -50.5v-918z" />
<glyph unicode="P" horiz-adv-x="989" d="M74 0v1638h481q71 0 135 -18t117.5 -53t85 -94t31.5 -134v-450q0 -75 -31.5 -134t-85 -94t-117.5 -53t-135 -18h-104v-590h-377zM451 901h53q65 0 65 66v295q0 65 -65 65h-53v-426z" />
<glyph unicode="Q" d="M61 332v973q0 63 35 128t94.5 117t147 85.5t182.5 33.5q94 0 180 -33.5t145.5 -85.5t94.5 -117t35 -128v-973q0 -109 -97 -212t-245 -136q-23 -48 -23 -90q0 -74 64 -74q32 0 48.5 21t16.5 48q0 18 -18 54h164q1 -1 10 -20t12 -27.5t7 -27t4 -36.5q0 -92 -74 -151.5 t-211 -59.5q-147 0 -223 62.5t-76 171.5q0 70 43 135q-136 39 -226 139.5t-90 202.5zM442 360q0 -33 22 -51t56 -18q33 0 54.5 18t21.5 51v918q0 32 -21.5 51t-54.5 19t-55.5 -19.5t-22.5 -50.5v-918z" />
<glyph unicode="R" horiz-adv-x="1034" d="M74 0v1638h526q70 0 133.5 -18t117 -53t85 -94t31.5 -134v-356q0 -59 -37.5 -108.5t-108.5 -81.5q72 -32 113 -83t41 -108v-328q0 -111 47 -274h-354q-47 117 -47 254v334q0 27 -20.5 45t-57.5 18h-92v-651h-377zM451 942h98q63 0 63 66v254q0 65 -63 65h-98v-385z" />
<glyph unicode="S" horiz-adv-x="1001" d="M45 334v196h332v-131q0 -48 30.5 -78t84.5 -30q104 0 104 106q0 33 -10.5 63.5t-25 54t-45 55.5t-55 54t-71.5 64t-80 72q-127 120 -189.5 237t-62.5 252q0 85 29.5 160t85.5 133.5t145 92.5t199 34q90 0 170.5 -33t134 -85.5t84.5 -116.5t31 -127v-199h-330v145 q0 42 -26 68.5t-64 26.5q-37 0 -67.5 -27t-30.5 -68t8 -72.5t20.5 -58.5t47 -64t69 -69.5t105.5 -95.5q288 -262 288 -504q0 -85 -30 -160.5t-85.5 -133.5t-142 -92t-192.5 -34q-209 0 -335 105.5t-126 259.5z" />
<glyph unicode="T" horiz-adv-x="968" d="M41 1348v290h887v-290h-250v-1348h-377v1348h-260z" />
<glyph unicode="U" horiz-adv-x="1032" d="M68 311v1327h381v-1278q0 -31 22 -50t55 -19q32 0 54 19t22 50v1278h363v-1327q0 -131 -126 -236.5t-313 -105.5q-95 0 -181.5 30t-146.5 78.5t-95 110t-35 123.5z" />
<glyph unicode="V" horiz-adv-x="962" d="M0 1638h393l96 -915l111 915h363l-308 -1638h-348z" />
<glyph unicode="W" horiz-adv-x="1490" d="M0 1638h389l113 -841l116 841h261l116 -841l129 841h357l-295 -1638h-316l-120 733l-123 -733h-332z" />
<glyph unicode="X" horiz-adv-x="1028" d="M8 0l295 821l-274 817h377l116 -432l133 432h363l-293 -776l281 -862h-377l-123 432l-137 -432h-361z" />
<glyph unicode="Y" horiz-adv-x="1021" d="M-10 1638h379l149 -546l133 546h361l-326 -931v-707h-381v707z" />
<glyph unicode="Z" horiz-adv-x="880" d="M14 0l394 1348h-328v290h758l-385 -1327h368v-311h-807z" />
<glyph unicode="[" horiz-adv-x="884" d="M174 -561v2355h741v-291h-364v-1771h364v-293h-741z" />
<glyph unicode="\" horiz-adv-x="890" d="M-41 1638h377l481 -1638h-377z" />
<glyph unicode="]" horiz-adv-x="884" d="M-31 -268h365v1771h-365v291h742v-2355h-742v293z" />
<glyph unicode="^" horiz-adv-x="884" d="M37 1262l258 376h303l258 -376h-248l-162 182l-161 -182h-248z" />
<glyph unicode="_" horiz-adv-x="1171" d="M74 0v313h1024v-313h-1024z" />
<glyph unicode="`" horiz-adv-x="409" d="M14 1638h301l54 -376h-193z" />
<glyph unicode="a" horiz-adv-x="993" d="M35 281v63q0 35 8 65.5t28 59t41 52t61 50.5t72.5 47t91.5 49t102.5 49t119.5 54v143q0 31 -12.5 45.5t-42.5 14.5q-31 0 -42 -14t-11 -46v-84h-375v99q0 135 126 219t312 84q182 0 294 -83t112 -220v-678q0 -151 36 -250h-282l-17 98q-27 -35 -50.5 -56.5t-73 -41.5 t-113.5 -20q-175 0 -280 80t-105 221zM406 307q0 -69 75 -69q78 0 78 69v221q-42 -22 -55 -29t-39.5 -24t-34.5 -27.5t-16 -28t-8 -38.5v-74z" />
<glyph unicode="b" horiz-adv-x="1017" d="M74 0v1638h362v-524l16 16l17.5 17.5t16.5 15.5t19.5 16.5t19.5 13.5t23 13t24 9.5t28.5 9t30.5 4.5t35 2q122 0 203 -55.5t81 -149.5v-844q0 -94 -80.5 -148t-203.5 -54q-149 0 -242 114l-16 -94h-334zM436 297q0 -29 21.5 -44t54.5 -15q34 0 56 15t22 44v616 q0 29 -22 44.5t-56 15.5q-33 0 -54.5 -15.5t-21.5 -44.5v-616z" />
<glyph unicode="c" horiz-adv-x="978" d="M61 281v647q0 135 126.5 219t312.5 84t312 -84t126 -219v-170h-360v155q0 29 -22 44.5t-56 15.5q-33 0 -54.5 -15.5t-21.5 -44.5v-616q0 -29 21.5 -44t54.5 -15q34 0 56 15t22 44v156h360v-172q0 -89 -59 -158t-158.5 -106t-220.5 -37t-220.5 37t-159 106t-59.5 158z" />
<glyph unicode="d" horiz-adv-x="1017" d="M68 182v844q0 94 81.5 149.5t204.5 55.5q53 0 98 -18t66 -36t56 -53l10 -10v524h360v-1638h-332l-16 94q-97 -114 -242 -114q-123 0 -204.5 54t-81.5 148zM430 297q0 -29 21.5 -44t54.5 -15q34 0 56 15t22 44v616q0 29 -22 44.5t-56 15.5q-33 0 -54.5 -15.5t-21.5 -44.5 v-616z" />
<glyph unicode="e" horiz-adv-x="993" d="M61 281v647q0 135 126.5 219t312.5 84t312 -84t126 -219v-400h-514v-231q0 -29 21.5 -44t54.5 -15q34 0 56 15t22 44v104h360v-120q0 -89 -59 -158t-158.5 -106t-220.5 -37t-220.5 37t-159 106t-59.5 158zM424 741h154v172q0 29 -22 44.5t-56 15.5q-33 0 -54.5 -15.5 t-21.5 -44.5v-172z" />
<glyph unicode="f" horiz-adv-x="692" d="M41 963v245h117v103q0 139 100 233t250 94h164v-276h-76q-32 0 -55 -23t-23 -57v-74h154v-245h-154v-963h-360v963h-117z" />
<glyph unicode="g" horiz-adv-x="1028" d="M16 281q0 82 60.5 128t154.5 54q-81 22 -125.5 94t-44.5 162v211q0 134 126 217.5t311 83.5q21 0 60 -3t50 -3q93 0 126.5 23t33.5 67h299q10 -36 10 -76q0 -69 -42.5 -105t-110.5 -36q-16 0 -62 8q74 -71 74 -176v-205q0 -136 -126.5 -224.5t-311.5 -88.5h-41 q-62 -17 -62 -80q0 -29 36 -55.5t73 -26.5q217 0 340 -71t123 -206v-141q0 -152 -123.5 -226.5t-345.5 -74.5q-132 0 -232.5 30.5t-163.5 99.5t-63 171v117q0 64 35.5 113t91.5 75q-68 19 -109 55t-41 89zM412 -66v-86q0 -34 27 -53.5t77 -19.5q49 0 78 19.5t29 53.5v86 q0 72 -107 72q-56 0 -80 -18t-24 -54zM422 729q0 -29 21.5 -44t54.5 -15q34 0 55.5 15t21.5 44v197q0 29 -21.5 44t-55.5 15q-33 0 -54.5 -15t-21.5 -44v-197z" />
<glyph unicode="h" horiz-adv-x="1017" d="M74 0v1638h362v-524q35 42 59 63t67.5 37.5t103.5 16.5q122 0 203 -55.5t81 -149.5v-1026h-360v913q0 29 -22 44.5t-56 15.5q-33 0 -54.5 -15.5t-21.5 -44.5v-913h-362z" />
<glyph unicode="i" horiz-adv-x="509" d="M74 0v1208h362v-1208h-362zM74 1366v272h362v-272h-362z" />
<glyph unicode="j" horiz-adv-x="509" d="M-80 -174h78q31 0 53.5 22.5t22.5 57.5v1302h362v-1331q0 -139 -100 -233.5t-250 -94.5h-166v277zM74 1366v272h362v-272h-362z" />
<glyph unicode="k" horiz-adv-x="972" d="M74 0v1638h362v-868l154 440h371l-220 -510l252 -700h-372l-152 442l-33 -88v-354h-362z" />
<glyph unicode="l" horiz-adv-x="509" d="M74 0v1638h362v-1638h-362z" />
<glyph unicode="m" horiz-adv-x="1531" d="M74 0v1208h338l16 -94q93 117 236 117q154 0 258 -144q45 65 104 104.5t154 39.5q122 0 203 -55.5t81 -149.5v-1026h-362v903q0 30 -21 45t-55 15t-55 -15t-21 -45v-903h-362v913q0 29 -21.5 44.5t-54.5 15.5q-34 0 -56 -15.5t-22 -44.5v-913h-360z" />
<glyph unicode="n" horiz-adv-x="1017" d="M74 0v1208h334l16 -94q47 54 102.5 85.5t139.5 31.5q122 0 203 -55.5t81 -149.5v-1026h-360v913q0 29 -22 44.5t-56 15.5q-33 0 -54.5 -15.5t-21.5 -44.5v-913h-362z" />
<glyph unicode="o" horiz-adv-x="999" d="M61 281v647q0 135 126.5 219t312.5 84t312 -84t126 -219v-647q0 -89 -59 -158t-158.5 -106t-220.5 -37t-220.5 37t-159 106t-59.5 158zM424 297q0 -29 21 -44t55 -15t56 15t22 44v616q0 29 -22 44.5t-56 15.5t-55 -15t-21 -45v-616z" />
<glyph unicode="p" horiz-adv-x="1017" d="M74 -451v1659h334l16 -94q94 115 242 115q123 0 203.5 -54.5t80.5 -148.5v-844q0 -94 -80.5 -148t-203.5 -54q-54 0 -99 17.5t-66.5 35t-56.5 53.5l-8 8v-545h-362zM436 297q0 -29 21 -44t55 -15t55 15t21 44v616q0 30 -21 45t-55 15t-55 -15t-21 -45v-616z" />
<glyph unicode="q" horiz-adv-x="1017" d="M68 182v844q0 93 82 148t204 55q144 0 242 -115l16 94h332v-1659h-360v545q-24 -25 -34 -35t-35 -30t-44.5 -28.5t-50.5 -16t-66 -7.5q-123 0 -204.5 55.5t-81.5 149.5zM430 295q0 -29 21.5 -44t54.5 -15q34 0 56 15t22 44v616q0 29 -22 44.5t-56 15.5q-33 0 -54.5 -15.5 t-21.5 -44.5v-616z" />
<glyph unicode="r" horiz-adv-x="759" d="M74 0v1208h344l18 -106q44 63 110.5 96t182.5 33v-291q-151 0 -223 -38t-72 -120v-782h-360z" />
<glyph unicode="s" horiz-adv-x="940" d="M53 281v125h330v-105q0 -31 23.5 -50.5t62.5 -19.5q42 0 63 20.5t21 70.5q0 30 -10 54t-24 41.5t-47 38.5t-62 36.5t-85 43.5l-46 23q-124 60 -172 144t-48 194q0 74 22 131.5t59.5 95t91 62t113.5 35t130 10.5q184 0 298 -83t114 -220v-115h-328v94q0 66 -76 66 q-43 0 -63.5 -20t-20.5 -64q0 -19 3 -33.5t12 -27t17 -21t27.5 -20t34 -18.5t46 -22t53.5 -26q93 -45 156 -97.5t93 -107.5t41 -102.5t11 -102.5q0 -67 -24 -125t-73 -105t-131 -74t-190 -27q-196 0 -309 81.5t-113 219.5z" />
<glyph unicode="t" horiz-adv-x="765" d="M20 963v245h156v209h361v-209h186v-245h-186v-627q0 -26 22 -43t53 -17h95v-276h-172q-164 0 -261.5 91.5t-97.5 215.5v656h-156z" />
<glyph unicode="u" horiz-adv-x="1015" d="M68 182v1026h360v-911q0 -29 22 -44t56 -15q33 0 54.5 15t21.5 44v911h360v-1208h-332l-16 94q-90 -114 -242 -114q-123 0 -203.5 54t-80.5 148z" />
<glyph unicode="v" horiz-adv-x="917" d="M0 1208h346l123 -628l121 628h328l-314 -1208h-293z" />
<glyph unicode="w" horiz-adv-x="1361" d="M0 1208h352l86 -608l117 608h272l117 -608l84 608h354l-309 -1208h-274l-123 569l-125 -569h-275z" />
<glyph unicode="x" horiz-adv-x="1028" d="M25 0l282 600l-282 608h378l101 -319l106 319h377l-285 -563l285 -645h-377l-102 338l-105 -338h-378z" />
<glyph unicode="y" horiz-adv-x="991" d="M35 1208h352l119 -661l117 661h352l-381 -1435q-29 -108 -101.5 -166t-220.5 -58h-178v277h113q60 0 76 49l63 195z" />
<glyph unicode="z" horiz-adv-x="837" d="M33 0l313 963h-280v245h727l-314 -962h314v-246h-760z" />
<glyph unicode="{" horiz-adv-x="808" d="M61 485v263h86q32 0 55 14.5t23 34.5v653q0 63 30 123.5t83 109.5t134 79t175 30h193v-322h-162q-30 0 -53 -18.5t-23 -40.5v-594q0 -38 -14 -76.5t-50 -75t-89 -49.5q53 -12 89 -47.5t50 -74t14 -76.5v-596q0 -23 23 -42.5t53 -19.5h162v-321h-193q-94 0 -175 30.5 t-134 79.5t-83 110t-30 124v653q0 20 -23 34.5t-55 14.5h-86z" />
<glyph unicode="|" horiz-adv-x="550" d="M86 0v1638h379v-1638h-379z" />
<glyph unicode="}" horiz-adv-x="808" d="M-31 -240h162q30 0 53 19.5t23 42.5v596q0 38 14 76.5t50 74t89 47.5q-53 13 -89 49.5t-50 75t-14 76.5v594q0 22 -23 40.5t-53 18.5h-162v322h193q94 0 175 -30t134 -79t83 -109.5t30 -123.5v-653q0 -20 23 -34.5t55 -14.5h86v-263h-86q-32 0 -55 -14.5t-23 -34.5v-653 q0 -63 -30 -124t-83 -110t-134 -79.5t-175 -30.5h-193v321z" />
<glyph unicode="~" horiz-adv-x="931" d="M57 668q0 145 75 224t212 79q55 0 102.5 -23.5t86 -47t71.5 -23.5q109 0 109 94h161q0 -145 -74.5 -224t-211.5 -79q-44 0 -84 14.5t-64.5 32.5t-55 32.5t-56.5 14.5q-109 0 -109 -94h-162z" />
<glyph unicode="&#xa1;" horiz-adv-x="526" d="M82 -92l82 676h198l82 -676v-506h-362v506zM96 707v333h330v-333h-330z" />
<glyph unicode="&#xa2;" horiz-adv-x="978" d="M61 272v650q0 105 80 180.5t211 103.5v176h275v-172q139 -25 225 -101.5t86 -186.5v-162h-360v145q0 29 -22 44.5t-56 15.5q-33 0 -54.5 -15.5t-21.5 -44.5v-616q0 -29 21.5 -44.5t54.5 -15.5q34 0 56 15.5t22 44.5v145h360v-162q0 -110 -86 -186.5t-225 -101.5v-164 h-273v168q-131 29 -212 104t-81 180z" />
<glyph unicode="&#xa3;" horiz-adv-x="1292" d="M8 147q0 99 79 159.5t202 60.5q56 0 117 -21q10 17 32 49t30 47t16 46.5t8 70.5q0 34 -7.5 68t-17.5 47h-291v258h223q-5 9 -30 49.5t-35.5 63.5t-22.5 74t-12 110q0 85 28.5 160t81.5 133.5t138 92.5t190 34t189.5 -30.5t134.5 -81t76 -109.5t26 -121v-199h-348v145 q0 34 -20 54t-58 20q-37 0 -56 -20.5t-19 -53.5q0 -56 11 -110t19 -77t33 -76t27 -58h299v-258h-265q5 0 5 -56q0 -93 -43.5 -176.5t-133.5 -173.5q88 -55 162 -55q65 0 92 31.5t27 91.5v153h348v-155q0 -80 -23 -146.5t-72.5 -121.5t-135.5 -86t-203 -31q-113 0 -205 31.5 t-145 76.5q-40 -51 -101.5 -79.5t-130.5 -28.5q-92 0 -155.5 58.5t-63.5 139.5zM205 176q0 -18 14.5 -30.5t40.5 -12.5q45 0 70 49q-24 39 -72 39q-53 0 -53 -45z" />
<glyph unicode="&#xa5;" horiz-adv-x="1159" d="M53 348v240h318l-31 94h-287v240h195l-195 510h377l166 -465l149 465h361l-201 -510h201v-240h-299l-29 -94h328v-240h-342v-348h-381v348h-330z" />
<glyph unicode="&#xa7;" horiz-adv-x="909" d="M49 1348q0 90 36.5 157t98 103.5t129.5 53.5t144 17q101 0 190.5 -36.5t146 -106.5t56.5 -158v-82h-318v62q0 31 -18.5 48t-50.5 17q-70 0 -70 -84q0 -24 32 -48t128 -70q309 -145 309 -390q0 -76 -30.5 -146t-88.5 -116q134 -124 134 -258q0 -90 -36.5 -157t-98 -103.5 t-129.5 -53.5t-144 -17q-101 0 -190.5 36.5t-146 106.5t-56.5 158v84h317v-64q0 -30 18.5 -46.5t51.5 -16.5q36 0 52.5 20t16.5 64q0 23 -32 46.5t-127 69.5q-310 146 -310 389q0 77 30 148t87 115q-131 125 -131 258zM393 780q0 -29 20.5 -49t49.5 -20t49 20t20 49v99 q0 29 -20 49t-49 20t-49.5 -20t-20.5 -49v-99z" />
<glyph unicode="&#xa8;" horiz-adv-x="931" d="M41 1305v333h330v-333h-330zM559 1305v333h330v-333h-330z" />
<glyph unicode="&#xa9;" horiz-adv-x="1802" d="M61 819q0 114 30 223.5t84.5 201.5t132 169.5t169.5 131.5t201 84t223 30q171 0 327 -66.5t268 -178.5t178.5 -268t66.5 -327t-66.5 -326t-178.5 -267.5t-268 -179t-327 -66.5t-326.5 66.5t-268 179t-179 267.5t-66.5 326zM209 819q0 -188 92.5 -347.5t252 -252 t347.5 -92.5t347.5 92.5t252 252t92.5 347.5t-92.5 347.5t-252 252t-347.5 92.5t-347.5 -92.5t-252 -252t-92.5 -347.5zM532 819q0 164 114.5 279.5t275.5 115.5q144 0 240.5 -93.5t111.5 -237.5h-244q-7 49 -36 74.5t-62 25.5q-41 0 -71 -41t-30 -123t30 -123t71 -41 q33 0 62 26t36 73h244q-15 -142 -112.5 -236t-239.5 -94q-161 0 -275.5 116t-114.5 279z" />
<glyph unicode="&#xaa;" horiz-adv-x="684" d="M35 1098v39q0 33 16 61.5t39.5 50t72.5 48t91.5 45.5t120.5 51v86q0 19 -7.5 26.5t-27.5 7.5q-21 0 -28 -7.5t-7 -26.5v-52h-244v60q0 82 82 132t203 50q119 0 191.5 -49.5t72.5 -132.5v-408q0 -90 25 -149h-184l-11 59q-19 -22 -33.5 -34.5t-47 -24.5t-74.5 -12 q-114 0 -182 47.5t-68 132.5zM276 1114q0 -41 50 -41q49 0 49 41v133q-41 -20 -56 -28.5t-29 -24t-14 -35.5v-45z" />
<glyph unicode="&#xab;" horiz-adv-x="1329" d="M59 604l224 604h401l-231 -604l231 -604h-401zM645 604l221 604h402l-232 -604l232 -604h-402z" />
<glyph unicode="&#xad;" horiz-adv-x="614" d="M74 614v314h467v-314h-467z" />
<glyph unicode="&#xae;" horiz-adv-x="1802" d="M61 819q0 114 30 223.5t84.5 201.5t132 169.5t169.5 131.5t201 84t223 30q171 0 327 -66.5t268 -178.5t178.5 -268t66.5 -327t-66.5 -326t-178.5 -267.5t-268 -179t-327 -66.5t-326.5 66.5t-268 179t-179 267.5t-66.5 326zM209 819q0 -188 92.5 -347.5t252 -252 t347.5 -92.5t347.5 92.5t252 252t92.5 347.5t-92.5 347.5t-252 252t-347.5 92.5t-347.5 -92.5t-252 -252t-92.5 -347.5zM543 444v752h493q111 0 178.5 -56.5t67.5 -133.5q0 -73 -37.5 -123t-101.5 -68q54 -14 96.5 -58t42.5 -126v-62q0 -53 37 -125h-279q-39 56 -39 117v137 q0 16 -10.5 27.5t-27.5 11.5h-123v-293h-297zM840 879h123q16 0 27 14.5t11 30.5t-11 30.5t-27 14.5h-123v-90z" />
<glyph unicode="&#xaf;" horiz-adv-x="714" d="M55 1419v219h604v-219h-604z" />
<glyph unicode="&#xb0;" horiz-adv-x="745" d="M41 1327q0 138 97 235t235 97t235 -97t97 -235t-97 -235t-235 -97t-235 97t-97 235zM213 1327q0 -65 46.5 -112.5t113.5 -47.5q64 0 111.5 47.5t47.5 112.5t-47.5 112.5t-111.5 47.5q-67 0 -113.5 -47.5t-46.5 -112.5z" />
<glyph unicode="&#xb4;" horiz-adv-x="409" d="M33 1262l53 376h301l-162 -376h-192z" />
<glyph unicode="&#xb6;" horiz-adv-x="1359" d="M66 1151q0 115 37.5 210t100 154t139 91t157.5 32h403v-1638h-264v664h-139q-81 0 -157.5 32t-139 91t-100 154t-37.5 210zM1022 0v1638h264v-1638h-264z" />
<glyph unicode="&#xb7;" horiz-adv-x="477" d="M74 707v333h329v-333h-329z" />
<glyph unicode="&#xb8;" horiz-adv-x="530" d="M76 -354h157v-52q0 -12 10 -21t23 -9q12 0 21.5 9t9.5 21v142q0 12 -9.5 21.5t-21.5 9.5q-13 0 -23 -9.5t-10 -21.5l-155 6l14 258h156l-12 -125q45 33 92 33q55 0 91 -38t36 -93v-187q0 -82 -54 -139t-135 -57t-135.5 57t-54.5 139v56z" />
<glyph unicode="&#xba;" horiz-adv-x="694" d="M61 1098v389q0 81 82.5 131.5t204.5 50.5q120 0 202.5 -50.5t82.5 -131.5v-389q0 -80 -82.5 -130t-202.5 -50q-121 0 -204 50t-83 130zM299 1108q0 -35 49 -35t49 35v371q0 34 -49 34t-49 -34v-371z" />
<glyph unicode="&#xbb;" horiz-adv-x="1329" d="M61 0l232 604l-232 604h402l221 -604l-221 -604h-402zM645 0l232 604l-232 604h402l223 -604l-223 -604h-402z" />
<glyph unicode="&#xbf;" horiz-adv-x="1001" d="M41 -229q0 61 21 118.5t54.5 102.5t74.5 88t81.5 84.5t74 82t54.5 89.5t21 100q0 12 -2.5 26.5t-8.5 32.5t-10 29.5t-12 33t-10 26.5h346q49 -112 49 -174q0 -70 -20 -132.5t-52.5 -109.5t-71.5 -89.5t-78 -80t-71.5 -74.5t-52.5 -80t-20 -88q0 -36 27.5 -60t66.5 -24 t67.5 24t28.5 60v156h352v-199q0 -62 -32.5 -123.5t-88.5 -110t-139.5 -78.5t-177.5 -30q-217 0 -344 113.5t-127 286.5zM381 707v333h330v-333h-330z" />
<glyph unicode="&#xc0;" horiz-adv-x="952" d="M0 0l248 1638h450l254 -1638h-389l-18 236h-183l-28 -236h-334zM215 2150h301l53 -376h-192zM406 567h106l-41 518z" />
<glyph unicode="&#xc1;" horiz-adv-x="952" d="M0 0l248 1638h450l254 -1638h-389l-18 236h-183l-28 -236h-334zM381 1774l53 376h301l-162 -376h-192zM406 567h106l-41 518z" />
<glyph unicode="&#xc2;" horiz-adv-x="952" d="M0 0l248 1638h450l254 -1638h-389l-18 236h-183l-28 -236h-334zM61 1774l258 376h304l258 -376h-248l-162 182l-162 -182h-248zM406 567h106l-41 518z" />
<glyph unicode="&#xc3;" horiz-adv-x="952" d="M0 0l248 1638h450l254 -1638h-389l-18 236h-183l-28 -236h-334zM74 1806q0 145 74.5 224t211.5 79q43 0 83.5 -14.5t65 -32.5t55 -32.5t57.5 -14.5q108 0 108 94h162q0 -145 -75 -224t-212 -79q-55 0 -103 24t-86.5 47.5t-70.5 23.5q-108 0 -108 -95h-162zM406 567h106 l-41 518z" />
<glyph unicode="&#xc4;" horiz-adv-x="952" d="M0 0l248 1638h450l254 -1638h-389l-18 236h-183l-28 -236h-334zM61 1817v333h330v-333h-330zM406 567h106l-41 518zM580 1817v333h329v-333h-329z" />
<glyph unicode="&#xc5;" horiz-adv-x="952" d="M0 0l248 1638h158q-62 21 -102 75t-40 122q0 88 60.5 148.5t146.5 60.5t146.5 -60.5t60.5 -148.5q0 -68 -39.5 -122.5t-101.5 -74.5h161l254 -1638h-389l-18 236h-183l-28 -236h-334zM371 1835q0 -40 29.5 -69t70.5 -29q40 0 70 29t30 69q0 41 -30 70.5t-70 29.5 q-41 0 -70.5 -29.5t-29.5 -70.5zM406 567h106l-41 518z" />
<glyph unicode="&#xc6;" horiz-adv-x="1351" d="M0 0l393 1638h912v-290h-365v-353h240v-311h-240v-373h365v-311h-744v236h-176l-51 -236h-334zM455 567h106v518z" />
<glyph unicode="&#xc7;" horiz-adv-x="1015" d="M61 311v1016q0 62 34 123.5t93.5 110t147.5 78.5t188 30q98 0 184.5 -30t143.5 -78.5t90 -110t33 -123.5v-315h-373v266q0 31 -22.5 50.5t-55.5 19.5q-36 0 -59 -19t-23 -51v-918q0 -32 23 -50.5t59 -18.5q33 0 55.5 19t22.5 50v267h373v-316q0 -62 -32 -123 t-88.5 -109.5t-141.5 -79t-183 -30.5l-8 -94q45 33 92 33q55 0 91 -38t36 -93v-187q0 -83 -53.5 -139.5t-134.5 -56.5t-136 57t-55 139v56h158v-52q0 -12 10 -21t23 -9q12 0 21.5 9t9.5 21v142q0 12 -9.5 21.5t-21.5 9.5q-13 0 -23 -9.5t-10 -21.5l-155 6l12 246 q-141 34 -228.5 126.5t-87.5 196.5z" />
<glyph unicode="&#xc8;" horiz-adv-x="862" d="M74 0v1638h741v-290h-364v-353h241v-311h-241v-373h364v-311h-741zM215 2150h301l53 -376h-192z" />
<glyph unicode="&#xc9;" horiz-adv-x="862" d="M74 0v1638h741v-290h-364v-353h241v-311h-241v-373h364v-311h-741zM360 1774l54 376h301l-162 -376h-193z" />
<glyph unicode="&#xca;" horiz-adv-x="862" d="M25 1774l258 376h303l258 -376h-248l-162 182l-162 -182h-247zM74 0v1638h741v-290h-364v-353h241v-311h-241v-373h364v-311h-741z" />
<glyph unicode="&#xcb;" horiz-adv-x="862" d="M20 1817v333h330v-333h-330zM74 0v1638h741v-290h-364v-353h241v-311h-241v-373h364v-311h-741zM539 1817v333h329v-333h-329z" />
<glyph unicode="&#xcc;" horiz-adv-x="550" d="M27 2150h301l53 -376h-193zM86 0v1638h379v-1638h-379z" />
<glyph unicode="&#xcd;" horiz-adv-x="550" d="M86 0v1638h379v-1638h-379zM180 1774l53 376h302l-162 -376h-193z" />
<glyph unicode="&#xce;" horiz-adv-x="550" d="M-135 1774l258 376h303l258 -376h-248l-162 182l-161 -182h-248zM86 0v1638h379v-1638h-379z" />
<glyph unicode="&#xcf;" horiz-adv-x="550" d="M-147 1817v333h329v-333h-329zM86 0v1638h379v-1638h-379zM371 1817v333h329v-333h-329z" />
<glyph unicode="&#xd1;" horiz-adv-x="1112" d="M74 0v1638h344l284 -804v804h336v-1638h-329l-299 791v-791h-336zM147 1806q0 145 75 224t212 79q55 0 102.5 -23.5t86 -47t71.5 -23.5q109 0 109 94h162q0 -145 -75 -224t-212 -79q-55 0 -103 24t-86.5 47.5t-70.5 23.5q-109 0 -109 -95h-162z" />
<glyph unicode="&#xd2;" d="M61 332v975q0 62 35.5 126.5t95 117t146.5 85.5t182 33q94 0 180.5 -33t146 -85.5t95 -117t35.5 -126.5v-975q0 -62 -35.5 -126.5t-95 -117t-146 -86t-180.5 -33.5q-95 0 -182 33.5t-146.5 86t-95 117t-35.5 126.5zM260 2150h301l53 -376h-192zM442 360q0 -31 22.5 -50 t55.5 -19q32 0 54 19t22 50v918q0 31 -22 50.5t-54 19.5q-33 0 -55.5 -19.5t-22.5 -50.5v-918z" />
<glyph unicode="&#xd3;" d="M61 332v975q0 62 35.5 126.5t95 117t146.5 85.5t182 33q94 0 180.5 -33t146 -85.5t95 -117t35.5 -126.5v-975q0 -62 -35.5 -126.5t-95 -117t-146 -86t-180.5 -33.5q-95 0 -182 33.5t-146.5 86t-95 117t-35.5 126.5zM422 1774l53 376h301l-162 -376h-192zM442 360 q0 -31 22.5 -50t55.5 -19q32 0 54 19t22 50v918q0 31 -22 50.5t-54 19.5q-33 0 -55.5 -19.5t-22.5 -50.5v-918z" />
<glyph unicode="&#xd4;" d="M61 332v975q0 62 35.5 126.5t95 117t146.5 85.5t182 33q94 0 180.5 -33t146 -85.5t95 -117t35.5 -126.5v-975q0 -62 -35.5 -126.5t-95 -117t-146 -86t-180.5 -33.5q-95 0 -182 33.5t-146.5 86t-95 117t-35.5 126.5zM102 1774l258 376h304l258 -376h-248l-162 182 l-162 -182h-248zM442 360q0 -31 22.5 -50t55.5 -19q32 0 54 19t22 50v918q0 31 -22 50.5t-54 19.5q-33 0 -55.5 -19.5t-22.5 -50.5v-918z" />
<glyph unicode="&#xd5;" d="M61 332v975q0 62 35.5 126.5t95 117t146.5 85.5t182 33q94 0 180.5 -33t146 -85.5t95 -117t35.5 -126.5v-975q0 -62 -35.5 -126.5t-95 -117t-146 -86t-180.5 -33.5q-95 0 -182 33.5t-146.5 86t-95 117t-35.5 126.5zM111 1806q0 145 74.5 224t211.5 79q55 0 102.5 -23.5 t86 -47t71.5 -23.5q109 0 109 94h162q0 -145 -75 -224t-212 -79q-55 0 -103 24t-86.5 47.5t-70.5 23.5q-109 0 -109 -95h-161zM442 360q0 -31 22.5 -50t55.5 -19q32 0 54 19t22 50v918q0 31 -22 50.5t-54 19.5q-33 0 -55.5 -19.5t-22.5 -50.5v-918z" />
<glyph unicode="&#xd6;" d="M61 332v975q0 62 35.5 126.5t95 117t146.5 85.5t182 33q94 0 180.5 -33t146 -85.5t95 -117t35.5 -126.5v-975q0 -62 -35.5 -126.5t-95 -117t-146 -86t-180.5 -33.5q-95 0 -182 33.5t-146.5 86t-95 117t-35.5 126.5zM98 1817v333h330v-333h-330zM442 360q0 -31 22.5 -50 t55.5 -19q32 0 54 19t22 50v918q0 31 -22 50.5t-54 19.5q-33 0 -55.5 -19.5t-22.5 -50.5v-918zM616 1817v333h330v-333h-330z" />
<glyph unicode="&#xd8;" d="M61 -61l64 221q-64 86 -64 172v975q0 62 35.5 126.5t95 117t146.5 85.5t182 33q103 0 195 -39l18 70h242l-64 -219q66 -84 66 -174v-975q0 -62 -35.5 -126.5t-95 -117t-146 -86t-180.5 -33.5q-106 0 -198 39l-19 -69h-242zM442 360q0 -31 22.5 -50t55.5 -19q32 0 54 19 t22 50v918q0 31 -22 50.5t-54 19.5q-33 0 -55.5 -19.5t-22.5 -50.5v-918z" />
<glyph unicode="&#xd9;" horiz-adv-x="1032" d="M68 311v1327h381v-1278q0 -31 22 -50t55 -19q32 0 54 19t22 50v1278h363v-1327q0 -131 -126 -236.5t-313 -105.5q-95 0 -181.5 30t-146.5 78.5t-95 110t-35 123.5zM264 2150h301l53 -376h-192z" />
<glyph unicode="&#xda;" horiz-adv-x="1032" d="M68 311v1327h381v-1278q0 -31 22 -50t55 -19q32 0 54 19t22 50v1278h363v-1327q0 -131 -126 -236.5t-313 -105.5q-95 0 -181.5 30t-146.5 78.5t-95 110t-35 123.5zM426 1774l53 376h301l-162 -376h-192z" />
<glyph unicode="&#xdb;" horiz-adv-x="1032" d="M68 311v1327h381v-1278q0 -31 22 -50t55 -19q32 0 54 19t22 50v1278h363v-1327q0 -131 -126 -236.5t-313 -105.5q-95 0 -181.5 30t-146.5 78.5t-95 110t-35 123.5zM115 1774l258 376h303l258 -376h-248l-162 182l-162 -182h-247z" />
<glyph unicode="&#xdc;" horiz-adv-x="1032" d="M68 311v1327h381v-1278q0 -31 22 -50t55 -19q32 0 54 19t22 50v1278h363v-1327q0 -131 -126 -236.5t-313 -105.5q-95 0 -181.5 30t-146.5 78.5t-95 110t-35 123.5zM94 1817v333h330v-333h-330zM612 1817v333h330v-333h-330z" />
<glyph unicode="&#xdf;" horiz-adv-x="1013" d="M74 0v1262q0 77 28 150.5t80 133.5t134 96.5t182 36.5q113 0 201.5 -32.5t142 -88t81 -126t27.5 -150.5q0 -221 -145 -278q147 -38 147 -232v-461q0 -321 -454 -321v268q48 0 78 21.5t30 68.5v430q0 45 -30.5 67.5t-77.5 22.5v248q61 0 97 35.5t36 101.5 q0 67 -29.5 102.5t-83.5 35.5q-43 0 -70.5 -30.5t-27.5 -80.5v-1280h-346z" />
<glyph unicode="&#xe0;" horiz-adv-x="993" d="M35 281v63q0 35 8 65.5t28 59t41 52t61 50.5t72.5 47t91.5 49t102.5 49t119.5 54v143q0 31 -12.5 45.5t-42.5 14.5q-31 0 -42 -14t-11 -46v-84h-375v99q0 135 126 219t312 84q182 0 294 -83t112 -220v-678q0 -151 36 -250h-282l-17 98q-27 -35 -50.5 -56.5t-73 -41.5 t-113.5 -20q-175 0 -280 80t-105 221zM248 1741h301l53 -377h-192zM406 307q0 -69 75 -69q78 0 78 69v221q-42 -22 -55 -29t-39.5 -24t-34.5 -27.5t-16 -28t-8 -38.5v-74z" />
<glyph unicode="&#xe1;" horiz-adv-x="993" d="M35 281v63q0 35 8 65.5t28 59t41 52t61 50.5t72.5 47t91.5 49t102.5 49t119.5 54v143q0 31 -12.5 45.5t-42.5 14.5q-31 0 -42 -14t-11 -46v-84h-375v99q0 135 126 219t312 84q182 0 294 -83t112 -220v-678q0 -151 36 -250h-282l-17 98q-27 -35 -50.5 -56.5t-73 -41.5 t-113.5 -20q-175 0 -280 80t-105 221zM389 1364l53 377h301l-161 -377h-193zM406 307q0 -69 75 -69q78 0 78 69v221q-42 -22 -55 -29t-39.5 -24t-34.5 -27.5t-16 -28t-8 -38.5v-74z" />
<glyph unicode="&#xe2;" horiz-adv-x="993" d="M35 281v63q0 35 8 65.5t28 59t41 52t61 50.5t72.5 47t91.5 49t102.5 49t119.5 54v143q0 31 -12.5 45.5t-42.5 14.5q-31 0 -42 -14t-11 -46v-84h-375v99q0 135 126 219t312 84q182 0 294 -83t112 -220v-678q0 -151 36 -250h-282l-17 98q-27 -35 -50.5 -56.5t-73 -41.5 t-113.5 -20q-175 0 -280 80t-105 221zM94 1364l258 377h303l258 -377h-247l-162 182l-162 -182h-248zM406 307q0 -69 75 -69q78 0 78 69v221q-42 -22 -55 -29t-39.5 -24t-34.5 -27.5t-16 -28t-8 -38.5v-74z" />
<glyph unicode="&#xe3;" horiz-adv-x="993" d="M35 281v63q0 35 8 65.5t28 59t41 52t61 50.5t72.5 47t91.5 49t102.5 49t119.5 54v143q0 31 -12.5 45.5t-42.5 14.5q-31 0 -42 -14t-11 -46v-84h-375v99q0 135 126 219t312 84q182 0 294 -83t112 -220v-678q0 -151 36 -250h-282l-17 98q-27 -35 -50.5 -56.5t-73 -41.5 t-113.5 -20q-175 0 -280 80t-105 221zM111 1397q0 145 74.5 224t211.5 79q55 0 102.5 -23.5t86 -47t71.5 -23.5q109 0 109 94h162q0 -145 -75 -224t-212 -79q-44 0 -84 14.5t-64.5 32.5t-55 32.5t-56.5 14.5q-109 0 -109 -94h-161zM406 307q0 -69 75 -69q78 0 78 69v221 q-42 -22 -55 -29t-39.5 -24t-34.5 -27.5t-16 -28t-8 -38.5v-74z" />
<glyph unicode="&#xe4;" horiz-adv-x="993" d="M35 281v63q0 35 8 65.5t28 59t41 52t61 50.5t72.5 47t91.5 49t102.5 49t119.5 54v143q0 31 -12.5 45.5t-42.5 14.5q-31 0 -42 -14t-11 -46v-84h-375v99q0 135 126 219t312 84q182 0 294 -83t112 -220v-678q0 -151 36 -250h-282l-17 98q-27 -35 -50.5 -56.5t-73 -41.5 t-113.5 -20q-175 0 -280 80t-105 221zM78 1407v334h330v-334h-330zM406 307q0 -69 75 -69q78 0 78 69v221q-42 -22 -55 -29t-39.5 -24t-34.5 -27.5t-16 -28t-8 -38.5v-74zM596 1407v334h330v-334h-330z" />
<glyph unicode="&#xe5;" horiz-adv-x="993" d="M35 281v63q0 35 8 65.5t28 59t41 52t61 50.5t72.5 47t91.5 49t102.5 49t119.5 54v143q0 31 -12.5 45.5t-42.5 14.5q-31 0 -42 -14t-11 -46v-84h-375v99q0 135 126 219t312 84q182 0 294 -83t112 -220v-678q0 -151 36 -250h-282l-17 98q-27 -35 -50.5 -56.5t-73 -41.5 t-113.5 -20q-175 0 -280 80t-105 221zM307 1552q0 88 60.5 148.5t146.5 60.5t146.5 -60.5t60.5 -148.5q0 -86 -60.5 -146t-146.5 -60t-146.5 60t-60.5 146zM406 307q0 -69 75 -69q78 0 78 69v221q-42 -22 -55 -29t-39.5 -24t-34.5 -27.5t-16 -28t-8 -38.5v-74zM414 1552 q0 -40 29.5 -69t70.5 -29q40 0 70 29t30 69q0 41 -30 71t-70 30q-41 0 -70.5 -30t-29.5 -71z" />
<glyph unicode="&#xe6;" horiz-adv-x="1488" d="M35 281v63q0 39 12.5 74.5t31.5 64.5t57.5 60t73.5 54.5t98.5 55.5t113 55t135.5 62v143q0 32 -11.5 46t-41.5 14q-31 0 -42 -14t-11 -46v-84h-375v99q0 135 126 219t312 84q134 0 238 -80q114 80 243 80q186 0 312.5 -84t126.5 -219v-400h-514v-231q0 -29 20.5 -44 t54.5 -15t56 15t22 44v104h361v-120q0 -89 -59.5 -158t-159 -106t-220.5 -37q-103 0 -174.5 23t-132.5 75q-102 -98 -270 -98q-175 0 -279 80.5t-104 220.5zM406 307q0 -69 75 -69q76 0 76 69v221q-94 -50 -117 -71q-34 -31 -34 -76v-74zM920 741h153v172q0 29 -22 44.5 t-56 15.5t-54.5 -15t-20.5 -45v-172z" />
<glyph unicode="&#xe7;" horiz-adv-x="978" d="M61 281v647q0 135 126.5 219t312.5 84t312 -84t126 -219v-170h-360v155q0 29 -22 44.5t-56 15.5q-33 0 -54.5 -15.5t-21.5 -44.5v-616q0 -29 21.5 -44t54.5 -15q34 0 56 15t22 44v156h360v-172q0 -127 -116.5 -209.5t-291.5 -91.5l-8 -105q45 33 92 33q55 0 91 -38 t36 -93v-187q0 -83 -53.5 -139.5t-134.5 -56.5t-136 57t-55 139v56h158v-52q0 -12 10 -21t23 -9q12 0 21.5 9t9.5 21v142q0 12 -9.5 21.5t-21.5 9.5q-13 0 -23 -9.5t-10 -21.5l-155 6l12 248q-140 25 -228 103t-88 188z" />
<glyph unicode="&#xe8;" horiz-adv-x="993" d="M61 281v647q0 135 126.5 219t312.5 84t312 -84t126 -219v-400h-514v-231q0 -29 21.5 -44t54.5 -15q34 0 56 15t22 44v104h360v-120q0 -89 -59 -158t-158.5 -106t-220.5 -37t-220.5 37t-159 106t-59.5 158zM248 1741h301l53 -377h-192zM424 741h154v172q0 29 -22 44.5 t-56 15.5q-33 0 -54.5 -15.5t-21.5 -44.5v-172z" />
<glyph unicode="&#xe9;" horiz-adv-x="993" d="M61 281v647q0 135 126.5 219t312.5 84t312 -84t126 -219v-400h-514v-231q0 -29 21.5 -44t54.5 -15q34 0 56 15t22 44v104h360v-120q0 -89 -59 -158t-158.5 -106t-220.5 -37t-220.5 37t-159 106t-59.5 158zM401 1364l54 377h301l-162 -377h-193zM424 741h154v172 q0 29 -22 44.5t-56 15.5q-33 0 -54.5 -15.5t-21.5 -44.5v-172z" />
<glyph unicode="&#xea;" horiz-adv-x="993" d="M61 281v647q0 135 126.5 219t312.5 84t312 -84t126 -219v-400h-514v-231q0 -29 21.5 -44t54.5 -15q34 0 56 15t22 44v104h360v-120q0 -89 -59 -158t-158.5 -106t-220.5 -37t-220.5 37t-159 106t-59.5 158zM94 1364l258 377h303l258 -377h-247l-162 182l-162 -182h-248z M424 741h154v172q0 29 -22 44.5t-56 15.5q-33 0 -54.5 -15.5t-21.5 -44.5v-172z" />
<glyph unicode="&#xeb;" horiz-adv-x="993" d="M61 281v647q0 135 126.5 219t312.5 84t312 -84t126 -219v-400h-514v-231q0 -29 21.5 -44t54.5 -15q34 0 56 15t22 44v104h360v-120q0 -89 -59 -158t-158.5 -106t-220.5 -37t-220.5 37t-159 106t-59.5 158zM78 1407v334h330v-334h-330zM424 741h154v172q0 29 -22 44.5 t-56 15.5q-33 0 -54.5 -15.5t-21.5 -44.5v-172zM596 1407v334h330v-334h-330z" />
<glyph unicode="&#xec;" horiz-adv-x="509" d="M-6 1741h301l53 -377h-192zM74 0v1208h362v-1208h-362z" />
<glyph unicode="&#xed;" horiz-adv-x="509" d="M74 0v1208h362v-1208h-362zM147 1364l54 377h301l-162 -377h-193z" />
<glyph unicode="&#xee;" horiz-adv-x="509" d="M-160 1364l258 377h303l258 -377h-247l-162 182l-162 -182h-248zM74 0v1208h362v-1208h-362z" />
<glyph unicode="&#xef;" horiz-adv-x="509" d="M-168 1407v334h330v-334h-330zM74 0v1208h362v-1208h-362zM350 1407v334h330v-334h-330z" />
<glyph unicode="&#xf1;" horiz-adv-x="1017" d="M74 0v1208h334l16 -94q47 54 102.5 85.5t139.5 31.5q122 0 203 -55.5t81 -149.5v-1026h-360v913q0 29 -22 44.5t-56 15.5q-33 0 -54.5 -15.5t-21.5 -44.5v-913h-362zM115 1397q0 145 74.5 224t211.5 79q43 0 83.5 -14.5t65 -32.5t55 -32.5t57.5 -14.5q108 0 108 94h162 q0 -145 -75 -224t-212 -79q-44 0 -84 14.5t-64.5 32.5t-55 32.5t-56.5 14.5q-109 0 -109 -94h-161z" />
<glyph unicode="&#xf2;" horiz-adv-x="999" d="M61 281v647q0 135 126.5 219t312.5 84t312 -84t126 -219v-647q0 -89 -59 -158t-158.5 -106t-220.5 -37t-220.5 37t-159 106t-59.5 158zM236 1741h301l53 -377h-193zM424 297q0 -29 21 -44t55 -15t56 15t22 44v616q0 29 -22 44.5t-56 15.5t-55 -15t-21 -45v-616z" />
<glyph unicode="&#xf3;" horiz-adv-x="999" d="M61 281v647q0 135 126.5 219t312.5 84t312 -84t126 -219v-647q0 -89 -59 -158t-158.5 -106t-220.5 -37t-220.5 37t-159 106t-59.5 158zM393 1364l53 377h302l-162 -377h-193zM424 297q0 -29 21 -44t55 -15t56 15t22 44v616q0 29 -22 44.5t-56 15.5t-55 -15t-21 -45v-616z " />
<glyph unicode="&#xf4;" horiz-adv-x="999" d="M61 281v647q0 135 126.5 219t312.5 84t312 -84t126 -219v-647q0 -89 -59 -158t-158.5 -106t-220.5 -37t-220.5 37t-159 106t-59.5 158zM90 1364l258 377h303l258 -377h-247l-162 182l-162 -182h-248zM424 297q0 -29 21 -44t55 -15t56 15t22 44v616q0 29 -22 44.5 t-56 15.5t-55 -15t-21 -45v-616z" />
<glyph unicode="&#xf5;" horiz-adv-x="999" d="M61 281v647q0 135 126.5 219t312.5 84t312 -84t126 -219v-647q0 -89 -59 -158t-158.5 -106t-220.5 -37t-220.5 37t-159 106t-59.5 158zM106 1397q0 145 75 224t212 79q55 0 102.5 -23.5t86 -47t71.5 -23.5q109 0 109 94h162q0 -145 -75 -224t-212 -79q-44 0 -84 14.5 t-64.5 32.5t-55 32.5t-56.5 14.5q-109 0 -109 -94h-162zM424 297q0 -29 21 -44t55 -15t56 15t22 44v616q0 29 -22 44.5t-56 15.5t-55 -15t-21 -45v-616z" />
<glyph unicode="&#xf6;" horiz-adv-x="999" d="M61 281v647q0 135 126.5 219t312.5 84t312 -84t126 -219v-647q0 -89 -59 -158t-158.5 -106t-220.5 -37t-220.5 37t-159 106t-59.5 158zM78 1407v334h330v-334h-330zM424 297q0 -29 21 -44t55 -15t56 15t22 44v616q0 29 -22 44.5t-56 15.5t-55 -15t-21 -45v-616zM596 1407 v334h330v-334h-330z" />
<glyph unicode="&#xf8;" horiz-adv-x="999" d="M61 -61l54 190q-54 66 -54 152v647q0 135 126.5 219t312.5 84q94 0 180 -25l16 66h242l-55 -191q55 -67 55 -153v-647q0 -89 -59 -158t-158.5 -106t-220.5 -37q-98 0 -181 24l-16 -65h-242zM424 297q0 -29 21 -44t55 -15t56 15t22 44v616q0 29 -22 44.5t-56 15.5t-55 -15 t-21 -45v-616z" />
<glyph unicode="&#xf9;" horiz-adv-x="1015" d="M68 182v1026h360v-911q0 -29 22 -44t56 -15q33 0 54.5 15t21.5 44v911h360v-1208h-332l-16 94q-90 -114 -242 -114q-123 0 -203.5 54t-80.5 148zM248 1741h301l53 -377h-192z" />
<glyph unicode="&#xfa;" horiz-adv-x="1015" d="M68 182v1026h360v-911q0 -29 22 -44t56 -15q33 0 54.5 15t21.5 44v911h360v-1208h-332l-16 94q-90 -114 -242 -114q-123 0 -203.5 54t-80.5 148zM410 1364l53 377h301l-162 -377h-192z" />
<glyph unicode="&#xfb;" horiz-adv-x="1015" d="M68 182v1026h360v-911q0 -29 22 -44t56 -15q33 0 54.5 15t21.5 44v911h360v-1208h-332l-16 94q-90 -114 -242 -114q-123 0 -203.5 54t-80.5 148zM86 1364l258 377h303l258 -377h-248l-161 182l-162 -182h-248z" />
<glyph unicode="&#xfc;" horiz-adv-x="1015" d="M68 182v1026h360v-911q0 -29 22 -44t56 -15q33 0 54.5 15t21.5 44v911h360v-1208h-332l-16 94q-90 -114 -242 -114q-123 0 -203.5 54t-80.5 148zM78 1407v334h330v-334h-330zM596 1407v334h330v-334h-330z" />
<glyph unicode="&#xff;" horiz-adv-x="991" d="M35 1208h352l119 -661l117 661h352l-381 -1435q-29 -108 -101.5 -166t-220.5 -58h-178v277h113q60 0 76 49l63 195zM70 1407v334h329v-334h-329zM588 1407v334h330v-334h-330z" />
<glyph unicode="&#x152;" horiz-adv-x="1343" d="M61 319v1000q0 85 31.5 149t85 99.5t116.5 53t134 17.5h868v-290h-364v-353h239v-311h-239v-373h364v-311h-868q-71 0 -134 17.5t-116.5 53t-85 99.5t-31.5 149zM416 375q0 -66 65 -66h74v1018h-74q-33 0 -49 -15t-16 -50v-887z" />
<glyph unicode="&#x153;" horiz-adv-x="1507" d="M61 281v647q0 135 126.5 219t312.5 84q144 0 258 -90q114 90 256 90q186 0 312 -84t126 -219v-400h-514v-231q0 -29 21 -44t55 -15t55 15t21 44v104h362v-120q0 -89 -59 -158t-158.5 -106t-220.5 -37q-142 0 -256 90q-110 -90 -258 -90q-121 0 -220.5 37t-159 106 t-59.5 158zM422 297q0 -29 22 -44t56 -15q33 0 54 15t21 44v616q0 29 -21 44.5t-54 15.5q-34 0 -56 -15.5t-22 -44.5v-616zM938 741h152v172q0 30 -21 45t-55 15t-55 -15t-21 -45v-172z" />
<glyph unicode="&#x178;" horiz-adv-x="1021" d="M-10 1638h379l149 -546l133 546h361l-326 -931v-707h-381v707zM74 1817v333h329v-333h-329zM592 1817v333h330v-333h-330z" />
<glyph unicode="&#x2c6;" horiz-adv-x="884" d="M37 1262l258 376h303l258 -376h-248l-162 182l-161 -182h-248z" />
<glyph unicode="&#x2dc;" horiz-adv-x="931" d="M57 1356q0 145 75 224t212 79q55 0 102.5 -23.5t86 -47t71.5 -23.5q109 0 109 94h161q0 -145 -74.5 -224t-211.5 -79q-44 0 -84 14.5t-64.5 32.5t-55 32.5t-56.5 14.5q-109 0 -109 -94h-162z" />
<glyph unicode="&#x2000;" horiz-adv-x="1075" />
<glyph unicode="&#x2001;" horiz-adv-x="2150" />
<glyph unicode="&#x2002;" horiz-adv-x="1075" />
<glyph unicode="&#x2003;" horiz-adv-x="2150" />
<glyph unicode="&#x2004;" horiz-adv-x="716" />
<glyph unicode="&#x2005;" horiz-adv-x="537" />
<glyph unicode="&#x2006;" horiz-adv-x="358" />
<glyph unicode="&#x2007;" horiz-adv-x="358" />
<glyph unicode="&#x2008;" horiz-adv-x="268" />
<glyph unicode="&#x2009;" horiz-adv-x="430" />
<glyph unicode="&#x200a;" horiz-adv-x="119" />
<glyph unicode="&#x2010;" horiz-adv-x="614" d="M74 614v314h467v-314h-467z" />
<glyph unicode="&#x2011;" horiz-adv-x="614" d="M74 614v314h467v-314h-467z" />
<glyph unicode="&#x2012;" horiz-adv-x="614" d="M74 614v314h467v-314h-467z" />
<glyph unicode="&#x2013;" horiz-adv-x="1171" d="M74 614v314h1024v-314h-1024z" />
<glyph unicode="&#x2014;" horiz-adv-x="2195" d="M74 614v314h2048v-314h-2048z" />
<glyph unicode="&#x2018;" horiz-adv-x="477" d="M74 1141v334l237 204h111l-156 -204h137v-334h-329z" />
<glyph unicode="&#x2019;" horiz-adv-x="479" d="M57 1100l156 205h-139v333h332v-333l-240 -205h-109z" />
<glyph unicode="&#x201a;" horiz-adv-x="477" d="M57 -205l156 205h-139v334h329v-334l-237 -205h-109z" />
<glyph unicode="&#x201c;" horiz-adv-x="917" d="M74 1141v334l237 204h111l-156 -204h137v-334h-329zM514 1141v334l238 204h108l-155 -204h139v-334h-330z" />
<glyph unicode="&#x201d;" horiz-adv-x="917" d="M57 1100l156 205h-139v333h332v-333l-240 -205h-109zM496 1100l155 205h-137v333h330v-333l-238 -205h-110z" />
<glyph unicode="&#x201e;" horiz-adv-x="917" d="M57 -205l156 205h-139v334h332v-334l-240 -205h-109zM496 -205l155 205h-137v334h330v-334l-238 -205h-110z" />
<glyph unicode="&#x2022;" horiz-adv-x="518" d="M31 819q0 95 67 161.5t162 66.5q94 0 160.5 -66.5t66.5 -161.5q0 -94 -66.5 -160.5t-160.5 -66.5q-95 0 -162 66.5t-67 160.5z" />
<glyph unicode="&#x2026;" horiz-adv-x="1533" d="M74 0v334h329v-334h-329zM602 0v334h330v-334h-330zM1130 0v334h330v-334h-330z" />
<glyph unicode="&#x202f;" horiz-adv-x="430" />
<glyph unicode="&#x2039;" horiz-adv-x="745" d="M59 604l224 604h401l-231 -604l231 -604h-401z" />
<glyph unicode="&#x203a;" horiz-adv-x="743" d="M61 0l232 604l-232 604h402l221 -604l-221 -604h-402z" />
<glyph unicode="&#x205f;" horiz-adv-x="537" />
<glyph unicode="&#x2122;" horiz-adv-x="2080" d="M55 1401v237h793v-237h-242v-551h-311v551h-240zM948 850v788h434l99 -346l100 346h444v-788h-311v502l-133 -502h-238l-151 502v-502h-244z" />
<glyph unicode="&#x25fc;" horiz-adv-x="1208" d="M0 0v1208h1208v-1208h-1208z" />
<glyph unicode="&#xfb01;" horiz-adv-x="1202" d="M41 963v245h117v103q0 139 100 233t250 94h164v-276h-76q-32 0 -55 -23t-23 -57v-74h154v-245h-154v-963h-360v963h-117zM766 0v1208h362v-1208h-362zM766 1366v272h362v-272h-362z" />
<glyph unicode="&#xfb02;" horiz-adv-x="1202" d="M41 963v245h117v103q0 139 100 233t250 94h164v-276h-76q-32 0 -55 -23t-23 -57v-74h154v-245h-154v-963h-360v963h-117zM766 0v1638h362v-1638h-362z" />
</font>
</defs>
</svg>
