<?xml version="1.0" standalone="no"?>
<!DOCTYPE svg PUBLIC "-//W3C//DTD SVG 1.1//EN" "http://www.w3.org/Graphics/SVG/1.1/DTD/svg11.dtd" >
<svg xmlns="http://www.w3.org/2000/svg">
<metadata></metadata>
<defs>
<font id="dinotcondmedium" horiz-adv-x="768" >
<font-face units-per-em="2048" ascent="1565" descent="-483" />
<missing-glyph horiz-adv-x="382" />
<glyph unicode="&#xfb01;" horiz-adv-x="882" d="M35 932v129h121v102q0 162 92 238q46 38 103 51.5t134 13.5v-149q-84 0 -123.5 -38t-39.5 -122v-96h163v-129h-163v-932h-166v932h-121zM586 1249v193h194v-193h-194zM600 0v1061h166v-1061h-166z" />
<glyph unicode="&#xfb02;" horiz-adv-x="958" d="M35 932v129h121v102q0 162 92 238q46 38 103 51.5t134 13.5v-149q-163 0 -163 -160v-96h163v-129h-163v-932h-166v932h-121zM600 303v1155h166v-1149q0 -159 160 -159v-150q-154 0 -232 66q-94 78 -94 237z" />
<glyph horiz-adv-x="0" />
<glyph horiz-adv-x="0" />
<glyph horiz-adv-x="682" />
<glyph unicode="&#xd;" horiz-adv-x="382" />
<glyph unicode=" "  horiz-adv-x="382" />
<glyph unicode="&#x09;" horiz-adv-x="382" />
<glyph unicode="&#xa0;" horiz-adv-x="382" />
<glyph unicode="!" horiz-adv-x="495" d="M172 0v203h203v-203h-203zM190 395v1063h166v-1063h-166z" />
<glyph unicode="&#x22;" horiz-adv-x="808" d="M137 1065v393h170v-393h-170zM500 1065v393h170v-393h-170z" />
<glyph unicode="#" horiz-adv-x="1134" d="M104 440v156h168l39 297h-147l-2 156h172l55 409h170l-55 -409h213l55 409h170l-57 -409h143l2 -156h-168l-39 -297h148v-156h-172l-60 -440h-168l60 440h-215l-60 -440h-168l60 440h-144zM440 596h213l41 297h-215z" />
<glyph unicode="$" horiz-adv-x="888" d="M78 381h176q0 -75 10.5 -118t38.5 -73q21 -24 62 -36v536l-78 33q-114 46 -156.5 123t-42.5 241q0 197 111 299q69 63 166 80v185h157v-185q113 -15 178 -80q53 -52 75 -123.5t22 -175.5h-176q0 121 -46 177q-23 26 -53 39v-482l74 -30q121 -50 163 -136.5t42 -263.5 q0 -118 -20.5 -192t-71.5 -125q-70 -70 -187 -84v-223h-157v221q-126 15 -197 86q-50 50 -70 119t-20 188zM264 1094q0 -96 20 -141t81 -76v426q-30 -12 -50 -35q-51 -57 -51 -174zM522 156q34 12 56 37q28 31 37.5 74t9.5 120q0 110 -21 162.5t-82 85.5v-479z" />
<glyph unicode="%" horiz-adv-x="1382" d="M104 934v315q0 104 65 165t165 61t165.5 -61t65.5 -165v-315q0 -104 -65.5 -164.5t-165.5 -60.5t-165 60.5t-65 164.5zM244 938q0 -51 23.5 -77.5t66.5 -26.5t67.5 27t24.5 77v309q0 50 -24.5 77.5t-67.5 27.5t-66.5 -27t-23.5 -78v-309zM371 0l508 1458h133l-508 -1458 h-133zM815 209v315q0 104 66 165t166 61t165.5 -61t65.5 -165v-315q0 -104 -65.5 -164.5t-165.5 -60.5t-166 60.5t-66 164.5zM954 211q0 -50 25 -77.5t68 -27.5t67.5 27.5t24.5 77.5v309q0 50 -24.5 77.5t-67.5 27.5t-68 -27.5t-25 -77.5v-309z" />
<glyph unicode="&#x26;" horiz-adv-x="1007" d="M74 346q0 125 56.5 230t178.5 221q-96 133 -132 207t-36 159q0 140 77 225t204 85q138 0 211.5 -80.5t73.5 -210.5q0 -123 -48 -213.5t-157 -196.5l223 -338q64 122 78 307h147q-7 -124 -43 -244t-90 -208l184 -289h-178l-98 150q-72 -84 -143 -125t-174 -41 q-145 0 -239.5 98t-94.5 264zM233 360q0 -97 51.5 -161t137.5 -64q110 0 219 146l-250 383q-82 -82 -120 -155t-38 -149zM295 1167q0 -53 27 -109.5t96 -152.5q72 74 103.5 132t31.5 141q0 64 -36 104.5t-93 40.5q-62 0 -95.5 -45.5t-33.5 -110.5z" />
<glyph unicode="'" horiz-adv-x="446" d="M137 1065v393h172v-393h-172z" />
<glyph unicode="(" horiz-adv-x="499" d="M109 209v1040q0 140 45 221q38 70 149 181l113 -113l-20.5 -20.5l-22 -22t-18.5 -19.5t-19.5 -22.5t-15 -21.5t-15.5 -25q-31 -64 -31 -170v-1016q0 -106 31 -170q7 -12 15.5 -25t15 -21.5t19.5 -22.5t18.5 -19.5l22 -22l20.5 -20.5l-113 -113q-109 109 -149 181 q-45 81 -45 221z" />
<glyph unicode=")" horiz-adv-x="499" d="M84 -80l20.5 20.5l22 22t18.5 19.5t19.5 22.5t15 21.5t15.5 25q30 61 30 170v1016q0 109 -30 170q-7 12 -15.5 25t-15 21.5t-19.5 22.5t-18.5 19.5l-22 22l-20.5 20.5l113 113q111 -111 149 -181q45 -81 45 -221v-1040q0 -140 -45 -221q-40 -72 -149 -181z" />
<glyph unicode="*" horiz-adv-x="804" d="M96 1008l195 104l-195 102l62 109l190 -117l-8 258h125l-6 -258l188 117l62 -109l-197 -102l197 -104l-62 -107l-188 115l6 -258h-125l8 258l-190 -115z" />
<glyph unicode="+" horiz-adv-x="909" d="M94 500v157h283v283h158v-283h280v-157h-280v-281h-158v281h-283z" />
<glyph unicode="," horiz-adv-x="423" d="M117 205h188v-320l-188 -139v459z" />
<glyph unicode="-" horiz-adv-x="610" d="M104 500v157h402v-157h-402z" />
<glyph unicode="." horiz-adv-x="442" d="M121 0v203h203v-203h-203z" />
<glyph unicode="/" horiz-adv-x="557" d="M8 -152l379 1762h162l-379 -1762h-162z" />
<glyph unicode="0" horiz-adv-x="780" d="M98 287v884q0 144 82 226q81 78 209 78q60 0 116.5 -20.5t94.5 -57.5q82 -82 82 -226v-884q0 -144 -82 -226q-38 -36 -94 -56.5t-117 -20.5q-129 0 -209 77q-82 82 -82 226zM264 281q0 -71 35 -109.5t90 -38.5t91 38.5t36 109.5v897q0 71 -36 109t-91 38t-90 -38 t-35 -109v-897z" />
<glyph unicode="1" horiz-adv-x="780" d="M137 1090v192l213 176h166v-1458h-166v1264z" />
<glyph unicode="2" horiz-adv-x="780" d="M100 0v139l357 756q65 142 65 283q0 71 -35 109t-90 38t-91 -38t-36 -109v-99h-166v95q0 141 82 223q38 37 94.5 57.5t116.5 20.5q128 0 205 -74q86 -83 86 -230q0 -150 -84 -329l-325 -692h409v-150h-588z" />
<glyph unicode="3" horiz-adv-x="780" d="M92 285v94h166v-98q0 -71 36 -109.5t91 -38.5q59 0 90 39q25 29 34 86t9 160q0 111 -8.5 164t-34.5 84q-30 41 -90 41h-78v139h78q47 0 80 33q25 26 33 74t8 134q0 84 -7.5 130.5t-29.5 72.5q-30 35 -84 35q-53 0 -85 -36.5t-32 -106.5v-103h-166v95q0 145 80 225 q79 76 203 76q127 0 201 -74q45 -45 65.5 -115t20.5 -188q0 -93 -8 -145.5t-31 -94.5q-27 -50 -80 -82q57 -38 82 -80q29 -50 39 -106.5t10 -179.5q0 -144 -17 -218.5t-73 -130.5q-36 -36 -92 -56.5t-117 -20.5q-129 0 -209 77q-84 84 -84 224z" />
<glyph unicode="4" horiz-adv-x="780" d="M59 240v149l373 1069h160l-363 -1069h226v334h166v-334h102v-149h-102v-240h-166v240h-396z" />
<glyph unicode="5" horiz-adv-x="780" d="M96 285v84h166v-99q0 -76 35 -114.5t92 -38.5q59 0 92 45q25 35 33 103.5t8 199.5q0 128 -7.5 192t-31.5 99q-34 49 -94 49q-55 0 -91 -40t-36 -108v-49h-158v850h566v-149h-414v-453q30 45 72 70q47 26 108 26q112 0 182 -82q43 -54 56.5 -140.5t13.5 -252.5 q0 -180 -15 -264t-73 -145q-36 -39 -93 -61.5t-118 -22.5q-131 0 -209 75q-84 84 -84 226z" />
<glyph unicode="6" horiz-adv-x="780" d="M92 436q0 210 60 367l245 655h170l-237 -608q44 35 104 35q109 0 180 -84q42 -50 58 -123.5t16 -241.5q0 -151 -16.5 -225.5t-57.5 -128.5q-74 -98 -225 -98q-147 0 -223 98q-44 58 -59 131.5t-15 222.5zM258 438q0 -114 7 -174t34 -92q33 -39 90 -39q59 0 92 39 q27 32 34 92t7 174t-7 174.5t-34 92.5q-34 40 -92 40q-56 0 -90 -40q-27 -32 -34 -92.5t-7 -174.5z" />
<glyph unicode="7" horiz-adv-x="780" d="M82 1094v364h612v-137l-385 -1321h-168l385 1309h-282v-215h-162z" />
<glyph unicode="8" horiz-adv-x="780" d="M92 406q0 121 9.5 178.5t37.5 103.5q25 43 84 82q-55 38 -80 84q-23 43 -32 95t-9 143q0 121 18.5 189.5t67.5 117.5q76 76 201 76q127 0 203 -76q49 -49 67.5 -117.5t18.5 -189.5q0 -91 -9 -143t-32 -95q-25 -46 -80 -84q56 -37 82 -82q28 -47 38.5 -105t10.5 -177 q0 -143 -17 -215t-71 -128q-36 -38 -93 -58.5t-118 -20.5t-117 20.5t-92 58.5q-54 56 -71 128t-17 215zM258 414q0 -100 9 -156t34 -88q27 -37 88 -37q63 0 90 37q25 31 34 87.5t9 156.5q0 114 -7.5 165t-35.5 83q-32 38 -90 38q-53 0 -88 -38q-28 -32 -35.5 -83t-7.5 -165z M268 1085q0 -89 8 -138.5t35 -76.5q28 -28 78 -28t80 30q27 27 35 76t8 137q0 161 -41 207q-29 33 -82 33t-82 -33q-23 -26 -31 -74.5t-8 -132.5z" />
<glyph unicode="9" horiz-adv-x="780" d="M92 1022q0 151 16.5 225.5t57.5 128.5q74 99 225 99q147 0 223 -99q44 -58 59 -131.5t15 -222.5q0 -213 -59 -367l-246 -655h-170l238 608q-44 -35 -105 -35q-109 0 -180 84q-42 50 -58 123.5t-16 241.5zM258 1020q0 -114 7 -174t34 -92q35 -41 90 -41q57 0 92 41 q27 32 34 92t7 174t-7 174t-34 92q-33 39 -92 39q-57 0 -90 -39q-27 -32 -34 -92t-7 -174z" />
<glyph unicode=":" horiz-adv-x="495" d="M172 0v203h203v-203h-203zM172 668v202h203v-202h-203z" />
<glyph unicode=";" horiz-adv-x="495" d="M172 668v202h203v-202h-203zM180 205h189v-320l-189 -139v459z" />
<glyph unicode="&#x3c;" horiz-adv-x="780" d="M70 526v125l641 375v-184l-443 -252l443 -252v-184z" />
<glyph unicode="=" horiz-adv-x="909" d="M94 324v157h721v-157h-721zM94 655v158h721v-158h-721z" />
<glyph unicode="&#x3e;" horiz-adv-x="780" d="M70 154v184l442 252l-442 252v184l641 -375v-125z" />
<glyph unicode="?" horiz-adv-x="819" d="M117 1114q0 186 88 270q89 86 221 86q141 0 225 -84q48 -48 69 -114.5t21 -175.5q0 -81 -13.5 -136.5t-49.5 -107.5l-121 -174q-45 -65 -45 -143v-140h-166v160q0 87 57 172l119 174q32 47 42.5 90t10.5 109q0 128 -47 180q-38 41 -102 41q-59 0 -98 -39 q-45 -47 -45 -168h-166zM328 0v203h202v-203h-202z" />
<glyph unicode="@" horiz-adv-x="1150" d="M104 240v903q0 144 89 233q82 82 221 82h309q139 0 221 -82q88 -88 88 -233v-1143h-160v82q-22 -40 -65 -66q-53 -32 -115 -32q-112 0 -180 77q-33 36 -48 86t-15 134v419q0 84 15 135t48 87q66 75 180 75q62 0 115 -30q40 -27 59 -58v217q0 94 -46 142.5t-130 48.5h-244 q-83 0 -129.5 -48.5t-46.5 -142.5v-882q0 -95 58 -150l-119 -117q-57 53 -81 114t-24 149zM614 281q0 -71 36 -109.5t91 -38.5t90 38.5t35 109.5v421q0 71 -35 109.5t-90 38.5t-91 -38.5t-36 -109.5v-421z" />
<glyph unicode="A" horiz-adv-x="868" d="M10 0l340 1458h170l338 -1458h-186l-70 344h-338l-69 -344h-185zM297 502h272l-135 672z" />
<glyph unicode="B" horiz-adv-x="909" d="M131 0v1458h315q182 0 267 -88q47 -50 65.5 -118.5t18.5 -180.5q0 -87 -16 -147.5t-64 -108.5q-41 -41 -84 -55q53 -15 90 -55q51 -54 67.5 -123.5t16.5 -161.5q0 -129 -21 -205t-71 -127q-85 -88 -271 -88h-313zM307 158h127q103 0 150 58t47 204q0 137 -48.5 199.5 t-148.5 62.5h-127v-524zM307 834h125q97 0 143 55t46 178q0 129 -45 181t-144 52h-125v-466z" />
<glyph unicode="C" horiz-adv-x="866" d="M96 729q0 303 18.5 433t88.5 208q95 105 250 105q142 0 231 -86q101 -98 104 -291h-176q0 112 -45 168q-41 51 -114 51q-77 0 -119 -55q-38 -52 -50 -160.5t-12 -372.5t12 -372t50 -160q42 -56 119 -56q70 0 114 54q47 58 47 165h177q-3 -196 -113 -297q-85 -79 -225 -79 q-156 0 -250 104q-70 78 -88.5 208t-18.5 433z" />
<glyph unicode="D" horiz-adv-x="917" d="M131 0v1458h338q155 0 250 -102q25 -27 42.5 -57.5t28.5 -76t17.5 -84.5t9.5 -113.5t3.5 -130.5t0.5 -165t-0.5 -165t-3.5 -130.5t-9.5 -113.5t-17.5 -84.5t-28.5 -76t-42.5 -57.5q-95 -102 -250 -102h-338zM307 158h156q81 0 123 55q38 50 48.5 151t10.5 365t-10.5 365 t-48.5 151q-42 55 -123 55h-156v-1142z" />
<glyph unicode="E" horiz-adv-x="778" d="M131 0v1458h563v-158h-387v-489h334v-158h-334v-495h387v-158h-563z" />
<glyph unicode="F" d="M131 0v1458h563v-158h-387v-489h334v-158h-334v-653h-176z" />
<glyph unicode="G" horiz-adv-x="888" d="M96 729q0 303 18.5 433t88.5 208q95 105 250 105q144 0 235 -91q100 -103 103 -288h-177q0 221 -161 221q-77 0 -119 -55q-38 -52 -50 -160.5t-12 -372.5t12 -372t50 -160q42 -56 119 -56q75 0 118 56t43 147v291h-161v147h338v-432q0 -175 -94.5 -270.5t-243.5 -95.5 q-156 0 -250 104q-70 78 -88.5 208t-18.5 433z" />
<glyph unicode="H" horiz-adv-x="937" d="M131 0v1458h176v-637h324v637h176v-1458h-176v662h-324v-662h-176z" />
<glyph unicode="I" horiz-adv-x="440" d="M131 0v1458h176v-1458h-176z" />
<glyph unicode="J" horiz-adv-x="739" d="M10 94l125 117q23 -31 59 -50.5t76 -19.5q76 0 125 54.5t49 152.5v1110h177v-1110q0 -170 -93 -266q-94 -98 -258 -98q-161 0 -260 110z" />
<glyph unicode="K" horiz-adv-x="899" d="M131 0v1458h176v-739l352 739h181l-295 -602l338 -856h-191l-258 659l-127 -251v-408h-176z" />
<glyph unicode="L" horiz-adv-x="739" d="M131 0v1458h176v-1300h387v-158h-563z" />
<glyph unicode="M" horiz-adv-x="1183" d="M131 0v1458h166l295 -811l293 811h166v-1458h-177v1038l-231 -682h-108l-228 666v-1022h-176z" />
<glyph unicode="N" horiz-adv-x="976" d="M131 0v1458h164l375 -997l-2 997h176v-1458h-160l-377 997v-997h-176z" />
<glyph unicode="O" horiz-adv-x="905" d="M96 729q0 303 18.5 433t88.5 208q95 105 250 105q157 0 252 -105q70 -77 87 -205t17 -436t-17 -436t-87 -205q-94 -104 -252 -104q-156 0 -250 104q-70 78 -88.5 208t-18.5 433zM272 729q0 -264 12 -372t50 -160q42 -56 119 -56q76 0 118 56q38 52 50 160t12 372 t-12 372.5t-50 160.5q-42 55 -118 55q-77 0 -119 -55q-38 -52 -50 -160.5t-12 -372.5z" />
<glyph unicode="P" horiz-adv-x="890" d="M131 0v1458h328q175 0 260.5 -95.5t85.5 -328.5q0 -225 -82 -326.5t-264 -101.5h-152v-606h-176zM307 764h156q95 0 130.5 68t35.5 200t-35.5 200t-130.5 68h-156v-536z" />
<glyph unicode="Q" horiz-adv-x="905" d="M96 729q0 303 18.5 433t88.5 208q95 105 250 105q157 0 252 -105q70 -77 87 -205t17 -436q0 -258 -11.5 -379.5t-52.5 -199.5l117 -99l-84 -100l-116 98q-81 -65 -209 -65q-156 0 -250 104q-70 78 -88.5 208t-18.5 433zM272 729q0 -268 11.5 -374.5t50.5 -159.5 q41 -54 119 -54q41 0 73 21l-94 80l84 100l84 -72q20 56 26.5 152.5t6.5 306.5q0 268 -11.5 375t-50.5 160q-40 53 -118 53q-79 0 -119 -53q-39 -53 -50.5 -160t-11.5 -375z" />
<glyph unicode="R" horiz-adv-x="931" d="M131 0v1458h330q86 0 147.5 -20.5t107 -67.5t67.5 -128.5t22 -199.5q0 -155 -41 -245.5t-135 -134.5l223 -662h-184l-201 627h-160v-627h-176zM307 782h156q95 0 130.5 65.5t35.5 194.5q0 127 -35.5 192.5t-130.5 65.5h-156v-518z" />
<glyph unicode="S" horiz-adv-x="860" d="M78 381h176q0 -75 10.5 -118t38.5 -73q42 -45 121 -45q80 0 125 48q28 31 37.5 74t9.5 120q0 127 -27.5 179.5t-115.5 88.5l-166 68q-114 46 -156.5 123t-42.5 241q0 197 111 299q90 84 231 84q155 0 242 -84q53 -52 74.5 -123t21.5 -176h-176q0 63 -9.5 104t-35.5 73 q-40 49 -119 49q-71 0 -113 -45q-51 -57 -51 -174q0 -109 26 -154.5t113 -81.5l164 -67q121 -50 163 -136.5t42 -263.5q0 -119 -19.5 -192.5t-70.5 -124.5q-91 -88 -258 -88q-168 0 -256 88q-50 50 -70 119t-20 188z" />
<glyph unicode="T" horiz-adv-x="751" d="M43 1300v158h666v-158h-244v-1300h-176v1300h-246z" />
<glyph unicode="U" horiz-adv-x="911" d="M119 332v1126h176v-1136q0 -84 45.5 -132.5t114.5 -48.5t115 49t46 132v1136h177v-1126q0 -157 -95 -252q-96 -96 -243 -96q-146 0 -242 96q-94 94 -94 252z" />
<glyph unicode="V" horiz-adv-x="827" d="M8 1458h195l211 -1173l213 1173h192l-315 -1458h-180z" />
<glyph unicode="W" horiz-adv-x="1335" d="M8 1458h195l149 -1173l217 1173h197l221 -1173l148 1173h192l-250 -1458h-182l-227 1174l-226 -1174h-182z" />
<glyph unicode="X" horiz-adv-x="825" d="M31 0l278 758l-256 700h193l166 -532l168 532h192l-264 -700l287 -758h-193l-190 578l-189 -578h-192z" />
<glyph unicode="Y" horiz-adv-x="722" d="M4 1458h193l163 -622l164 622h195l-270 -868v-590h-177v590z" />
<glyph unicode="Z" horiz-adv-x="714" d="M63 0v133l406 1167h-379v158h561v-133l-403 -1167h403v-158h-588z" />
<glyph unicode="[" horiz-adv-x="530" d="M119 -152v1762h352v-146h-186v-1470h186v-146h-352z" />
<glyph unicode="\" horiz-adv-x="557" d="M8 1610h162l379 -1762h-162z" />
<glyph unicode="]" horiz-adv-x="530" d="M59 -6h187v1470h-187v146h353v-1762h-353v146z" />
<glyph unicode="^" horiz-adv-x="931" d="M117 893l274 575h150l274 -575h-164l-184 407l-184 -407h-166z" />
<glyph unicode="_" horiz-adv-x="909" d="M0 -170h909v-125h-909v125z" />
<glyph unicode="`" horiz-adv-x="772" d="M168 1477h151l142 -277h-127z" />
<glyph unicode="a" d="M66 301q0 155 94 240q41 37 93 54t132 17h109v168q0 74 -32 113t-93 39q-47 0 -82 -35q-39 -42 -39 -123h-166q0 143 82 225q36 36 90 57t115 21q133 0 206 -73q84 -87 84 -234v-770h-157v94q-21 -38 -62 -71q-51 -39 -125 -39q-112 0 -182 79q-67 77 -67 238zM231 307 q0 -85 33 -131.5t96 -46.5q60 0 97 46t37 120v197h-95q-76 0 -118 -39q-23 -21 -36.5 -61.5t-13.5 -84.5z" />
<glyph unicode="b" horiz-adv-x="792" d="M117 0v1458h166v-471q24 39 59 60q49 30 115 30q110 0 176 -78q48 -56 62 -159.5t14 -309.5t-14 -309.5t-62 -159.5q-66 -77 -176 -77q-62 0 -115 32q-16 10 -37.5 31t-28.5 35v-82h-159zM283 289q0 -84 41 -125q31 -31 86 -31q61 0 92 45q27 37 34 112.5t7 239.5 q0 165 -7 241.5t-34 113.5q-31 45 -92 45q-53 0 -86 -33q-41 -41 -41 -123v-485z" />
<glyph unicode="c" horiz-adv-x="741" d="M82 530q0 179 16 284.5t62 164.5q72 98 223 98q138 0 207 -69q80 -80 84 -242h-164q0 83 -33 123q-35 41 -92 41q-63 0 -94 -45q-27 -37 -35 -115.5t-8 -239.5q0 -160 8 -237.5t35 -114.5q31 -45 94 -45q54 0 90 39q35 40 35 123h164q-3 -159 -82 -238q-70 -73 -209 -73 q-151 0 -223 98q-46 59 -62 164t-16 284z" />
<glyph unicode="d" horiz-adv-x="792" d="M82 530q0 203 15 308t63 161q66 78 176 78q65 0 115 -30q35 -21 59 -60v471h166v-1458h-162v82q-7 -15 -27.5 -36t-35.5 -30q-53 -32 -115 -32q-110 0 -176 77q-48 56 -63 161t-15 308zM248 530q0 -160 8 -237.5t35 -114.5q31 -45 90 -45q55 0 86 31q43 43 43 125v485 q0 80 -43 123q-33 33 -86 33q-59 0 -90 -45q-27 -37 -35 -115.5t-8 -239.5z" />
<glyph unicode="e" horiz-adv-x="761" d="M82 530q0 191 17.5 299t74.5 166q79 82 209 82q133 0 209 -82q42 -45 63 -128t25 -159.5t4 -215.5h-436q0 -135 9.5 -208t35.5 -106q36 -45 92 -45t94 41q37 43 37 121h164q-3 -147 -84 -234q-71 -77 -211 -77q-130 0 -209 82q-57 58 -75.5 166.5t-18.5 297.5zM248 616 h270q0 114 -8.5 177.5t-32.5 91.5q-36 45 -94 45q-56 0 -92 -45q-43 -51 -43 -269z" />
<glyph unicode="f" horiz-adv-x="520" d="M35 932v129h121v102q0 160 92 236q80 67 237 67v-149q-163 0 -163 -160v-96h163v-129h-163v-932h-166v932h-121z" />
<glyph unicode="g" horiz-adv-x="792" d="M82 555q0 190 18 290.5t66 155.5q33 39 73.5 57.5t100.5 18.5q61 0 115 -33q36 -22 59 -59v76h162v-1088q0 -114 -20.5 -182t-65.5 -115q-76 -79 -209 -79q-135 0 -213 75q-80 80 -80 230h164q0 -87 37 -127q35 -35 90 -35q56 0 90 39q41 47 41 186v160q-26 -42 -59 -62 q-43 -28 -111 -28q-58 0 -98 18t-76 58q-48 56 -66 155t-18 289zM248 555q0 -148 8 -222t35 -108q38 -45 90 -45q53 0 88 35q41 44 41 121v438q0 80 -41 121q-35 35 -88 35q-52 0 -90 -45q-27 -34 -35 -108t-8 -222z" />
<glyph unicode="h" horiz-adv-x="808" d="M117 0v1458h166v-473q23 37 59 59q54 33 115 33q111 0 180 -78q33 -36 48 -85.5t15 -133.5v-780h-165v780q0 71 -36 109.5t-91 38.5t-90 -38.5t-35 -109.5v-780h-166z" />
<glyph unicode="i" horiz-adv-x="399" d="M102 1249v193h195v-193h-195zM117 0v1061h166v-1061h-166z" />
<glyph unicode="j" horiz-adv-x="399" d="M-43 -248q80 0 120 37t40 123v1149h166v-1155q0 -160 -95 -238q-77 -65 -231 -65v149zM102 1249v193h195v-193h-195z" />
<glyph unicode="k" horiz-adv-x="808" d="M117 0v1458h166v-901l301 504h176l-258 -414l282 -647h-184l-203 500l-114 -183v-317h-166z" />
<glyph unicode="l" horiz-adv-x="466" d="M109 303v1155h165v-1149q0 -159 158 -159v-150q-151 0 -229 66q-94 78 -94 237z" />
<glyph unicode="m" horiz-adv-x="1226" d="M117 0v1061h159v-82q21 38 66 65q54 33 115 33t115 -30t87 -80q41 52 84 77q54 33 121 33q122 0 191 -78q33 -36 47 -85t14 -134v-780h-166v780q0 71 -35 109.5t-90 38.5t-90 -38.5t-35 -109.5v-780h-165v780q0 71 -36 109.5t-91 38.5t-90 -38.5t-35 -109.5v-780h-166z " />
<glyph unicode="n" horiz-adv-x="808" d="M117 0v1061h159v-82q21 38 66 65q54 33 115 33q111 0 180 -78q33 -36 48 -85.5t15 -133.5v-780h-165v780q0 71 -36 109.5t-91 38.5t-90 -38.5t-35 -109.5v-780h-166z" />
<glyph unicode="o" d="M82 530q0 179 16 284.5t62 164.5q72 98 223 98q153 0 225 -98q46 -59 61 -163.5t15 -285.5t-15 -285t-61 -163q-72 -98 -225 -98q-151 0 -223 98q-46 59 -62 164t-16 284zM248 530q0 -160 8 -237.5t35 -114.5q31 -45 92 -45q63 0 94 45q27 37 34 112.5t7 239.5 q0 165 -7 241.5t-34 113.5q-31 45 -94 45q-61 0 -92 -45q-27 -37 -35 -115.5t-8 -239.5z" />
<glyph unicode="p" horiz-adv-x="792" d="M117 -397v1458h159v-82q7 14 28.5 34.5t37.5 30.5q54 33 115 33q109 0 176 -78q48 -56 62 -159.5t14 -309.5t-14 -309.5t-62 -159.5q-65 -77 -176 -77q-65 0 -115 30q-35 21 -59 60v-471h-166zM283 289q0 -84 41 -125q31 -31 86 -31q61 0 92 45q27 37 34 112.5t7 239.5 q0 165 -7 241.5t-34 113.5q-31 45 -92 45q-53 0 -86 -33q-41 -41 -41 -123v-485z" />
<glyph unicode="q" horiz-adv-x="792" d="M82 530q0 203 15 308t63 161q67 78 176 78q61 0 115 -33q15 -9 35.5 -29.5t27.5 -35.5v82h162v-1458h-166v471q-24 -39 -59 -60q-50 -30 -115 -30q-111 0 -176 77q-48 56 -63 161t-15 308zM248 530q0 -160 8 -237.5t35 -114.5q31 -45 90 -45q55 0 86 31q43 43 43 125v485 q0 80 -43 123q-33 33 -86 33q-59 0 -90 -45q-27 -37 -35 -115.5t-8 -239.5z" />
<glyph unicode="r" horiz-adv-x="557" d="M117 0v1061h159v-113q23 42 74 76q74 53 174 53v-159h-49q-86 0 -139 -52.5t-53 -142.5v-723h-166z" />
<glyph unicode="s" horiz-adv-x="735" d="M61 299h164q0 -81 45 -129q37 -37 95 -37q61 0 100 39q41 41 41 107q0 53 -27 96q-25 39 -94 76l-137 69q-103 52 -146 123q-32 54 -32 139q0 127 88 215q80 80 209 80q130 0 206 -76q86 -83 86 -233h-163q0 85 -39 127q-34 37 -90 37q-58 0 -93 -35q-38 -38 -38 -102 q0 -43 18 -78q22 -39 88 -70l135 -67q106 -52 150 -121q45 -67 45 -170q0 -131 -90 -221q-81 -84 -217 -84q-134 0 -213 82q-91 94 -91 233z" />
<glyph unicode="t" horiz-adv-x="532" d="M35 932v129h121v291h166v-291h163v-129h-163v-623q0 -83 42.5 -121t127.5 -38v-150q-81 0 -139 13.5t-105 52.5q-92 76 -92 237v629h-121z" />
<glyph unicode="u" horiz-adv-x="808" d="M109 281v780h165v-780q0 -71 36 -109.5t91 -38.5t90 38.5t35 109.5v780h166v-1061h-160v82q-22 -40 -65 -66q-53 -32 -115 -32q-112 0 -180 77q-33 36 -48 86t-15 134z" />
<glyph unicode="v" horiz-adv-x="702" d="M8 1061h182l162 -799l160 799h182l-254 -1061h-176z" />
<glyph unicode="w" horiz-adv-x="1077" d="M8 1061h189l120 -799l142 799h149l150 -799l123 799h188l-223 -1061h-168l-143 776l-140 -776h-168z" />
<glyph unicode="x" horiz-adv-x="729" d="M27 0l241 541l-229 520h184l142 -371l141 371h184l-233 -520l245 -541h-184l-153 383l-154 -383h-184z" />
<glyph unicode="y" horiz-adv-x="706" d="M8 1061h182l162 -797l160 797h182l-299 -1231q-16 -69 -48 -115t-80 -70t-100 -33t-124 -9v147q81 0 126.5 27t63.5 96l33 129z" />
<glyph unicode="z" horiz-adv-x="616" d="M49 0v127l334 786h-311v148h495v-127l-334 -784h334v-150h-518z" />
<glyph unicode="{" horiz-adv-x="636" d="M59 655v148h58q52 0 85.5 37t33.5 100v393q0 134 71 205q72 72 185 72h86v-150h-58q-52 0 -85.5 -36t-33.5 -99v-379q0 -119 -59 -178q-8 -8 -18.5 -15t-16.5 -10t-18.5 -8t-14.5 -6q46 -14 68 -39q59 -59 59 -178v-379q0 -63 33.5 -99t85.5 -36h58v-150h-86 q-113 0 -185 72q-71 71 -71 205v393q0 63 -33.5 100t-85.5 37h-58z" />
<glyph unicode="|" horiz-adv-x="593" d="M215 -152v1762h166v-1762h-166z" />
<glyph unicode="}" horiz-adv-x="636" d="M59 -2h58q53 0 87 36t34 99v379q0 121 57 178q8 8 18.5 15t17.5 10t19 8t15 6q-49 15 -70 39q-57 57 -57 178v379q0 63 -34 99t-87 36h-58v150h86q113 0 185 -72q73 -73 73 -205v-393q0 -63 32.5 -100t84.5 -37h58v-148h-58q-52 0 -84.5 -37t-32.5 -100v-393 q0 -132 -73 -205q-72 -72 -185 -72h-86v150z" />
<glyph unicode="~" horiz-adv-x="909" d="M72 582q69 69 119 96t110 27q72 0 174 -52q71 -33 106 -38q11 -1 23 -1q36 0 64.5 15t68.5 55l103 -100q-69 -69 -120.5 -96t-111.5 -27q-72 0 -172 51q-71 33 -106 38q-11 1 -23 1q-37 0 -66.5 -14.5t-68.5 -53.5z" />
<glyph unicode="&#xa1;" horiz-adv-x="495" d="M121 858v203h203v-203h-203zM139 -397v1063h166v-1063h-166z" />
<glyph unicode="&#xa2;" horiz-adv-x="751" d="M90 737q0 173 15 272.5t61 155.5q60 74 160 90v203h131v-203q86 -12 139 -63q80 -75 84 -231h-164q0 80 -33 118q-19 19 -26 23v-727q16 12 24 20q35 37 35 117h164q-3 -149 -82 -225q-54 -51 -141 -66v-221h-131v219q-100 16 -160 90q-46 56 -61 155.5t-15 272.5z M256 737q0 -157 7 -229t34 -107q15 -19 29 -26v725q-12 -6 -29 -27q-27 -35 -34 -107t-7 -229z" />
<glyph unicode="&#xa3;" horiz-adv-x="874" d="M68 692v127h131v295q0 164 100.5 262.5t249.5 98.5q77 0 145 -28.5t115 -80.5l-123 -117q-56 68 -137 68q-74 0 -124 -54t-50 -145v-299h174v-127h-174v-534h434v-158h-610v692h-131z" />
<glyph unicode="&#xa4;" horiz-adv-x="1220" d="M195 260l116 115q-59 88 -59 194q0 109 59 197l-116 115l104 104l115 -115q86 58 196 58q109 0 195 -58l115 115l104 -104l-117 -115q62 -92 62 -197q0 -102 -62 -194l117 -115l-104 -104l-115 116q-91 -61 -195 -61q-105 0 -196 61l-115 -116zM397 569q0 -88 62 -149.5 t151 -61.5q88 0 149.5 61.5t61.5 149.5q0 89 -61.5 151t-149.5 62q-89 0 -151 -62t-62 -151z" />
<glyph unicode="&#xa5;" horiz-adv-x="722" d="M14 1458h187l159 -622l162 622h185l-189 -629h113v-127h-152l-35 -112v-82h187v-127h-187v-381h-168v381h-186v127h186v82l-32 112h-154v127h113z" />
<glyph unicode="&#xa6;" horiz-adv-x="593" d="M215 -150v713h166v-713h-166zM215 895v713h166v-713h-166z" />
<glyph unicode="&#xa7;" horiz-adv-x="837" d="M106 555q0 129 18 192.5t75 114.5q38 35 84 45q-86 49 -123 111q-35 59 -35 149q0 125 86 211q80 80 211 80q120 0 196 -67q93 -84 93 -224h-166q0 69 -37 109q-35 35 -86 35q-55 0 -88 -33q-39 -36 -39 -98q0 -55 20 -88q27 -42 84 -70l142 -70q72 -33 106 -67 q54 -55 69 -119t15 -211q0 -131 -18.5 -198.5t-73.5 -116.5q-33 -30 -82 -41q84 -53 119 -111q39 -67 39 -156q0 -137 -84 -221q-77 -80 -219 -80q-129 0 -211 82q-86 86 -86 215h168q0 -66 41 -110q34 -37 88 -37q61 0 98 37q35 38 35 104q0 56 -25 92q-31 44 -92 74 l-141 70q-60 29 -90 59q-59 57 -75 128.5t-16 209.5zM272 555q0 -96 10.5 -149.5t41.5 -83.5q40 -37 94 -37q59 0 96 37q31 30 41 82.5t10 150.5q0 101 -9 150.5t-42 80.5q-37 37 -96 37q-56 0 -94 -35q-31 -29 -41.5 -80.5t-10.5 -152.5z" />
<glyph unicode="&#xa8;" horiz-adv-x="772" d="M141 1231v168h168v-168h-168zM463 1231v168h166v-168h-166z" />
<glyph unicode="&#xa9;" horiz-adv-x="1746" d="M131 729q0 151 58.5 288.5t157.5 236.5t236.5 157.5t288.5 58.5q202 0 372.5 -99t270 -269.5t99.5 -372.5t-99.5 -372.5t-270 -269.5t-372.5 -99q-151 0 -288.5 58.5t-236.5 157.5t-157.5 236.5t-58.5 288.5zM252 729q0 -174 82 -319.5t224.5 -229.5t313.5 -84t314.5 84 t226 229.5t82.5 319.5t-82.5 319.5t-226 229.5t-314.5 84t-313.5 -84t-224.5 -229.5t-82 -319.5zM666 727q0 145 10.5 225t48.5 125q58 68 152 68q84 0 139 -55q58 -58 61 -177h-110q0 68 -25 99q-24 30 -65 30q-43 0 -68 -32q-20 -29 -26.5 -94t-6.5 -189q0 -128 6 -190.5 t27 -90.5q26 -34 68 -34q40 0 65 28q25 31 25 103h110q-3 -120 -61 -178q-54 -54 -139 -54q-94 0 -152 68q-38 45 -48.5 124.5t-10.5 223.5z" />
<glyph unicode="&#xaa;" horiz-adv-x="643" d="M59 864q0 117 82 189q64 55 183 55h86v123q0 52 -26.5 83.5t-74.5 31.5q-40 0 -69 -29q-29 -31 -29 -96h-139q0 116 69 182q66 63 168 63q109 0 170 -61q70 -70 70 -184v-592h-131v67q-17 -27 -53 -51q-42 -27 -99 -27q-93 0 -151 64q-56 59 -56 182zM199 870 q0 -60 25 -96.5t79 -36.5q45 0 76 38t31 97v134h-76q-61 0 -92 -27q-43 -40 -43 -109z" />
<glyph unicode="&#xab;" horiz-adv-x="802" d="M53 557l303 469v-260l-139 -209l139 -211v-260zM395 557l303 469v-260l-141 -209l141 -211v-260z" />
<glyph unicode="&#xac;" horiz-adv-x="909" d="M102 518v158h705v-377h-158v219h-547z" />
<glyph unicode="&#xad;" horiz-adv-x="610" d="M104 500v157h402v-157h-402z" />
<glyph unicode="&#xae;" horiz-adv-x="1746" d="M131 729q0 151 58.5 288.5t157.5 236.5t236.5 157.5t288.5 58.5q202 0 372.5 -99t270 -269.5t99.5 -372.5t-99.5 -372.5t-270 -269.5t-372.5 -99q-151 0 -288.5 58.5t-236.5 157.5t-157.5 236.5t-58.5 288.5zM252 729q0 -174 82 -319.5t224.5 -229.5t313.5 -84t314.5 84 t226 229.5t82.5 319.5t-82.5 319.5t-226 229.5t-314.5 84t-313.5 -84t-224.5 -229.5t-82 -319.5zM686 322v813h209q89 0 139 -50q31 -31 43.5 -74.5t12.5 -111.5q0 -69 -11.5 -109t-42.5 -71q-18 -18 -41 -31l119 -366h-115l-106 344h-96v-344h-111zM797 766h98q35 0 57 22 q27 29 27 111q0 45 -4.5 69.5t-20.5 41.5q-22 22 -59 22h-98v-266z" />
<glyph unicode="&#xaf;" horiz-adv-x="772" d="M152 1253v117h469v-117h-469z" />
<glyph unicode="&#xb0;" horiz-adv-x="811" d="M100 1178q0 126 90 214.5t216 88.5t215.5 -88.5t89.5 -214.5t-89.5 -216t-215.5 -90t-216 90t-90 216zM248 1178q0 -69 45.5 -115.5t112.5 -46.5t112 46.5t45 115.5q0 68 -45 113.5t-112 45.5q-68 0 -113 -45t-45 -114z" />
<glyph unicode="&#xb1;" horiz-adv-x="909" d="M94 49v158h721v-158h-721zM94 616v158h283v281h158v-281h280v-158h-280v-280h-158v280h-283z" />
<glyph unicode="&#xb2;" horiz-adv-x="651" d="M100 1204v45q0 110 60 164q61 55 164 55q99 0 159 -49q68 -55 68 -157q0 -98 -62 -195l-247 -387h309v-96h-447v92l277 434q45 68 45 156q0 47 -28 74.5t-74 27.5q-101 0 -101 -115v-49h-123z" />
<glyph unicode="&#xb3;" horiz-adv-x="651" d="M90 799v30h125v-32q0 -73 27 -97q29 -26 73 -26q48 0 74 26q31 34 31 129q0 97 -27 129q-26 33 -78 33h-55v96h55q40 0 68 25q33 31 33 121q0 82 -31 113q-22 22 -70 22q-44 0 -71 -27q-25 -25 -25 -86v-38h-125v34q0 110 58 162q61 55 163 55q104 0 160 -53 q64 -61 64 -176q0 -92 -35 -143q-31 -43 -70 -58q52 -19 78 -61q33 -48 33 -154q0 -75 -13.5 -118t-52.5 -78q-60 -54 -164 -54q-103 0 -165 56q-31 28 -45.5 66t-14.5 104z" />
<glyph unicode="&#xb4;" horiz-adv-x="772" d="M311 1200l140 277h151l-166 -277h-125z" />
<glyph unicode="&#xb5;" horiz-adv-x="817" d="M115 -397v1458h166v-780q0 -71 35 -109.5t90 -38.5t90.5 38.5t35.5 109.5v780h166v-1061h-161v82q-23 -41 -64 -66q-53 -32 -119 -32q-25 0 -48.5 8.5t-31.5 19.5v-409h-159z" />
<glyph unicode="&#xb6;" horiz-adv-x="1167" d="M84 1032q0 426 295 426h670v-1855h-166v1700h-228v-1700h-166v1003h-110q-295 0 -295 426z" />
<glyph unicode="&#xb7;" horiz-adv-x="544" d="M127 477v289h289v-289h-289z" />
<glyph unicode="&#xb8;" horiz-adv-x="772" d="M229 -373l117 295h117l-103 -295h-131z" />
<glyph unicode="&#xb9;" horiz-adv-x="651" d="M139 1233v125l148 100h123v-874h-123v745z" />
<glyph unicode="&#xba;" horiz-adv-x="641" d="M76 1040q0 138 13 220.5t50 128.5q63 77 180 77q120 0 183 -77q37 -46 50 -128.5t13 -220.5t-13 -220t-50 -128q-62 -76 -183 -76q-118 0 -180 76q-37 46 -50 128t-13 220zM215 1040q0 -112 6 -175.5t27 -92.5q23 -33 71 -33q46 0 72 33q35 49 35 268q0 220 -35 269 q-27 34 -72 34q-47 0 -71 -34q-21 -29 -27 -92.5t-6 -176.5z" />
<glyph unicode="&#xbb;" horiz-adv-x="802" d="M104 86v260l142 211l-142 209v260l304 -469zM446 86v260l140 211l-140 209v260l304 -469z" />
<glyph unicode="&#xbc;" horiz-adv-x="1624" d="M139 1233v125l148 100h123v-874h-125v745zM469 0l506 1458h131l-506 -1458h-131zM1030 129v100l240 645h121l-236 -645h176v179h123v-179h68v-100h-68v-129h-123v129h-301z" />
<glyph unicode="&#xbd;" horiz-adv-x="1624" d="M139 1233v125l148 100h123v-874h-125v745zM469 0l506 1458h131l-506 -1458h-131zM1075 621v45q0 109 60 163q62 56 163 56q100 0 160 -49q68 -55 68 -158q0 -98 -62 -195l-247 -387h309v-96h-447v92l277 434q45 68 45 156q0 47 -28.5 74.5t-74.5 27.5q-100 0 -100 -114 v-49h-123z" />
<glyph unicode="&#xbe;" horiz-adv-x="1624" d="M90 799v30h125v-32q0 -73 27 -97q29 -26 73 -26q48 0 74 26q31 34 31 129q0 97 -27 129q-26 33 -78 33h-55v96h55q40 0 68 25q33 31 33 121q0 82 -31 113q-22 22 -70 22q-44 0 -71 -27q-25 -25 -25 -86v-38h-125v34q0 110 58 162q61 55 163 55q104 0 160 -53 q64 -61 64 -176q0 -92 -35 -143q-31 -43 -70 -58q52 -19 78 -61q33 -48 33 -154q0 -75 -13.5 -118t-52.5 -78q-60 -54 -164 -54q-103 0 -165 56q-31 28 -45.5 66t-14.5 104zM469 0l506 1458h131l-506 -1458h-131zM1028 129v100l242 645h121l-236 -645h176v179h123v-179h68 v-100h-68v-129h-123v129h-303z" />
<glyph unicode="&#xbf;" horiz-adv-x="819" d="M78 -35q0 81 13.5 136.5t49.5 107.5l121 174q45 65 45 143v140h166v-160q0 -87 -57 -172l-119 -174q-32 -47 -42.5 -90t-10.5 -109q0 -125 49 -180q38 -41 100 -41q60 0 99 39q47 49 47 168h166q0 -186 -89 -271q-89 -86 -223 -86q-141 0 -225 84q-48 48 -69 115t-21 176 zM289 858v203h203v-203h-203z" />
<glyph unicode="&#xc0;" horiz-adv-x="868" d="M10 0l340 1458h170l338 -1458h-186l-70 344h-338l-69 -344h-185zM221 1837h152l141 -276h-127zM297 502h272l-135 672z" />
<glyph unicode="&#xc1;" horiz-adv-x="868" d="M10 0l340 1458h170l338 -1458h-186l-70 344h-338l-69 -344h-185zM297 502h272l-135 672zM362 1561l142 276h151l-166 -276h-127z" />
<glyph unicode="&#xc2;" horiz-adv-x="868" d="M10 0l340 1458h170l338 -1458h-186l-70 344h-338l-69 -344h-185zM180 1561l191 276h135l190 -276h-135l-123 178l-123 -178h-135zM297 502h272l-135 672z" />
<glyph unicode="&#xc3;" horiz-adv-x="868" d="M10 0l340 1458h170l338 -1458h-186l-70 344h-338l-69 -344h-185zM174 1675q49 50 85.5 69t76.5 19q63 0 119 -37q52 -30 88 -30q22 0 41.5 9t48.5 38l78 -76q-50 -50 -87 -68t-77 -18q-62 0 -119 35q-3 2 -12.5 6.5t-13 6.5t-11.5 5.5t-12.5 5t-11.5 4t-13.5 3t-13.5 0.5 q-23 0 -42 -9t-50 -39zM297 502h272l-135 672z" />
<glyph unicode="&#xc4;" horiz-adv-x="868" d="M10 0l340 1458h170l338 -1458h-186l-70 344h-338l-69 -344h-185zM195 1591v166h167v-166h-167zM297 502h272l-135 672zM514 1591v166h168v-166h-168z" />
<glyph unicode="&#xc5;" horiz-adv-x="868" d="M10 0l340 1458h170l338 -1458h-186l-70 344h-338l-69 -344h-185zM238 1741q0 83 58.5 142t141.5 59t142 -59t59 -142t-59 -142t-142 -59t-141.5 59t-58.5 142zM297 502h272l-135 672zM338 1741q0 -41 29.5 -71t70.5 -30t71 30t30 71t-30 70.5t-71 29.5t-70.5 -29.5 t-29.5 -70.5z" />
<glyph unicode="&#xc6;" horiz-adv-x="1310" d="M10 0l539 1458h676v-158h-385v-489h331v-158h-331v-495h385v-158h-561v352h-334l-125 -352h-195zM385 512h279v788z" />
<glyph unicode="&#xc7;" horiz-adv-x="866" d="M96 729q0 303 18.5 433t88.5 208q95 105 250 105q142 0 231 -86q101 -98 104 -291h-176q0 112 -45 168q-41 51 -114 51q-77 0 -119 -55q-38 -52 -50 -160.5t-12 -372.5t12 -372t50 -160q42 -56 119 -56q70 0 114 54q47 58 47 165h177q-3 -196 -113 -297q-85 -79 -225 -79 q-156 0 -250 104q-70 78 -88.5 208t-18.5 433zM281 -373l116 295h117l-102 -295h-131z" />
<glyph unicode="&#xc8;" horiz-adv-x="778" d="M131 0v1458h563v-158h-387v-489h334v-158h-334v-495h387v-158h-563zM203 1837h151l142 -276h-127z" />
<glyph unicode="&#xc9;" horiz-adv-x="778" d="M131 0v1458h563v-158h-387v-489h334v-158h-334v-495h387v-158h-563zM344 1561l141 276h152l-166 -276h-127z" />
<glyph unicode="&#xca;" horiz-adv-x="778" d="M131 0v1458h563v-158h-387v-489h334v-158h-334v-495h387v-158h-563zM162 1561l190 276h135l191 -276h-135l-123 178l-123 -178h-135z" />
<glyph unicode="&#xcb;" horiz-adv-x="778" d="M131 0v1458h563v-158h-387v-489h334v-158h-334v-495h387v-158h-563zM176 1591v166h168v-166h-168zM496 1591v166h168v-166h-168z" />
<glyph unicode="&#xcc;" horiz-adv-x="440" d="M4 1837h152l141 -276h-127zM131 0v1458h176v-1458h-176z" />
<glyph unicode="&#xcd;" horiz-adv-x="440" d="M131 0v1458h176v-1458h-176zM145 1561l142 276h151l-166 -276h-127z" />
<glyph unicode="&#xce;" horiz-adv-x="440" d="M-37 1561l191 276h135l190 -276h-135l-123 178l-123 -178h-135zM131 0v1458h176v-1458h-176z" />
<glyph unicode="&#xcf;" horiz-adv-x="440" d="M-23 1591v166h168v-166h-168zM131 0v1458h176v-1458h-176zM297 1591v166h168v-166h-168z" />
<glyph unicode="&#xd0;" horiz-adv-x="940" d="M47 662v141h107v655h335q155 0 250 -102q70 -76 87.5 -201.5t17.5 -425.5t-17.5 -425.5t-87.5 -201.5q-95 -102 -250 -102h-335v662h-107zM330 158h153q83 0 125 55q38 51 49 152.5t11 363.5t-11 363.5t-49 152.5q-42 55 -125 55h-153v-497h166v-141h-166v-504z" />
<glyph unicode="&#xd1;" horiz-adv-x="976" d="M131 0v1458h164l375 -997l-2 997h176v-1458h-160l-377 997v-997h-176zM223 1675q49 50 85.5 69t76.5 19q63 0 119 -37q52 -30 88 -30q22 0 41.5 9t48.5 38l78 -76q-50 -50 -87 -68t-77 -18q-62 0 -119 35q-3 2 -12.5 6.5t-13 6.5t-11.5 5.5t-12.5 5t-11.5 4t-13.5 3 t-13.5 0.5q-23 0 -42 -9t-50 -39z" />
<glyph unicode="&#xd2;" horiz-adv-x="905" d="M96 729q0 303 18.5 433t88.5 208q95 105 250 105q157 0 252 -105q70 -77 87 -205t17 -436t-17 -436t-87 -205q-94 -104 -252 -104q-156 0 -250 104q-70 78 -88.5 208t-18.5 433zM236 1837h151l141 -276h-127zM272 729q0 -264 12 -372t50 -160q42 -56 119 -56q76 0 118 56 q38 52 50 160t12 372t-12 372.5t-50 160.5q-42 55 -118 55q-77 0 -119 -55q-38 -52 -50 -160.5t-12 -372.5z" />
<glyph unicode="&#xd3;" horiz-adv-x="905" d="M96 729q0 303 18.5 433t88.5 208q95 105 250 105q157 0 252 -105q70 -77 87 -205t17 -436t-17 -436t-87 -205q-94 -104 -252 -104q-156 0 -250 104q-70 78 -88.5 208t-18.5 433zM272 729q0 -264 12 -372t50 -160q42 -56 119 -56q76 0 118 56q38 52 50 160t12 372 t-12 372.5t-50 160.5q-42 55 -118 55q-77 0 -119 -55q-38 -52 -50 -160.5t-12 -372.5zM377 1561l141 276h152l-166 -276h-127z" />
<glyph unicode="&#xd4;" horiz-adv-x="905" d="M96 729q0 303 18.5 433t88.5 208q95 105 250 105q157 0 252 -105q70 -77 87 -205t17 -436t-17 -436t-87 -205q-94 -104 -252 -104q-156 0 -250 104q-70 78 -88.5 208t-18.5 433zM195 1561l190 276h135l191 -276h-136l-122 178l-123 -178h-135zM272 729q0 -264 12 -372 t50 -160q42 -56 119 -56q76 0 118 56q38 52 50 160t12 372t-12 372.5t-50 160.5q-42 55 -118 55q-77 0 -119 -55q-38 -52 -50 -160.5t-12 -372.5z" />
<glyph unicode="&#xd5;" horiz-adv-x="905" d="M96 729q0 303 18.5 433t88.5 208q95 105 250 105q157 0 252 -105q70 -77 87 -205t17 -436t-17 -436t-87 -205q-94 -104 -252 -104q-156 0 -250 104q-70 78 -88.5 208t-18.5 433zM188 1675q49 50 85.5 69t76.5 19q63 0 119 -37q52 -30 88 -30q22 0 41.5 9t48.5 38l78 -76 q-50 -50 -87 -68t-77 -18q-62 0 -119 35q-3 2 -12.5 6.5t-13 6.5t-11.5 5.5t-12.5 5t-11.5 4t-13.5 3t-13.5 0.5q-23 0 -42 -9t-50 -39zM272 729q0 -264 12 -372t50 -160q42 -56 119 -56q76 0 118 56q38 52 50 160t12 372t-12 372.5t-50 160.5q-42 55 -118 55 q-77 0 -119 -55q-38 -52 -50 -160.5t-12 -372.5z" />
<glyph unicode="&#xd6;" horiz-adv-x="905" d="M96 729q0 303 18.5 433t88.5 208q95 105 250 105q157 0 252 -105q70 -77 87 -205t17 -436t-17 -436t-87 -205q-94 -104 -252 -104q-156 0 -250 104q-70 78 -88.5 208t-18.5 433zM209 1591v166h168v-166h-168zM272 729q0 -264 12 -372t50 -160q42 -56 119 -56q76 0 118 56 q38 52 50 160t12 372t-12 372.5t-50 160.5q-42 55 -118 55q-77 0 -119 -55q-38 -52 -50 -160.5t-12 -372.5zM528 1591v166h168v-166h-168z" />
<glyph unicode="&#xd7;" horiz-adv-x="909" d="M109 330l239 239l-239 238l108 108l238 -239l239 239l107 -108l-238 -238l238 -239l-107 -107l-239 238l-238 -238z" />
<glyph unicode="&#xd8;" horiz-adv-x="882" d="M96 729q0 303 18.5 433t88.5 208q95 105 250 105q102 0 170 -41l39 114h126l-67 -198q58 -75 73 -206t15 -415q0 -308 -17 -436t-87 -205q-94 -104 -252 -104q-105 0 -170 39l-39 -113h-127l69 196q-59 75 -74.5 206t-15.5 417zM272 729q0 -283 17 -360l278 901 q-41 47 -114 47q-77 0 -119 -55q-38 -52 -50 -160.5t-12 -372.5zM338 186q39 -45 115 -45t118 56q38 52 50 160t12 372q0 269 -17 358z" />
<glyph unicode="&#xd9;" horiz-adv-x="911" d="M119 332v1126h176v-1136q0 -84 45.5 -132.5t114.5 -48.5t115 49t46 132v1136h177v-1126q0 -157 -95 -252q-96 -96 -243 -96q-146 0 -242 96q-94 94 -94 252zM238 1837h151l141 -276h-127z" />
<glyph unicode="&#xda;" horiz-adv-x="911" d="M119 332v1126h176v-1136q0 -84 45.5 -132.5t114.5 -48.5t115 49t46 132v1136h177v-1126q0 -157 -95 -252q-96 -96 -243 -96q-146 0 -242 96q-94 94 -94 252zM379 1561l141 276h152l-166 -276h-127z" />
<glyph unicode="&#xdb;" horiz-adv-x="911" d="M119 332v1126h176v-1136q0 -84 45.5 -132.5t114.5 -48.5t115 49t46 132v1136h177v-1126q0 -157 -95 -252q-96 -96 -243 -96q-146 0 -242 96q-94 94 -94 252zM197 1561l190 276h135l191 -276h-135l-123 178l-123 -178h-135z" />
<glyph unicode="&#xdc;" horiz-adv-x="911" d="M119 332v1126h176v-1136q0 -84 45.5 -132.5t114.5 -48.5t115 49t46 132v1136h177v-1126q0 -157 -95 -252q-96 -96 -243 -96q-146 0 -242 96q-94 94 -94 252zM211 1591v166h168v-166h-168zM530 1591v166h168v-166h-168z" />
<glyph unicode="&#xdd;" horiz-adv-x="722" d="M4 1458h193l163 -622l164 622h195l-270 -868v-590h-177v590zM291 1561l141 276h152l-166 -276h-127z" />
<glyph unicode="&#xde;" horiz-adv-x="890" d="M131 0v1458h176v-295h152q86 0 148 -21.5t107.5 -70t68 -131.5t22.5 -203q0 -225 -82 -325.5t-264 -100.5h-152v-311h-176zM307 469h156q95 0 130.5 68t35.5 200t-35.5 199.5t-130.5 67.5h-156v-535z" />
<glyph unicode="&#xdf;" horiz-adv-x="806" d="M117 0v1169q0 142 84 226q83 80 209 80q135 0 213 -78q51 -51 68.5 -113t17.5 -156q0 -133 -37 -204q-25 -48 -74 -80q45 -28 72 -68q34 -48 45.5 -116.5t11.5 -210.5q0 -153 -15.5 -233.5t-74.5 -139.5q-79 -76 -225 -76v150q75 0 106 36q27 31 35 91.5t8 183.5 q0 112 -8 173t-33 93q-30 41 -92 41h-16v141h14q49 0 78 37q18 22 27 54.5t10.5 54.5t1.5 61q0 124 -39 170q-33 39 -92 39q-57 0 -93 -38t-36 -111v-1176h-166z" />
<glyph unicode="&#xe0;" d="M66 301q0 155 94 240q41 37 93 54t132 17h109v168q0 74 -32 113t-93 39q-47 0 -82 -35q-39 -42 -39 -123h-166q0 143 82 225q36 36 90 57t115 21q133 0 206 -73q84 -87 84 -234v-770h-157v94q-21 -38 -62 -71q-51 -39 -125 -39q-112 0 -182 79q-67 77 -67 238zM162 1477 h151l142 -277h-127zM231 307q0 -85 33 -131.5t96 -46.5q60 0 97 46t37 120v197h-95q-76 0 -118 -39q-23 -21 -36.5 -61.5t-13.5 -84.5z" />
<glyph unicode="&#xe1;" d="M66 301q0 155 94 240q41 37 93 54t132 17h109v168q0 74 -32 113t-93 39q-47 0 -82 -35q-39 -42 -39 -123h-166q0 143 82 225q36 36 90 57t115 21q133 0 206 -73q84 -87 84 -234v-770h-157v94q-21 -38 -62 -71q-51 -39 -125 -39q-112 0 -182 79q-67 77 -67 238zM231 307 q0 -85 33 -131.5t96 -46.5q60 0 97 46t37 120v197h-95q-76 0 -118 -39q-23 -21 -36.5 -61.5t-13.5 -84.5zM303 1200l139 277h152l-166 -277h-125z" />
<glyph unicode="&#xe2;" d="M66 301q0 155 94 240q41 37 93 54t132 17h109v168q0 74 -32 113t-93 39q-47 0 -82 -35q-39 -42 -39 -123h-166q0 143 82 225q36 36 90 57t115 21q133 0 206 -73q84 -87 84 -234v-770h-157v94q-21 -38 -62 -71q-51 -39 -125 -39q-112 0 -182 79q-67 77 -67 238zM117 1200 l190 277h137l191 -277h-137l-123 178l-121 -178h-137zM231 307q0 -85 33 -131.5t96 -46.5q60 0 97 46t37 120v197h-95q-76 0 -118 -39q-23 -21 -36.5 -61.5t-13.5 -84.5z" />
<glyph unicode="&#xe3;" d="M66 301q0 155 94 240q41 37 93 54t132 17h109v168q0 74 -32 113t-93 39q-47 0 -82 -35q-39 -42 -39 -123h-166q0 143 82 225q36 36 90 57t115 21q133 0 206 -73q84 -87 84 -234v-770h-157v94q-21 -38 -62 -71q-51 -39 -125 -39q-112 0 -182 79q-67 77 -67 238zM113 1317 q49 49 85 67.5t76 18.5q62 0 119 -35q53 -31 88 -31q22 0 41.5 9t48.5 38l78 -77q-50 -49 -87.5 -67.5t-76.5 -18.5q-57 0 -118 34q-53 31 -88 31q-24 0 -43 -8t-50 -39zM231 307q0 -85 33 -131.5t96 -46.5q60 0 97 46t37 120v197h-95q-76 0 -118 -39q-23 -21 -36.5 -61.5 t-13.5 -84.5z" />
<glyph unicode="&#xe4;" d="M66 301q0 155 94 240q41 37 93 54t132 17h109v168q0 74 -32 113t-93 39q-47 0 -82 -35q-39 -42 -39 -123h-166q0 143 82 225q36 36 90 57t115 21q133 0 206 -73q84 -87 84 -234v-770h-157v94q-21 -38 -62 -71q-51 -39 -125 -39q-112 0 -182 79q-67 77 -67 238zM131 1231 v168h168v-168h-168zM231 307q0 -85 33 -131.5t96 -46.5q60 0 97 46t37 120v197h-95q-76 0 -118 -39q-23 -21 -36.5 -61.5t-13.5 -84.5zM453 1231v168h165v-168h-165z" />
<glyph unicode="&#xe5;" d="M66 301q0 155 94 240q41 37 93 54t132 17h109v168q0 74 -32 113t-93 39q-47 0 -82 -35q-39 -42 -39 -123h-166q0 143 82 225q36 36 90 57t115 21q133 0 206 -73q84 -87 84 -234v-770h-157v94q-21 -38 -62 -71q-51 -39 -125 -39q-112 0 -182 79q-67 77 -67 238zM176 1395 q0 83 58.5 141.5t140.5 58.5q83 0 141.5 -58.5t58.5 -141.5t-58.5 -142t-141.5 -59q-82 0 -140.5 59t-58.5 142zM231 307q0 -85 33 -131.5t96 -46.5q60 0 97 46t37 120v197h-95q-76 0 -118 -39q-23 -21 -36.5 -61.5t-13.5 -84.5zM274 1395q0 -41 30.5 -71t70.5 -30 q41 0 71.5 30t30.5 71t-30.5 70.5t-71.5 29.5q-40 0 -70.5 -29.5t-30.5 -70.5z" />
<glyph unicode="&#xe6;" horiz-adv-x="1173" d="M66 301q0 155 94 240q41 37 93 54t132 17h109v168q0 73 -32 112.5t-91 39.5q-57 0 -86 -37q-37 -40 -37 -121h-166q0 140 82 225q81 78 205 78q111 0 176 -53q21 -21 39 -45q7 12 30 35q72 63 181 63q133 0 209 -82q32 -34 51 -82.5t27.5 -124.5t10.5 -131.5t3 -164.5 h-437q0 -138 8.5 -209.5t34.5 -104.5q33 -45 95 -45q56 0 94 41q37 40 37 123h164q-6 -150 -84 -236q-74 -77 -211 -77q-107 0 -176 57q-44 35 -74 90q-39 -70 -80 -100q-60 -47 -152 -47q-112 0 -182 79q-67 73 -67 238zM231 307q0 -85 33 -131.5t96 -46.5q58 0 96 47 t38 119v197h-95q-76 0 -118 -39q-50 -50 -50 -146zM659 616h271q-2 119 -10 180.5t-31 88.5q-40 43 -94 43q-59 0 -93 -43q-24 -27 -32.5 -88.5t-10.5 -180.5z" />
<glyph unicode="&#xe7;" horiz-adv-x="741" d="M82 530q0 179 16 284.5t62 164.5q72 98 223 98q138 0 207 -69q80 -80 84 -242h-164q0 83 -33 123q-35 41 -92 41q-63 0 -94 -45q-27 -37 -35 -115.5t-8 -239.5q0 -160 8 -237.5t35 -114.5q31 -45 94 -45q54 0 90 39q35 40 35 123h164q-3 -159 -82 -238q-70 -73 -209 -73 q-151 0 -223 98q-46 59 -62 164t-16 284zM229 -373l117 295h117l-103 -295h-131z" />
<glyph unicode="&#xe8;" horiz-adv-x="761" d="M82 530q0 191 17.5 299t74.5 166q79 82 209 82q133 0 209 -82q42 -45 63 -128t25 -159.5t4 -215.5h-436q0 -135 9.5 -208t35.5 -106q36 -45 92 -45t94 41q37 43 37 121h164q-3 -147 -84 -234q-71 -77 -211 -77q-130 0 -209 82q-57 58 -75.5 166.5t-18.5 297.5zM170 1477 h152l141 -277h-127zM248 616h270q0 114 -8.5 177.5t-32.5 91.5q-36 45 -94 45q-56 0 -92 -45q-43 -51 -43 -269z" />
<glyph unicode="&#xe9;" horiz-adv-x="761" d="M82 530q0 191 17.5 299t74.5 166q79 82 209 82q133 0 209 -82q42 -45 63 -128t25 -159.5t4 -215.5h-436q0 -135 9.5 -208t35.5 -106q36 -45 92 -45t94 41q37 43 37 121h164q-3 -147 -84 -234q-71 -77 -211 -77q-130 0 -209 82q-57 58 -75.5 166.5t-18.5 297.5zM248 616 h270q0 114 -8.5 177.5t-32.5 91.5q-36 45 -94 45q-56 0 -92 -45q-43 -51 -43 -269zM311 1200l140 277h151l-166 -277h-125z" />
<glyph unicode="&#xea;" horiz-adv-x="761" d="M82 530q0 191 17.5 299t74.5 166q79 82 209 82q133 0 209 -82q42 -45 63 -128t25 -159.5t4 -215.5h-436q0 -135 9.5 -208t35.5 -106q36 -45 92 -45t94 41q37 43 37 121h164q-3 -147 -84 -234q-71 -77 -211 -77q-130 0 -209 82q-57 58 -75.5 166.5t-18.5 297.5zM125 1200 l190 277h138l190 -277h-137l-123 178l-121 -178h-137zM248 616h270q0 114 -8.5 177.5t-32.5 91.5q-36 45 -94 45q-56 0 -92 -45q-43 -51 -43 -269z" />
<glyph unicode="&#xeb;" horiz-adv-x="761" d="M82 530q0 191 17.5 299t74.5 166q79 82 209 82q133 0 209 -82q42 -45 63 -128t25 -159.5t4 -215.5h-436q0 -135 9.5 -208t35.5 -106q36 -45 92 -45t94 41q37 43 37 121h164q-3 -147 -84 -234q-71 -77 -211 -77q-130 0 -209 82q-57 58 -75.5 166.5t-18.5 297.5zM139 1231 v168h168v-168h-168zM248 616h270q0 114 -8.5 177.5t-32.5 91.5q-36 45 -94 45q-56 0 -92 -45q-43 -51 -43 -269zM461 1231v168h166v-168h-166z" />
<glyph unicode="&#xec;" horiz-adv-x="399" d="M-16 1477h151l141 -277h-126zM117 0v1061h166v-1061h-166z" />
<glyph unicode="&#xed;" horiz-adv-x="399" d="M117 0v1061h166v-1061h-166zM129 1200l139 277h152l-166 -277h-125z" />
<glyph unicode="&#xee;" horiz-adv-x="399" d="M-57 1200l190 277h137l191 -277h-137l-123 178l-121 -178h-137zM117 0v1061h166v-1061h-166z" />
<glyph unicode="&#xef;" horiz-adv-x="399" d="M-41 1231v168h166v-168h-166zM117 0v1061h166v-1061h-166zM279 1231v168h165v-168h-165z" />
<glyph unicode="&#xf0;" horiz-adv-x="774" d="M84 504q0 194 15 292t63 152q67 76 182 76q65 0 119 -33l-64 187h-159v125h118l-55 155h168l55 -155h146v-125h-107l72 -222q27 -85 38 -183.5t11 -268.5q0 -172 -16 -272t-62 -156q-74 -92 -223 -92q-147 0 -221 92q-47 56 -63.5 157.5t-16.5 270.5zM250 506 q0 -152 8 -224t35 -106q32 -43 92 -43q62 0 94 43q27 34 34 104t7 226q0 157 -7 227.5t-34 104.5q-32 43 -94 43q-60 0 -92 -43q-27 -34 -35 -106.5t-8 -225.5z" />
<glyph unicode="&#xf1;" horiz-adv-x="808" d="M117 0v1061h159v-82q21 38 66 65q54 33 115 33q111 0 180 -78q33 -36 48 -85.5t15 -133.5v-780h-165v780q0 71 -36 109.5t-91 38.5t-90 -38.5t-35 -109.5v-780h-166zM147 1317q49 49 85.5 67.5t76.5 18.5q62 0 119 -35q53 -31 88 -31q22 0 41.5 9t48.5 38l78 -77 q-50 -49 -87.5 -67.5t-76.5 -18.5q-58 0 -119 34q-53 31 -88 31q-24 0 -42.5 -8t-49.5 -39z" />
<glyph unicode="&#xf2;" d="M82 530q0 179 16 284.5t62 164.5q72 98 223 98q153 0 225 -98q46 -59 61 -163.5t15 -285.5t-15 -285t-61 -163q-72 -98 -225 -98q-151 0 -223 98q-46 59 -62 164t-16 284zM170 1477h152l141 -277h-127zM248 530q0 -160 8 -237.5t35 -114.5q31 -45 92 -45q63 0 94 45 q27 37 34 112.5t7 239.5q0 165 -7 241.5t-34 113.5q-31 45 -94 45q-61 0 -92 -45q-27 -37 -35 -115.5t-8 -239.5z" />
<glyph unicode="&#xf3;" d="M82 530q0 179 16 284.5t62 164.5q72 98 223 98q153 0 225 -98q46 -59 61 -163.5t15 -285.5t-15 -285t-61 -163q-72 -98 -225 -98q-151 0 -223 98q-46 59 -62 164t-16 284zM248 530q0 -160 8 -237.5t35 -114.5q31 -45 92 -45q63 0 94 45q27 37 34 112.5t7 239.5 q0 165 -7 241.5t-34 113.5q-31 45 -94 45q-61 0 -92 -45q-27 -37 -35 -115.5t-8 -239.5zM311 1200l140 277h151l-166 -277h-125z" />
<glyph unicode="&#xf4;" d="M82 530q0 179 16 284.5t62 164.5q72 98 223 98q153 0 225 -98q46 -59 61 -163.5t15 -285.5t-15 -285t-61 -163q-72 -98 -225 -98q-151 0 -223 98q-46 59 -62 164t-16 284zM125 1200l190 277h138l190 -277h-137l-123 178l-121 -178h-137zM248 530q0 -160 8 -237.5 t35 -114.5q31 -45 92 -45q63 0 94 45q27 37 34 112.5t7 239.5q0 165 -7 241.5t-34 113.5q-31 45 -94 45q-61 0 -92 -45q-27 -37 -35 -115.5t-8 -239.5z" />
<glyph unicode="&#xf5;" d="M82 530q0 179 16 284.5t62 164.5q72 98 223 98q153 0 225 -98q46 -59 61 -163.5t15 -285.5t-15 -285t-61 -163q-72 -98 -225 -98q-151 0 -223 98q-46 59 -62 164t-16 284zM121 1317q49 49 85.5 67.5t76.5 18.5q61 0 118 -35q53 -31 88 -31q44 0 91 47l77 -77 q-50 -49 -87 -67.5t-76 -18.5q-58 0 -119 34q-53 31 -88 31q-24 0 -42.5 -8t-49.5 -39zM248 530q0 -160 8 -237.5t35 -114.5q31 -45 92 -45q63 0 94 45q27 37 34 112.5t7 239.5q0 165 -7 241.5t-34 113.5q-31 45 -94 45q-61 0 -92 -45q-27 -37 -35 -115.5t-8 -239.5z" />
<glyph unicode="&#xf6;" d="M82 530q0 179 16 284.5t62 164.5q72 98 223 98q153 0 225 -98q46 -59 61 -163.5t15 -285.5t-15 -285t-61 -163q-72 -98 -225 -98q-151 0 -223 98q-46 59 -62 164t-16 284zM139 1231v168h168v-168h-168zM248 530q0 -160 8 -237.5t35 -114.5q31 -45 92 -45q63 0 94 45 q27 37 34 112.5t7 239.5q0 165 -7 241.5t-34 113.5q-31 45 -94 45q-61 0 -92 -45q-27 -37 -35 -115.5t-8 -239.5zM461 1231v168h166v-168h-166z" />
<glyph unicode="&#xf7;" horiz-adv-x="911" d="M94 487v160h721v-160h-721zM354 123v205h205v-205h-205zM354 807v203h205v-203h-205z" />
<glyph unicode="&#xf8;" horiz-adv-x="757" d="M74 -90l73 186q-38 60 -51.5 164t-13.5 270q0 179 16 284.5t62 164.5q72 98 223 98q87 0 149 -35l43 109h119l-76 -186q40 -60 53 -163.5t13 -271.5q0 -181 -15 -285t-61 -163q-72 -98 -225 -98q-89 0 -150 34l-40 -108h-119zM248 530q0 -163 10 -200l213 567 q-32 37 -88 37q-61 0 -92 -45q-27 -37 -35 -116t-8 -243zM297 164q32 -37 86 -37q63 0 94 45q27 37 35 115.5t8 242.5q0 157 -12 201z" />
<glyph unicode="&#xf9;" horiz-adv-x="808" d="M109 281v780h165v-780q0 -71 36 -109.5t91 -38.5t90 38.5t35 109.5v780h166v-1061h-160v82q-22 -40 -65 -66q-53 -32 -115 -32q-112 0 -180 77q-33 36 -48 86t-15 134zM186 1477h152l141 -277h-127z" />
<glyph unicode="&#xfa;" horiz-adv-x="808" d="M109 281v780h165v-780q0 -71 36 -109.5t91 -38.5t90 38.5t35 109.5v780h166v-1061h-160v82q-22 -40 -65 -66q-53 -32 -115 -32q-112 0 -180 77q-33 36 -48 86t-15 134zM328 1200l139 277h151l-165 -277h-125z" />
<glyph unicode="&#xfb;" horiz-adv-x="808" d="M109 281v780h165v-780q0 -71 36 -109.5t91 -38.5t90 38.5t35 109.5v780h166v-1061h-160v82q-22 -40 -65 -66q-53 -32 -115 -32q-112 0 -180 77q-33 36 -48 86t-15 134zM141 1200l191 277h137l190 -277h-137l-123 178l-120 -178h-138z" />
<glyph unicode="&#xfc;" horiz-adv-x="808" d="M109 281v780h165v-780q0 -71 36 -109.5t91 -38.5t90 38.5t35 109.5v780h166v-1061h-160v82q-22 -40 -65 -66q-53 -32 -115 -32q-112 0 -180 77q-33 36 -48 86t-15 134zM156 1231v168h168v-168h-168zM477 1231v168h166v-168h-166z" />
<glyph unicode="&#xfd;" horiz-adv-x="706" d="M8 1061h182l162 -797l160 797h182l-299 -1231q-16 -69 -48 -115t-80 -70t-100 -33t-124 -9v147q81 0 126.5 27t63.5 96l33 129zM287 1200l139 277h152l-166 -277h-125z" />
<glyph unicode="&#xfe;" horiz-adv-x="796" d="M119 -397v1855h160v-479q16 31 65 65q47 33 115 33q109 0 176 -78q48 -56 62 -159.5t14 -309.5t-14 -309t-62 -158q-64 -79 -176 -79q-65 0 -115 30q-34 24 -59 60v-471h-166zM285 289q0 -82 41 -123q36 -33 86 -33q61 0 92 45q27 37 34 112.5t7 239.5q0 167 -7 242.5 t-34 110.5q-31 45 -92 45q-47 0 -86 -31q-41 -41 -41 -123v-485z" />
<glyph unicode="&#xff;" horiz-adv-x="706" d="M8 1061h182l162 -797l160 797h182l-299 -1231q-16 -69 -48 -115t-80 -70t-100 -33t-124 -9v147q81 0 126.5 27t63.5 96l33 129zM115 1231v168h168v-168h-168zM436 1231v168h166v-168h-166z" />
<glyph unicode="&#x152;" horiz-adv-x="1273" d="M96 729q0 294 20 430t87 211q88 105 241 105q61 0 114.5 -23t82.5 -61v67h547v-158h-385v-489h332v-158h-332v-495h385v-158h-547v68q-68 -84 -197 -84q-157 0 -241 104q-66 78 -86.5 214t-20.5 427zM272 729q0 -268 11.5 -374.5t50.5 -157.5q39 -56 119 -56q79 0 118 56 q39 51 50.5 157.5t11.5 374.5t-11.5 375t-50.5 158q-38 55 -118 55q-81 0 -119 -55q-39 -51 -50.5 -158t-11.5 -375z" />
<glyph unicode="&#x153;" horiz-adv-x="1200" d="M82 530q0 179 16 284.5t62 164.5q72 98 223 98q116 0 186 -67q17 -15 35 -47q12 24 37 49q75 65 178 65q133 0 209 -82q32 -34 52 -83t28 -123.5t10 -132.5t2 -164h-434q0 -138 8.5 -209.5t34.5 -104.5q30 -45 94 -45q57 0 95 41q34 40 34 123h164q-3 -147 -84 -236 q-74 -77 -209 -77q-110 0 -182 65q-23 23 -37 51q-11 -25 -37 -51q-75 -65 -184 -65q-151 0 -223 98q-46 59 -62 164.5t-16 283.5zM250 530q0 -164 7 -239.5t34 -112.5q31 -45 92 -45q63 0 94 45q27 37 34 112.5t7 239.5q0 167 -7 242.5t-34 110.5q-31 45 -94 45 q-61 0 -92 -45q-27 -35 -34 -110.5t-7 -242.5zM686 616h268q-2 119 -10 180.5t-31 88.5q-34 43 -94 43q-58 0 -92 -43q-24 -28 -32.5 -91.5t-8.5 -177.5z" />
<glyph unicode="&#x178;" horiz-adv-x="722" d="M4 1458h193l163 -622l164 622h195l-270 -868v-590h-177v590zM119 1591v166h168v-166h-168zM438 1591v166h168v-166h-168z" />
<glyph unicode="&#x2c6;" d="M125 1200l190 277h138l190 -277h-137l-123 178l-121 -178h-137z" />
<glyph unicode="&#x2dc;" d="M121 1317q49 49 85.5 67.5t76.5 18.5q61 0 118 -35q53 -31 88 -31q44 0 91 47l77 -77q-50 -49 -87 -67.5t-76 -18.5q-58 0 -119 34q-53 31 -88 31q-24 0 -42.5 -8t-49.5 -39z" />
<glyph unicode="&#x2000;" horiz-adv-x="971" />
<glyph unicode="&#x2001;" horiz-adv-x="1942" />
<glyph unicode="&#x2002;" horiz-adv-x="971" />
<glyph unicode="&#x2003;" horiz-adv-x="1942" />
<glyph unicode="&#x2004;" horiz-adv-x="647" />
<glyph unicode="&#x2005;" horiz-adv-x="485" />
<glyph unicode="&#x2006;" horiz-adv-x="323" />
<glyph unicode="&#x2007;" horiz-adv-x="323" />
<glyph unicode="&#x2008;" horiz-adv-x="242" />
<glyph unicode="&#x2009;" horiz-adv-x="388" />
<glyph unicode="&#x200a;" horiz-adv-x="107" />
<glyph unicode="&#x2010;" horiz-adv-x="610" d="M104 500v157h402v-157h-402z" />
<glyph unicode="&#x2011;" horiz-adv-x="610" d="M104 500v157h402v-157h-402z" />
<glyph unicode="&#x2012;" horiz-adv-x="610" d="M104 500v157h402v-157h-402z" />
<glyph unicode="&#x2013;" horiz-adv-x="911" d="M94 500v159h721v-159h-721z" />
<glyph unicode="&#x2014;" horiz-adv-x="1415" d="M104 500v159h1207v-159h-1207z" />
<glyph unicode="&#x2018;" horiz-adv-x="423" d="M117 1260v198l190 139v-337h-190z" />
<glyph unicode="&#x2019;" horiz-adv-x="423" d="M117 1120v338h190v-198z" />
<glyph unicode="&#x201a;" horiz-adv-x="423" d="M117 -139v338h190v-199z" />
<glyph unicode="&#x201c;" horiz-adv-x="763" d="M117 1260v198l190 139v-337h-190zM459 1260v198l188 139v-337h-188z" />
<glyph unicode="&#x201d;" horiz-adv-x="763" d="M117 1120v338h190v-198zM459 1120v338h188v-198z" />
<glyph unicode="&#x201e;" horiz-adv-x="763" d="M117 -139v338h190v-199zM459 -139v338h188v-199z" />
<glyph unicode="&#x2022;" horiz-adv-x="931" d="M131 684q0 138 98 236t236 98t236 -98t98 -236t-98 -236t-236 -98t-236 98t-98 236z" />
<glyph unicode="&#x2026;" horiz-adv-x="1232" d="M121 0v203h203v-203h-203zM514 0v203h205v-203h-205zM909 0v203h203v-203h-203z" />
<glyph unicode="&#x202f;" horiz-adv-x="388" />
<glyph unicode="&#x2039;" horiz-adv-x="460" d="M53 557l305 469v-260l-139 -209l139 -211v-260z" />
<glyph unicode="&#x203a;" horiz-adv-x="460" d="M104 86v260l140 211l-140 209v260l304 -469z" />
<glyph unicode="&#x205f;" horiz-adv-x="485" />
<glyph unicode="&#x20ac;" horiz-adv-x="970" d="M68 510v127h120v184h-120v127h125q3 181 25 272t77 150q95 105 250 105q142 0 231 -86q104 -101 107 -291h-176q-4 219 -162 219q-79 0 -121 -55q-30 -40 -42 -102t-13 -212h245v-127h-247v-184h247v-127h-245q1 -150 13 -211.5t42 -101.5q45 -56 121 -56q158 0 162 219 h176q-3 -196 -113 -297q-85 -79 -225 -79q-156 0 -250 104q-55 59 -77 150t-25 272h-125z" />
<glyph unicode="&#x2122;" horiz-adv-x="1261" d="M59 1352v106h414v-106h-149v-781h-115v781h-150zM584 571v887h108l176 -477l176 477h109v-887h-117v598l-133 -385h-72l-131 377v-590h-116z" />
<glyph unicode="&#x25fc;" horiz-adv-x="1064" d="M0 0v1065h1065v-1065h-1065z" />
</font>
</defs>
</svg>
