<?xml version="1.0" standalone="no"?>
<!DOCTYPE svg PUBLIC "-//W3C//DTD SVG 1.1//EN" "http://www.w3.org/Graphics/SVG/1.1/DTD/svg11.dtd" >
<svg xmlns="http://www.w3.org/2000/svg">
<metadata></metadata>
<defs>
<font id="dinotcondregular" horiz-adv-x="739" >
<font-face units-per-em="2048" ascent="1565" descent="-483" />
<missing-glyph horiz-adv-x="397" />
<glyph unicode="&#xfb01;" horiz-adv-x="817" d="M33 952v90h127v142q0 141 78 213q72 65 215 65v-102q-179 0 -179 -176v-142h179v-90h-179v-952h-114v952h-127zM559 1282v148h148v-148h-148zM575 0v1042h115v-1042h-115z" />
<glyph unicode="&#xfb02;" horiz-adv-x="890" d="M33 952v90h127v142q0 141 78 213q72 65 215 65v-102q-179 0 -179 -176v-142h179v-90h-179v-952h-114v952h-127zM575 279v1179h115v-1179q0 -177 170 -177v-102q-136 0 -207 66q-78 72 -78 213z" />
<glyph horiz-adv-x="0" />
<glyph horiz-adv-x="0" />
<glyph horiz-adv-x="682" />
<glyph unicode="&#xd;" horiz-adv-x="397" />
<glyph unicode=" "  horiz-adv-x="397" />
<glyph unicode="&#x09;" horiz-adv-x="397" />
<glyph unicode="&#xa0;" horiz-adv-x="397" />
<glyph unicode="!" horiz-adv-x="464" d="M184 0v154h154v-154h-154zM205 383v1075h114v-1075h-114z" />
<glyph unicode="&#x22;" horiz-adv-x="720" d="M127 1083v375h133v-375h-133zM463 1083v375h131v-375h-131z" />
<glyph unicode="#" horiz-adv-x="1024" d="M113 471v104h161l43 334h-149v103h164l57 446h111l-58 -446h209l58 446h110l-57 -446h147l2 -103h-163l-41 -334h149v-104h-166l-59 -471h-111l60 471h-209l-60 -471h-110l59 471h-147zM385 575h209l43 334h-209z" />
<glyph unicode="$" horiz-adv-x="827" d="M86 365h121q0 -88 12 -136.5t45 -81.5q37 -37 90 -45v611l-65 26q-112 46 -152.5 123t-40.5 242q0 195 101 289q64 61 157 73v185h109v-185q103 -12 166 -75q51 -51 69.5 -116t18.5 -167h-121q0 72 -12 119t-43 82q-31 36 -78 47v-559l67 -27q113 -45 151 -132.5 t38 -256.5q0 -118 -20.5 -192t-69.5 -123q-63 -62 -166 -74v-225h-109v223q-115 9 -182 76q-49 51 -67.5 115t-18.5 184zM217 1106q0 -122 26 -174t111 -90v514q-43 -11 -73 -41q-64 -64 -64 -209zM463 104q50 12 78 43q34 37 45.5 88t11.5 142q0 133 -27.5 194t-107.5 97 v-564z" />
<glyph unicode="%" horiz-adv-x="1263" d="M113 913v359q0 93 55.5 148t144.5 55t146 -55.5t57 -147.5v-359q0 -92 -57 -148t-146 -56t-144.5 55.5t-55.5 148.5zM213 913q0 -55 25.5 -85.5t74.5 -30.5t76 31t27 85v357q0 54 -27 85t-76 31t-74.5 -30.5t-25.5 -85.5v-357zM330 0l508 1458h96l-508 -1458h-96z M750 188v357q0 93 55.5 149t144.5 56t145 -56t56 -149v-357q0 -93 -56 -148.5t-145 -55.5t-144.5 55.5t-55.5 148.5zM848 188q0 -55 26.5 -85.5t75.5 -30.5t76 31t27 85v357q0 55 -27 86t-76 31t-75.5 -31t-26.5 -86v-357z" />
<glyph unicode="&#x26;" horiz-adv-x="995" d="M78 336q0 129 59 231.5t195 227.5q-114 162 -149.5 231.5t-35.5 151.5q0 124 72 208t201 84q131 0 202.5 -75t71.5 -199t-49 -210.5t-174 -205.5l270 -407q37 62 64 158t33 186h110q-9 -125 -46 -242.5t-95 -204.5l178 -270h-131l-113 172q-76 -95 -151.5 -141.5 t-188.5 -46.5q-140 0 -231.5 94.5t-91.5 257.5zM193 346q0 -108 59.5 -182t161.5 -74q74 0 136.5 45t129.5 131l-289 439q-104 -102 -151 -185.5t-47 -173.5zM260 1182q0 -61 30 -122t122 -190q92 90 132 157.5t40 164.5q0 76 -45.5 125t-116.5 49q-80 0 -121 -55.5 t-41 -128.5z" />
<glyph unicode="'" horiz-adv-x="387" d="M127 1083v375h133v-375h-133z" />
<glyph unicode="(" horiz-adv-x="454" d="M119 170v1118q0 122 41 199q16 30 38.5 60t41.5 50t53 54l78 -78l-19.5 -19.5l-21.5 -21.5t-17.5 -19t-19.5 -23t-14.5 -21t-14.5 -25q-31 -58 -31 -168v-1094q0 -110 31 -168q6 -12 14.5 -25t14.5 -21t19.5 -23t17.5 -19l21.5 -21.5l19.5 -19.5l-78 -78q-98 98 -133 164 q-41 77 -41 199z" />
<glyph unicode=")" horiz-adv-x="454" d="M82 -115q5 5 20 19.5t21 21t18.5 19.5t19 22.5t15 22t14.5 24.5q31 58 31 168v1094q0 110 -31 168q-7 15 -15.5 28t-23 29t-19.5 22t-26.5 27t-23.5 23l78 78q38 -38 54.5 -55.5t41 -48t39.5 -60.5q41 -77 41 -199v-1118q0 -122 -41 -199q-32 -61 -135 -164z" />
<glyph unicode="*" horiz-adv-x="755" d="M104 1034l191 103l-191 102l46 82l188 -113l-6 260h92l-4 -260l186 113l45 -82l-190 -102l190 -103l-45 -82l-186 113l4 -260h-92l6 260l-188 -113z" />
<glyph unicode="+" horiz-adv-x="882" d="M100 514v109h287v286h109v-286h288v-109h-288v-289h-109v289h-287z" />
<glyph unicode="," horiz-adv-x="376" d="M119 158h141v-256l-141 -105v361z" />
<glyph unicode="-" horiz-adv-x="616" d="M113 514v109h391v-109h-391z" />
<glyph unicode="." horiz-adv-x="407" d="M127 0v154h154v-154h-154z" />
<glyph unicode="/" horiz-adv-x="503" d="M4 -152l379 1762h117l-379 -1762h-117z" />
<glyph unicode="0" d="M111 262v934q0 134 73 207q33 33 82.5 52.5t102.5 19.5t103 -19.5t83 -52.5q74 -74 74 -207v-934q0 -133 -74 -207q-33 -33 -82.5 -52t-103.5 -19q-53 0 -102.5 19t-82.5 52q-73 73 -73 207zM225 256q0 -83 40.5 -126.5t103.5 -43.5t104 43.5t41 126.5v946 q0 83 -41 126.5t-104 43.5t-103.5 -43.5t-40.5 -126.5v-946z" />
<glyph unicode="1" d="M129 1143v137l209 178h115v-1458h-115v1323z" />
<glyph unicode="2" d="M104 0v96l349 799q69 158 69 307q0 83 -40 126.5t-103 43.5q-64 0 -105 -44t-41 -126v-104h-114v102q0 129 74 203q33 33 83 52.5t103 19.5q112 0 182 -70q76 -76 76 -209q0 -143 -84 -338l-326 -756h410v-102h-533z" />
<glyph unicode="3" d="M100 260v100h115v-102q0 -83 41 -127.5t104 -44.5q64 0 101 43q30 34 41.5 93.5t11.5 183.5q0 140 -10 194t-41 88q-37 43 -103 43h-84v100h84q59 0 93 37q28 29 38.5 80.5t10.5 153.5q0 99 -11 151t-36 80q-33 39 -95 39t-98.5 -43.5t-36.5 -126.5v-104h-114v100 q0 136 71 207q70 70 178 70q113 0 181 -68q42 -42 58.5 -107t16.5 -194q0 -103 -9 -155.5t-32 -92.5q-29 -49 -81 -78q55 -30 81 -69q32 -46 43 -104.5t11 -205.5q0 -153 -16 -224t-66 -122q-32 -32 -82.5 -51.5t-104.5 -19.5q-115 0 -184 69q-76 76 -76 207z" />
<glyph unicode="4" d="M70 254v102l368 1102h113l-367 -1102h271v408h114v-408h103v-102h-103v-254h-114v254h-385z" />
<glyph unicode="5" d="M106 260v96h115v-98q0 -89 41 -133.5t107 -44.5t102 51q29 40 40 109t11 219q0 147 -11 215.5t-40 109.5q-36 50 -102 50q-63 0 -105.5 -46.5t-42.5 -121.5v-68h-106v860h501v-102h-397v-516q24 41 68 67q47 29 110 29q101 0 166 -78q44 -55 59 -137.5t15 -255.5 q0 -180 -15.5 -263t-66.5 -139q-32 -37 -82 -58t-104 -21q-118 0 -185 67q-78 78 -78 209z" />
<glyph unicode="6" d="M102 430q0 229 60 391l235 637h115l-233 -627q53 43 118 43q102 0 166 -73q42 -47 57 -118t15 -253q0 -166 -15 -240.5t-59 -126.5q-67 -79 -192 -79q-124 0 -191 79q-46 55 -61 129.5t-15 237.5zM217 430q0 -136 9.5 -201t39.5 -100q40 -43 103 -43q62 0 102 43 q30 35 39.5 100t9.5 201q0 137 -9.5 203.5t-39.5 99.5q-40 43 -102 43q-63 0 -103 -43q-30 -35 -39.5 -100.5t-9.5 -202.5z" />
<glyph unicode="7" d="M96 1118v340h547v-92l-389 -1366h-121l391 1356h-315v-238h-113z" />
<glyph unicode="8" d="M102 401q0 144 11 201t43 105q29 44 82 71q-54 29 -82 78q-23 41 -33 93.5t-10 154.5q0 129 17 194.5t60 108.5q68 68 179 68q110 0 178 -68q43 -43 60.5 -108.5t17.5 -194.5q0 -104 -9 -156t-32 -92q-28 -49 -82 -78q53 -27 82 -71q31 -46 41 -102.5t10 -203.5 q0 -154 -15.5 -224t-64.5 -122q-32 -33 -81.5 -52t-104.5 -19q-117 0 -185 71q-49 52 -65.5 123t-16.5 223zM217 403q0 -124 11 -181.5t40 -92.5q37 -43 101 -43q63 0 100 43q29 34 40 92t11 182q0 140 -10 194.5t-41 88.5q-37 43 -100 43q-64 0 -101 -43q-31 -34 -41 -88.5 t-10 -194.5zM227 1102q0 -101 11.5 -155t40.5 -83q32 -35 90 -35q60 0 92 35q28 28 38.5 81.5t10.5 156.5q0 98 -11 150.5t-36 80.5q-33 39 -94 39q-60 0 -93 -39q-49 -55 -49 -231z" />
<glyph unicode="9" d="M102 1028q0 165 15.5 239.5t60.5 127.5q68 80 193 80q123 0 190 -80q45 -55 59.5 -128.5t14.5 -238.5q0 -229 -60 -391l-233 -637h-117l236 627q-53 -43 -119 -43q-102 0 -166 73q-42 47 -58 119t-16 252zM217 1028q0 -137 9.5 -203.5t39.5 -99.5q40 -43 103 -43 q62 0 102 43q30 35 39.5 100.5t9.5 202.5q0 136 -9.5 201t-39.5 100q-40 43 -102 43q-63 0 -103 -43q-30 -35 -39.5 -100t-9.5 -201z" />
<glyph unicode=":" horiz-adv-x="464" d="M184 0v154h154v-154h-154zM184 694v156h154v-156h-154z" />
<glyph unicode=";" horiz-adv-x="464" d="M184 694v156h154v-156h-154zM190 158h142v-256l-142 -105v361z" />
<glyph unicode="&#x3c;" d="M70 530v101l600 348v-129l-469 -268l469 -269v-129z" />
<glyph unicode="=" horiz-adv-x="882" d="M100 350v109h684v-109h-684zM100 643v109h684v-109h-684z" />
<glyph unicode="&#x3e;" d="M70 184v129l469 269l-469 268v129l600 -348v-101z" />
<glyph unicode="?" horiz-adv-x="768" d="M117 1149q0 169 80 246q75 75 198 75q129 0 201 -75q44 -46 64 -106t20 -169q0 -77 -12 -128t-47 -107l-119 -191q-45 -68 -45 -151v-160h-115v174q0 87 51 168l119 190q32 51 42.5 96t10.5 111q0 80 -14 125t-43 76q-42 45 -113 45q-67 0 -110 -43q-54 -54 -54 -176 h-114zM324 0v154h153v-154h-153z" />
<glyph unicode="@" horiz-adv-x="1054" d="M113 211v954q0 137 80 217q76 76 202 76h252q127 0 203 -76q80 -80 80 -217v-1165h-113v84q-21 -40 -57 -64q-52 -36 -121 -36q-98 0 -164 69q-63 66 -63 207v457q0 139 63 205q66 69 164 69q70 0 123 -33q35 -22 53 -59v262q0 96 -49.5 147.5t-134.5 51.5h-219 q-84 0 -134.5 -51.5t-50.5 -147.5v-954q0 -95 56 -148l-80 -77q-90 76 -90 229zM526 256q0 -82 41 -126t105 -44q63 0 103 43.5t40 126.5v463q0 83 -40 126.5t-103 43.5q-64 0 -105 -44t-41 -126v-463z" />
<glyph unicode="A" horiz-adv-x="776" d="M8 0l326 1458h112l320 -1458h-129l-80 399h-340l-78 -399h-131zM242 508h293l-148 733z" />
<glyph unicode="B" horiz-adv-x="851" d="M141 0v1458h262q90 0 148 -19.5t100 -64.5q45 -49 62.5 -113.5t17.5 -179.5q0 -88 -17.5 -151.5t-68.5 -114.5q-45 -45 -92 -57q53 -11 100 -58q54 -56 72 -127.5t18 -166.5q0 -131 -20.5 -202t-67.5 -120q-44 -44 -104 -64t-150 -20h-260zM262 109h144q111 0 164 65 t53 232q0 155 -54.5 225.5t-162.5 70.5h-144v-593zM262 809h144q101 0 152.5 64t51.5 206q0 153 -50 212t-154 59h-144v-541z" />
<glyph unicode="C" horiz-adv-x="817" d="M111 729q0 346 17.5 467.5t84.5 192.5q80 86 217 86q131 0 209 -78q91 -91 94 -273h-121q0 131 -57 193q-46 49 -125 49q-82 0 -129 -53q-31 -38 -45 -92.5t-19.5 -162t-5.5 -329.5t5.5 -329.5t19.5 -162t45 -92.5q47 -53 129 -53q79 0 125 49q57 62 57 193h121 q-3 -192 -102 -281q-79 -69 -201 -69q-137 0 -217 86q-67 71 -84.5 192t-17.5 467z" />
<glyph unicode="D" horiz-adv-x="868" d="M141 0v1458h299q136 0 217 -84q67 -70 85 -188t18 -457t-18 -457t-85 -188q-81 -84 -217 -84h-299zM262 109h172q85 0 133 51q47 52 59.5 152.5t12.5 416.5t-12.5 416.5t-59.5 152.5q-49 52 -133 52h-172v-1241z" />
<glyph unicode="E" horiz-adv-x="745" d="M141 0v1458h508v-108h-387v-566h334v-108h-334v-567h387v-109h-508z" />
<glyph unicode="F" horiz-adv-x="735" d="M141 0v1458h508v-108h-387v-566h334v-108h-334v-676h-121z" />
<glyph unicode="G" horiz-adv-x="843" d="M111 729q0 346 17.5 467.5t84.5 192.5q80 86 217 86q131 0 211 -80q92 -95 92 -271h-121q0 48 -8 88t-27.5 76.5t-56.5 57t-90 20.5q-82 0 -129 -53q-31 -38 -45 -92.5t-19.5 -162t-5.5 -329.5t5.5 -329.5t19.5 -162t45 -92.5q47 -53 129 -53q80 0 131 59t51 160v359 h-182v102h303v-461q0 -156 -87 -241.5t-216 -85.5q-137 0 -217 86q-67 71 -84.5 192t-17.5 467z" />
<glyph unicode="H" horiz-adv-x="884" d="M141 0v1458h121v-661h361v661h120v-1458h-120v686h-361v-686h-121z" />
<glyph unicode="I" horiz-adv-x="403" d="M141 0v1458h121v-1458h-121z" />
<glyph unicode="J" horiz-adv-x="679" d="M16 86l88 80q54 -74 144 -74q81 0 133.5 58t52.5 163v1145h121v-1145q0 -159 -86 -245q-84 -84 -221 -84q-146 0 -232 102z" />
<glyph unicode="K" horiz-adv-x="837" d="M141 0v1458h121v-792l387 792h129l-299 -602l338 -856h-131l-283 721l-141 -279v-442h-121z" />
<glyph unicode="L" horiz-adv-x="694" d="M141 0v1458h121v-1349h387v-109h-508z" />
<glyph unicode="M" horiz-adv-x="1140" d="M141 0v1458h121l307 -858l310 858h120v-1458h-120v1174l-267 -771h-88l-262 746v-1149h-121z" />
<glyph unicode="N" horiz-adv-x="929" d="M141 0v1458h121l408 -1136l-2 1136h120v-1458h-118l-408 1137v-1137h-121z" />
<glyph unicode="O" horiz-adv-x="862" d="M111 729q0 346 17.5 467.5t84.5 192.5q80 86 217 86q139 0 219 -86q67 -72 85 -193.5t18 -466.5t-18 -466t-85 -193q-80 -86 -219 -86q-137 0 -217 86q-67 71 -84.5 192t-17.5 467zM231 729q0 -222 5.5 -329.5t19.5 -162t45 -92.5q47 -53 129 -53q84 0 131 53 q31 38 45 92.5t19.5 162t5.5 329.5t-5.5 329.5t-19.5 162t-45 92.5q-47 53 -131 53q-82 0 -129 -53q-31 -38 -45 -92.5t-19.5 -162t-5.5 -329.5z" />
<glyph unicode="P" horiz-adv-x="839" d="M141 0v1458h287q57 0 100.5 -9t85.5 -35.5t69 -70t43.5 -117t16.5 -173.5q0 -223 -77 -315.5t-238 -92.5h-166v-645h-121zM262 754h170q105 0 148 73.5t43 223.5t-43.5 224.5t-147.5 74.5h-170v-596z" />
<glyph unicode="Q" horiz-adv-x="862" d="M111 729q0 346 17.5 467.5t84.5 192.5q80 86 217 86q139 0 219 -86q67 -72 85 -193.5t18 -466.5q0 -303 -12 -423.5t-54 -188.5l113 -97l-62 -73l-114 98q-74 -61 -193 -61q-137 0 -217 86q-67 71 -84.5 192t-17.5 467zM231 729q0 -226 5 -331.5t19 -161.5t46 -93 q42 -51 129 -51q62 0 102 29l-114 94l61 74l111 -92q26 53 33.5 157.5t7.5 374.5q0 226 -5 331.5t-19 161.5t-46 93q-42 51 -131 51q-87 0 -129 -51q-32 -37 -46 -93t-19 -161.5t-5 -331.5z" />
<glyph unicode="R" horiz-adv-x="884" d="M141 0v1458h287q57 0 100.5 -9t85.5 -35t69 -70t43.5 -117t16.5 -172q0 -166 -44 -255.5t-136 -123.5l228 -676h-129l-211 653h-189v-653h-121zM262 762h170q105 0 148 72.5t43 220.5t-43.5 221.5t-147.5 73.5h-170v-588z" />
<glyph unicode="S" horiz-adv-x="811" d="M84 365h121q0 -88 12 -136.5t45 -81.5q49 -49 137 -49q94 0 140 49q34 37 45.5 88t11.5 142q0 139 -31 200t-123 99l-155 63q-112 46 -152.5 123t-40.5 242q0 195 101 289q80 77 213 77q140 0 219 -79q51 -51 69.5 -116t18.5 -167h-121q0 72 -12 119t-43 82 q-47 53 -133 53q-80 0 -127 -47q-64 -64 -64 -209q0 -127 29.5 -179t128.5 -93l155 -64q113 -45 151 -132.5t38 -256.5q0 -118 -20.5 -192t-69.5 -123q-78 -78 -228 -78q-151 0 -229 78q-49 51 -67.5 115t-18.5 184z" />
<glyph unicode="T" horiz-adv-x="698" d="M45 1350v108h608v-108h-243v-1350h-121v1350h-244z" />
<glyph unicode="U" horiz-adv-x="854" d="M125 303v1155h121v-1165q0 -91 52.5 -146t129.5 -55t128.5 55t51.5 146v1165h121v-1155q0 -149 -86 -235q-87 -84 -215 -84t-215 84q-88 88 -88 235z" />
<glyph unicode="V" horiz-adv-x="757" d="M8 1458h133l238 -1241l237 1241h134l-312 -1458h-119z" />
<glyph unicode="W" horiz-adv-x="1202" d="M8 1458h133l156 -1241l235 1241h138l239 -1241l154 1241h131l-221 -1458h-127l-244 1243l-242 -1243h-127z" />
<glyph unicode="X" horiz-adv-x="761" d="M39 0l270 760l-248 698h134l186 -577l188 577h131l-254 -698l277 -760h-131l-211 631l-209 -631h-133z" />
<glyph unicode="Y" horiz-adv-x="645" d="M6 1458h133l183 -667l184 667h133l-256 -848v-610h-121v610z" />
<glyph unicode="Z" horiz-adv-x="663" d="M61 0v94l416 1256h-387v108h512v-94l-414 -1255h414v-109h-541z" />
<glyph unicode="[" horiz-adv-x="483" d="M127 -152v1762h295v-99h-180v-1564h180v-99h-295z" />
<glyph unicode="\" horiz-adv-x="503" d="M4 1610h117l379 -1762h-117z" />
<glyph unicode="]" horiz-adv-x="483" d="M61 -53h181v1564h-181v99h295v-1762h-295v99z" />
<glyph unicode="^" horiz-adv-x="917" d="M141 899l265 571h106l262 -571h-117l-198 453l-199 -453h-119z" />
<glyph unicode="_" horiz-adv-x="882" d="M0 -184h883v-90h-883v90z" />
<glyph unicode="`" horiz-adv-x="724" d="M166 1466h119l133 -266h-101z" />
<glyph unicode="a" horiz-adv-x="720" d="M76 289q0 156 88 235q76 70 205 70h118v186q0 178 -143 178q-56 0 -94 -38q-47 -50 -47 -146h-115q0 139 76 215q70 70 180 70q123 0 186 -66q72 -75 72 -217v-776h-110v94q-18 -38 -58 -69q-54 -41 -125 -41q-100 0 -166 69q-67 70 -67 236zM190 291q0 -97 36.5 -151 t109.5 -54q68 0 109.5 52.5t41.5 135.5v230h-114q-79 0 -127 -45q-56 -56 -56 -168z" />
<glyph unicode="b" horiz-adv-x="747" d="M127 0v1458h115v-493q20 39 57 61q50 33 119 33q98 0 162 -74q45 -53 61 -156.5t16 -308.5q0 -204 -16 -307t-61 -156q-64 -73 -162 -73q-69 0 -119 36q-46 35 -59 64v-84h-113zM242 268q0 -96 49 -145q40 -37 98 -37q60 0 100 47q33 41 43.5 124t10.5 263t-10.5 264.5 t-43.5 124.5q-40 47 -100 47q-57 0 -98 -38q-49 -49 -49 -144v-506z" />
<glyph unicode="c" horiz-adv-x="696" d="M92 520q0 194 16.5 297t61.5 158q69 84 192 84q124 0 185 -64q42 -42 57 -98t17 -131h-113q0 102 -41 147q-40 43 -102 43q-67 0 -107 -47q-33 -40 -42 -122t-9 -267t9 -266t42 -121q40 -47 107 -47q59 0 100 41q43 43 43 147h113q-3 -149 -74 -223q-64 -67 -185 -67 q-125 0 -192 82q-45 55 -61.5 157.5t-16.5 296.5z" />
<glyph unicode="d" horiz-adv-x="747" d="M92 520q0 204 16 307.5t62 157.5q64 74 162 74q69 0 119 -33q34 -20 55 -61v493h115v-1458h-113v84q-14 -32 -57 -64q-50 -36 -119 -36q-98 0 -162 73q-46 54 -62 157t-16 306zM207 520q0 -185 9 -266t42 -121q40 -47 100 -47q61 0 101 37q47 47 47 145v506q0 97 -47 144 q-41 38 -101 38t-100 -47q-33 -40 -42 -122t-9 -267z" />
<glyph unicode="e" horiz-adv-x="714" d="M92 520q0 201 17 305.5t67 157.5q70 76 186 76q117 0 187 -76q52 -56 67 -161.5t15 -317.5h-424q0 -174 10 -254t43 -117q40 -47 105 -47q66 0 104 41q47 50 47 147h113q-2 -76 -19.5 -127t-56.5 -92q-68 -71 -188 -71t-189 75q-50 53 -67 157t-17 304zM207 596h309 q-2 142 -12 211t-39 102q-40 47 -103 47q-64 0 -104 -47q-29 -33 -39 -102t-12 -211z" />
<glyph unicode="f" horiz-adv-x="485" d="M33 952v90h127v142q0 139 78 211q75 67 215 67v-104q-179 0 -179 -174v-142h179v-90h-179v-952h-114v952h-127z" />
<glyph unicode="g" horiz-adv-x="747" d="M92 532q0 200 17 300t63 153q67 74 160 74q69 0 121 -37q42 -32 55 -61v81h113v-1073q0 -130 -17 -198t-61 -115q-70 -76 -187 -76q-118 0 -188 70q-72 72 -72 219h113q0 -105 45 -150q38 -38 100 -38t103 45q27 30 38 85.5t11 155.5v131q-15 -34 -55 -61 q-44 -31 -119 -31q-97 0 -160 72q-46 53 -63 153.5t-17 300.5zM207 530q0 -179 9 -258t42 -118q41 -48 100 -48q62 0 101 39q47 47 47 144v485q0 97 -47 144q-41 38 -101 38t-100 -47q-33 -38 -42 -118.5t-9 -260.5z" />
<glyph unicode="h" horiz-adv-x="763" d="M127 0v1458h115v-497q12 27 57 61q53 37 119 37q95 0 164 -72q63 -66 63 -205v-782h-115v784q0 83 -40 126.5t-103 43.5t-104 -43.5t-41 -126.5v-784h-115z" />
<glyph unicode="i" horiz-adv-x="370" d="M111 1282v148h147v-148h-147zM127 0v1042h115v-1042h-115z" />
<glyph unicode="j" horiz-adv-x="370" d="M-43 -313q82 0 126 41t44 135v1179h115v-1181q0 -139 -78 -211q-71 -66 -207 -66v103zM111 1282v148h147v-148h-147z" />
<glyph unicode="k" horiz-adv-x="763" d="M127 0v1458h115v-962l329 546h125l-245 -399l280 -643h-127l-225 543l-137 -217v-326h-115z" />
<glyph unicode="l" horiz-adv-x="434" d="M117 279v1179h114v-1179q0 -177 170 -177v-102q-135 0 -206 66q-78 72 -78 213z" />
<glyph unicode="m" horiz-adv-x="1167" d="M127 0v1042h113v-84q20 38 59 64q53 37 119 37q57 0 109.5 -31t84.5 -80q35 52 72 74q56 37 125 37q61 0 101 -18t75 -54q64 -67 64 -205v-782h-115v784q0 83 -40 126.5t-103 43.5q-64 0 -105 -44t-41 -126v-784h-115v784q0 83 -40 126.5t-103 43.5t-104 -43.5 t-41 -126.5v-784h-115z" />
<glyph unicode="n" horiz-adv-x="763" d="M127 0v1042h113v-84q20 38 59 64q53 37 119 37q95 0 164 -72q63 -66 63 -205v-782h-115v784q0 83 -40 126.5t-103 43.5t-104 -43.5t-41 -126.5v-784h-115z" />
<glyph unicode="o" horiz-adv-x="722" d="M92 520q0 194 16.5 297t61.5 158q69 84 192 84q124 0 193 -84q45 -55 61.5 -158t16.5 -297t-16.5 -296.5t-61.5 -157.5q-67 -82 -193 -82q-125 0 -192 82q-45 55 -61.5 157.5t-16.5 296.5zM207 520q0 -185 9 -266t42 -121q40 -47 104 -47q63 0 103 47q33 40 43 123 t10 264q0 182 -10 265.5t-43 123.5q-40 47 -103 47q-64 0 -104 -47q-33 -40 -42 -122t-9 -267z" />
<glyph unicode="p" horiz-adv-x="747" d="M127 -416v1458h113v-84q13 29 59 64q52 37 119 37q97 0 162 -74q45 -53 61 -156.5t16 -308.5q0 -204 -16 -307t-61 -156q-63 -73 -162 -73q-70 0 -119 32q-36 22 -57 62v-494h-115zM242 268q0 -96 49 -145q40 -37 98 -37q60 0 100 47q33 41 43.5 124t10.5 263 t-10.5 264.5t-43.5 124.5q-40 47 -100 47q-57 0 -98 -38q-49 -49 -49 -144v-506z" />
<glyph unicode="q" horiz-adv-x="747" d="M92 520q0 204 16 307.5t62 157.5q65 74 162 74q67 0 119 -37q43 -32 57 -64v84h113v-1458h-115v494q-22 -42 -55 -62q-49 -32 -119 -32q-99 0 -162 73q-46 54 -62 157t-16 306zM207 520q0 -185 9 -266t42 -121q40 -47 100 -47q61 0 101 37q47 47 47 145v506q0 97 -47 144 q-41 38 -101 38t-100 -47q-33 -40 -42 -122t-9 -267z" />
<glyph unicode="r" horiz-adv-x="501" d="M127 0v1042h113v-110q14 33 51 65q68 62 178 62v-109h-25q-93 0 -147.5 -54.5t-54.5 -147.5v-748h-115z" />
<glyph unicode="s" horiz-adv-x="688" d="M68 283h114q0 -100 54 -154q43 -43 104 -43q72 0 119 47t47 129q0 65 -29 113q-34 51 -104 90l-131 72q-96 54 -136 122q-28 55 -28 132q0 114 82 196q72 72 186 72q116 0 186 -70q76 -76 76 -225h-114q0 58 -10 91.5t-35 59.5q-38 41 -103 41q-70 0 -108 -38 q-45 -42 -45 -123q0 -54 20 -90q17 -33 96 -78l129 -74q100 -54 142 -123q41 -66 41 -164q0 -121 -82 -203q-79 -79 -199 -79q-117 0 -190 73q-82 85 -82 226z" />
<glyph unicode="t" horiz-adv-x="501" d="M33 952v90h127v306h114v-306h179v-90h-179v-673q0 -92 47 -134.5t140 -42.5v-102q-73 0 -127 13.5t-96 52.5q-78 72 -78 213v673h-127z" />
<glyph unicode="u" horiz-adv-x="763" d="M119 260v782h114v-784q0 -83 40.5 -126.5t103.5 -43.5t104 43.5t41 126.5v784h115v-1042h-113v84q-20 -38 -59 -64q-52 -36 -119 -36q-98 0 -164 69q-63 66 -63 207z" />
<glyph unicode="v" horiz-adv-x="624" d="M8 1042h127l178 -862l179 862h124l-243 -1042h-121z" />
<glyph unicode="w" horiz-adv-x="970" d="M8 1042h133l129 -862l152 862h115l159 -862l133 862h134l-203 -1042h-123l-158 852l-149 -852h-123z" />
<glyph unicode="x" horiz-adv-x="657" d="M35 0l229 530l-217 512h127l156 -413l153 413h127l-221 -512l234 -530h-127l-166 430l-168 -430h-127z" />
<glyph unicode="y" horiz-adv-x="630" d="M8 1042h127l178 -860l179 860h124l-294 -1245q-28 -116 -103.5 -164.5t-200.5 -48.5v103q83 0 128 32.5t63 100.5l47 184z" />
<glyph unicode="z" horiz-adv-x="565" d="M45 0v90l352 850h-331v102h456v-90l-352 -850h352v-102h-477z" />
<glyph unicode="{" horiz-adv-x="587" d="M61 678v102h35q62 0 101 43.5t39 122.5v397q0 130 69 199q68 68 174 68h49v-103h-36q-62 0 -102 -43.5t-40 -122.5v-391q0 -125 -61 -186q-18 -18 -56 -35q31 -11 56 -35q61 -61 61 -186v-391q0 -79 40 -122.5t102 -43.5h36v-103h-49q-106 0 -174 68q-69 69 -69 199v397 q0 79 -39 122.5t-101 43.5h-35z" />
<glyph unicode="|" horiz-adv-x="514" d="M199 -152v1762h114v-1762h-114z" />
<glyph unicode="}" horiz-adv-x="587" d="M61 -49h35q62 0 102 43.5t40 122.5v391q0 123 63 186q21 21 53 35q-27 9 -53 35q-63 63 -63 186v391q0 79 -40 122.5t-102 43.5h-35v103h48q106 0 174 -68q69 -69 69 -199v-397q0 -79 39 -122.5t101 -43.5h36v-102h-36q-62 0 -101 -43.5t-39 -122.5v-397q0 -130 -69 -199 q-68 -68 -174 -68h-48v103z" />
<glyph unicode="~" horiz-adv-x="882" d="M96 557q66 66 107 88.5t94 22.5q14 0 29 -2.5t25.5 -5t29 -9.5t26 -10t29.5 -13t27 -12q77 -36 123 -36q37 0 63.5 13t69.5 56l69 -69q-65 -65 -106.5 -87t-95.5 -22q-27 0 -58.5 8.5t-49 15.5t-58.5 25q-2 1 -12.5 6t-13 6t-11.5 5t-12.5 5.5t-11.5 4.5t-12.5 4t-12 3 t-12.5 3t-12 1.5t-13 0.5q-36 0 -61.5 -14t-69.5 -58z" />
<glyph unicode="&#xa1;" horiz-adv-x="464" d="M127 889v153h154v-153h-154zM145 -416v1075h115v-1075h-115z" />
<glyph unicode="&#xa2;" horiz-adv-x="700" d="M94 731q0 186 16.5 284t61.5 150q58 64 147 76v217h93v-215q84 -9 137 -59q42 -40 57 -93t17 -124h-113q0 31 -1.5 50.5t-11 45t-26.5 43.5q-23 26 -59 35v-819q33 10 55 32q26 26 34.5 59t8.5 83h113q-3 -144 -72 -213q-55 -52 -139 -64v-219h-93v221q-89 12 -147 76 q-45 52 -61.5 150t-16.5 284zM209 731q0 -173 10 -252.5t43 -118.5q22 -25 57 -36v815q-34 -11 -57 -37q-33 -39 -43 -118.5t-10 -252.5z" />
<glyph unicode="&#xa3;" horiz-adv-x="804" d="M72 719v90h131v342q0 152 88.5 238t218.5 86q145 0 231 -103l-86 -78q-58 72 -145 72q-79 0 -132.5 -57.5t-53.5 -151.5v-348h186v-90h-186v-610h417v-109h-538v719h-131z" />
<glyph unicode="&#xa4;" horiz-adv-x="1292" d="M250 231l117 117q-70 93 -70 207q0 117 70 207l-117 115l74 71l114 -114q89 67 207 67t207 -67l117 114l71 -71l-116 -115q69 -88 69 -207q0 -116 -69 -207l116 -117l-71 -71l-117 116q-91 -69 -207 -69t-207 69l-114 -116zM403 555q0 -101 70.5 -172.5t171.5 -71.5 t172.5 71.5t71.5 172.5t-71.5 171.5t-172.5 70.5t-171.5 -70.5t-70.5 -171.5z" />
<glyph unicode="&#xa5;" horiz-adv-x="645" d="M10 1458h129l183 -667l184 667h129l-189 -633h105v-90h-131l-39 -125v-82h170v-90h-170v-438h-119v438h-170v90h170v82l-35 125h-135v90h107z" />
<glyph unicode="&#xa6;" horiz-adv-x="514" d="M199 -150v713h114v-713h-114zM199 895v713h114v-713h-114z" />
<glyph unicode="&#xa7;" horiz-adv-x="796" d="M121 555q0 140 16.5 205t65.5 112q45 42 112 56q-104 60 -141 125q-33 61 -33 145q0 116 78 191q72 69 184 69q108 0 177 -63q79 -73 79 -205h-114q0 79 -45 127q-36 39 -97 39q-63 0 -100 -37q-45 -42 -45 -115q0 -66 23 -104q26 -44 90 -82l135 -74q60 -31 90 -61 q52 -52 66 -115.5t14 -212.5q0 -139 -17.5 -205t-64.5 -112q-49 -45 -113 -56q38 -23 55.5 -35t41.5 -34.5t40 -49.5q39 -64 39 -157q0 -123 -73 -199q-76 -76 -193 -76q-110 0 -184 74q-76 76 -76 199h115q0 -76 47 -129q38 -41 98 -41q66 0 109 43q41 41 41 125 q0 66 -27 112q-28 44 -100 84l-135 76q-48 25 -76 53q-51 51 -66.5 119t-15.5 209zM236 555q0 -113 11 -169t44 -89q43 -43 106 -43q66 0 111 45q33 34 43 87.5t10 168.5q0 119 -9.5 171t-43.5 87q-45 45 -111 45q-63 0 -106 -43q-32 -31 -43.5 -85.5t-11.5 -174.5z" />
<glyph unicode="&#xa8;" horiz-adv-x="724" d="M158 1241v129h129v-129h-129zM438 1241v129h131v-129h-131z" />
<glyph unicode="&#xa9;" horiz-adv-x="1765" d="M141 729q0 202 99.5 372.5t270 269.5t372.5 99q151 0 288.5 -58.5t236.5 -157.5t157.5 -236.5t58.5 -288.5t-58.5 -288.5t-157.5 -236.5t-236.5 -157.5t-288.5 -58.5q-202 0 -372.5 99t-270 269.5t-99.5 372.5zM233 729q0 -107 33 -207t93 -181t140 -142t179 -94t205 -33 t204.5 33t178 94t139.5 142t92.5 181t32.5 207t-32.5 207t-92.5 181t-139.5 142t-178 94t-204.5 33t-205 -33t-179 -94t-140 -142t-93 -181t-33 -207zM682 729q0 157 11.5 236.5t47.5 121.5q52 62 142 62q84 0 137 -53q55 -58 55 -176h-86q0 83 -31 116q-30 33 -75 33 q-48 0 -76 -35q-25 -32 -32 -97.5t-7 -207.5t7 -207.5t32 -97.5q28 -35 76 -35q45 0 73 31q33 35 33 117h86q0 -119 -55 -177q-51 -51 -137 -51q-90 0 -142 62q-36 42 -47.5 121.5t-11.5 236.5z" />
<glyph unicode="&#xaa;" horiz-adv-x="608" d="M68 879q0 113 79 182q57 51 164 51h95v135q0 60 -29.5 97.5t-85.5 37.5q-51 0 -80 -32q-35 -37 -35 -115h-96q0 115 61 176q55 55 150 55q97 0 151 -57q62 -62 62 -168v-586h-92v68q-20 -33 -47 -51q-45 -29 -103 -29q-83 0 -137 57q-57 60 -57 179zM166 881 q0 -66 28 -110t91 -44q52 0 86.5 45t34.5 111v153h-93q-63 0 -98 -30q-49 -43 -49 -125z" />
<glyph unicode="&#xab;" horiz-adv-x="759" d="M59 549l277 430v-197l-154 -233l154 -236v-194zM369 549l278 430v-197l-155 -233l155 -236v-194z" />
<glyph unicode="&#xac;" horiz-adv-x="882" d="M102 520v111h678v-322h-108v211h-570z" />
<glyph unicode="&#xad;" horiz-adv-x="616" d="M113 514v109h391v-109h-391z" />
<glyph unicode="&#xae;" horiz-adv-x="1765" d="M141 729q0 202 99.5 372.5t270 269.5t372.5 99q151 0 288.5 -58.5t236.5 -157.5t157.5 -236.5t58.5 -288.5t-58.5 -288.5t-157.5 -236.5t-236.5 -157.5t-288.5 -58.5q-202 0 -372.5 99t-270 269.5t-99.5 372.5zM233 729q0 -107 33 -207t93 -181t140 -142t179 -94t205 -33 t204.5 33t178 94t139.5 142t92.5 181t32.5 207t-32.5 207t-92.5 181t-139.5 142t-178 94t-204.5 33t-205 -33t-179 -94t-140 -142t-93 -181t-33 -207zM702 322v817h201q81 0 131 -47q31 -31 42 -73t11 -112q0 -75 -10.5 -113.5t-42.5 -68.5q-15 -15 -43 -29l121 -374h-92 l-111 356h-118v-356h-89zM791 758h114q40 0 66 26q19 20 24.5 46t5.5 77t-5.5 77t-24.5 46q-27 27 -66 27h-114v-299z" />
<glyph unicode="&#xaf;" horiz-adv-x="724" d="M145 1251v92h435v-92h-435z" />
<glyph unicode="&#xb0;" horiz-adv-x="782" d="M115 1198q0 116 80.5 196.5t195.5 80.5q116 0 197.5 -81t81.5 -196t-81.5 -196.5t-197.5 -81.5q-115 0 -195.5 81t-80.5 197zM215 1198q0 -77 50.5 -128.5t125.5 -51.5t125.5 51.5t50.5 128.5q0 76 -50.5 127t-125.5 51t-125.5 -51t-50.5 -127z" />
<glyph unicode="&#xb1;" horiz-adv-x="882" d="M100 74v108h684v-108h-684zM100 586v108h287v289h109v-289h288v-108h-288v-289h-109v289h-287z" />
<glyph unicode="&#xb2;" horiz-adv-x="651" d="M115 1212v35q0 114 55 166q58 55 154 55q88 0 149 -49q62 -50 62 -151q0 -103 -62 -201l-252 -412h314v-71h-416v69l278 453q47 75 47 162q0 56 -32 89.5t-88 33.5q-119 0 -119 -142v-37h-90z" />
<glyph unicode="&#xb3;" horiz-adv-x="651" d="M102 803v26h93v-26q0 -53 6.5 -78.5t25.5 -42.5q31 -31 84 -31q55 0 86 31q39 42 39 137q0 100 -33 139t-92 39h-59v78h59q49 0 82 29q18 16 26.5 43t9.5 43t1 51q0 88 -37 123q-30 27 -82 27q-55 0 -86 -31q-30 -30 -30 -111v-26h-91v24q0 115 54 166q58 55 153 55 q99 0 152 -53q57 -57 57 -172q0 -100 -37 -147q-31 -42 -80 -60q58 -16 89 -65q34 -48 34 -154q0 -75 -13 -115.5t-48 -74.5q-57 -54 -154 -54q-98 0 -157 56q-28 26 -40 64t-12 110z" />
<glyph unicode="&#xb4;" horiz-adv-x="724" d="M305 1200l135 266h119l-153 -266h-101z" />
<glyph unicode="&#xb5;" horiz-adv-x="774" d="M127 -418v1460h115v-786q0 -83 40 -126.5t103 -43.5t104 43.5t41 126.5v786h115v-1042h-113v84q-20 -38 -59 -64q-52 -36 -119 -36q-36 0 -69.5 13.5t-44.5 29.5v-445h-113z" />
<glyph unicode="&#xb6;" horiz-adv-x="1101" d="M94 1042q0 416 289 416h590v-1876h-115v1770h-246v-1770h-114v1047h-115q-141 0 -215 98t-74 315z" />
<glyph unicode="&#xb7;" horiz-adv-x="530" d="M139 502v252h252v-252h-252z" />
<glyph unicode="&#xb8;" horiz-adv-x="724" d="M225 -350l109 274h94l-94 -274h-109z" />
<glyph unicode="&#xb9;" horiz-adv-x="651" d="M156 1262v98l141 98h88v-874h-88v776z" />
<glyph unicode="&#xba;" horiz-adv-x="606" d="M86 1055q0 147 13.5 227t50.5 121q52 61 153 61q102 0 154 -61q37 -41 50 -120.5t13 -227.5t-13 -227.5t-50 -120.5q-55 -64 -154 -64q-98 0 -153 64q-37 41 -50.5 121t-13.5 227zM182 1055q0 -133 7.5 -198t33.5 -95q30 -33 80 -33q48 0 78 33q26 30 34.5 96.5 t8.5 196.5q0 129 -8.5 195t-34.5 96q-29 32 -78 32q-51 0 -80 -32q-26 -30 -33.5 -94t-7.5 -197z" />
<glyph unicode="&#xbb;" horiz-adv-x="759" d="M113 119v194l155 236l-155 233v197l278 -430zM422 119v194l156 236l-156 233v197l278 -430z" />
<glyph unicode="&#xbc;" horiz-adv-x="1640" d="M156 1262v98l141 98h88v-874h-90v776zM483 0l506 1458h96l-505 -1458h-97zM1049 131v78l256 665h90l-254 -665h213v211h88v-211h63v-78h-63v-131h-88v131h-305z" />
<glyph unicode="&#xbd;" horiz-adv-x="1640" d="M156 1262v98l141 98h88v-874h-90v776zM483 0l506 1458h96l-505 -1458h-97zM1106 629v35q0 113 55 165q59 56 154 56q88 0 149 -49q62 -50 62 -152q0 -103 -62 -201l-254 -411h316v-72h-418v70l281 452q47 75 47 162q0 56 -32.5 89.5t-88.5 33.5q-119 0 -119 -141v-37h-90 z" />
<glyph unicode="&#xbe;" horiz-adv-x="1640" d="M102 803v26h93v-26q0 -53 6.5 -78.5t25.5 -42.5q31 -31 84 -31q55 0 86 31q39 42 39 137q0 100 -33 139t-92 39h-59v78h59q49 0 82 29q18 16 26.5 43t9.5 43t1 51q0 88 -37 123q-30 27 -82 27q-55 0 -86 -31q-30 -30 -30 -111v-26h-91v24q0 115 54 166q58 55 153 55 q99 0 152 -53q57 -57 57 -172q0 -100 -37 -147q-31 -42 -80 -60q58 -16 89 -65q34 -48 34 -154q0 -75 -13 -115.5t-48 -74.5q-57 -54 -154 -54q-98 0 -157 56q-28 26 -40 64t-12 110zM483 0l506 1458h96l-505 -1458h-97zM1049 131v78l256 665h90l-254 -665h211v211h90v-211 h63v-78h-63v-131h-90v131h-303z" />
<glyph unicode="&#xbf;" horiz-adv-x="768" d="M88 -78q0 77 12 128.5t47 107.5l119 190q43 65 43 152v159h115v-174q0 -93 -49 -170l-119 -188q-32 -51 -42.5 -96t-10.5 -111q0 -80 14 -125t43 -76q42 -45 113 -45q65 0 108 43q54 54 54 174h114q0 -166 -80 -243q-76 -76 -196 -76q-130 0 -203 76q-44 45 -63 105 t-19 169zM291 889v153h153v-153h-153z" />
<glyph unicode="&#xc0;" horiz-adv-x="776" d="M8 0l326 1458h112l320 -1458h-129l-80 399h-340l-78 -399h-131zM195 1831h120l134 -266h-101zM242 508h293l-148 733z" />
<glyph unicode="&#xc1;" horiz-adv-x="776" d="M8 0l326 1458h112l320 -1458h-129l-80 399h-340l-78 -399h-131zM242 508h293l-148 733zM336 1565l133 266h121l-154 -266h-100z" />
<glyph unicode="&#xc2;" horiz-adv-x="776" d="M8 0l326 1458h112l320 -1458h-129l-80 399h-340l-78 -399h-131zM164 1565l178 266h102l177 -266h-107l-121 188l-123 -188h-106zM242 508h293l-148 733z" />
<glyph unicode="&#xc3;" horiz-adv-x="776" d="M8 0l326 1458h112l320 -1458h-129l-80 399h-340l-78 -399h-131zM150 1665q47 47 78.5 62.5t64.5 15.5q54 0 110 -35q57 -33 86 -33q20 0 39 9t50 40l59 -59q-48 -47 -80.5 -62.5t-64.5 -15.5q-46 0 -111 35q-53 33 -86 33q-22 0 -39 -8.5t-49 -40.5zM242 508h293 l-148 733z" />
<glyph unicode="&#xc4;" horiz-adv-x="776" d="M8 0l326 1458h112l320 -1458h-129l-80 399h-340l-78 -399h-131zM186 1606v129h129v-129h-129zM242 508h293l-148 733zM469 1606v129h129v-129h-129z" />
<glyph unicode="&#xc5;" horiz-adv-x="776" d="M8 0l326 1458h112l320 -1458h-129l-80 399h-340l-78 -399h-131zM207 1724q0 77 55 132t131 55q75 0 131 -55.5t56 -131.5t-56 -131t-131 -55q-77 0 -131.5 55t-54.5 131zM242 508h293l-148 733zM285 1724q0 -44 32 -76t76 -32q43 0 75 32t32 76t-32 75.5t-75 31.5 q-44 0 -76 -31.5t-32 -75.5z" />
<glyph unicode="&#xc6;" horiz-adv-x="1236" d="M10 0l543 1458h590v-108h-389v-566h336v-108h-336v-567h389v-109h-510v403h-344l-148 -403h-131zM328 512h305v840z" />
<glyph unicode="&#xc7;" horiz-adv-x="817" d="M111 729q0 346 17.5 467.5t84.5 192.5q80 86 217 86q131 0 209 -78q91 -91 94 -273h-121q0 131 -57 193q-46 49 -125 49q-82 0 -129 -53q-31 -38 -45 -92.5t-19.5 -162t-5.5 -329.5t5.5 -329.5t19.5 -162t45 -92.5q47 -53 129 -53q79 0 125 49q57 62 57 193h121 q-3 -192 -102 -281q-79 -69 -201 -69q-137 0 -217 86q-67 71 -84.5 192t-17.5 467zM281 -350l108 274h94l-94 -274h-108z" />
<glyph unicode="&#xc8;" horiz-adv-x="745" d="M141 0v1458h508v-108h-387v-566h334v-108h-334v-567h387v-109h-508zM207 1831h121l133 -266h-101z" />
<glyph unicode="&#xc9;" horiz-adv-x="745" d="M141 0v1458h508v-108h-387v-566h334v-108h-334v-567h387v-109h-508zM348 1565l133 266h121l-153 -266h-101z" />
<glyph unicode="&#xca;" horiz-adv-x="745" d="M141 0v1458h508v-108h-387v-566h334v-108h-334v-567h387v-109h-508zM176 1565l178 266h103l176 -266h-107l-120 188l-123 -188h-107z" />
<glyph unicode="&#xcb;" horiz-adv-x="745" d="M141 0v1458h508v-108h-387v-566h334v-108h-334v-567h387v-109h-508zM199 1606v129h129v-129h-129zM481 1606v129h129v-129h-129z" />
<glyph unicode="&#xcc;" horiz-adv-x="403" d="M4 1831h121l133 -266h-100zM141 0v1458h121v-1458h-121z" />
<glyph unicode="&#xcd;" horiz-adv-x="403" d="M141 0v1458h121v-1458h-121zM145 1565l134 266h120l-153 -266h-101z" />
<glyph unicode="&#xce;" horiz-adv-x="403" d="M-27 1565l179 266h102l176 -266h-106l-121 188l-123 -188h-107zM141 0v1458h121v-1458h-121z" />
<glyph unicode="&#xcf;" horiz-adv-x="403" d="M-4 1606v129h129v-129h-129zM141 0v1458h121v-1458h-121zM279 1606v129h129v-129h-129z" />
<glyph unicode="&#xd0;" horiz-adv-x="878" d="M41 680v100h109v678h301q134 0 215 -84q67 -70 84.5 -187.5t17.5 -457.5t-17.5 -457.5t-84.5 -187.5q-81 -84 -215 -84h-301v680h-109zM270 109h174q83 0 131 51q47 52 59.5 152.5t12.5 416.5t-12.5 416.5t-59.5 152.5q-49 52 -131 52h-174v-570h187v-100h-187v-571z" />
<glyph unicode="&#xd1;" horiz-adv-x="929" d="M141 0v1458h121l408 -1136l-2 1136h120v-1458h-118l-408 1137v-1137h-121zM221 1665q47 47 79 62.5t65 15.5q54 0 110 -35q57 -33 86 -33q20 0 38.5 9t49.5 40l60 -59q-48 -47 -81 -62.5t-65 -15.5q-45 0 -110 35q-53 33 -86 33q-22 0 -39 -8.5t-49 -40.5z" />
<glyph unicode="&#xd2;" horiz-adv-x="862" d="M111 729q0 346 17.5 467.5t84.5 192.5q80 86 217 86q139 0 219 -86q67 -72 85 -193.5t18 -466.5t-18 -466t-85 -193q-80 -86 -219 -86q-137 0 -217 86q-67 71 -84.5 192t-17.5 467zM231 729q0 -222 5.5 -329.5t19.5 -162t45 -92.5q47 -53 129 -53q84 0 131 53 q31 38 45 92.5t19.5 162t5.5 329.5t-5.5 329.5t-19.5 162t-45 92.5q-47 53 -131 53q-82 0 -129 -53q-31 -38 -45 -92.5t-19.5 -162t-5.5 -329.5zM233 1831h121l133 -266h-100z" />
<glyph unicode="&#xd3;" horiz-adv-x="862" d="M111 729q0 346 17.5 467.5t84.5 192.5q80 86 217 86q139 0 219 -86q67 -72 85 -193.5t18 -466.5t-18 -466t-85 -193q-80 -86 -219 -86q-137 0 -217 86q-67 71 -84.5 192t-17.5 467zM231 729q0 -222 5.5 -329.5t19.5 -162t45 -92.5q47 -53 129 -53q84 0 131 53 q31 38 45 92.5t19.5 162t5.5 329.5t-5.5 329.5t-19.5 162t-45 92.5q-47 53 -131 53q-82 0 -129 -53q-31 -38 -45 -92.5t-19.5 -162t-5.5 -329.5zM375 1565l133 266h121l-154 -266h-100z" />
<glyph unicode="&#xd4;" horiz-adv-x="862" d="M111 729q0 346 17.5 467.5t84.5 192.5q80 86 217 86q139 0 219 -86q67 -72 85 -193.5t18 -466.5t-18 -466t-85 -193q-80 -86 -219 -86q-137 0 -217 86q-67 71 -84.5 192t-17.5 467zM203 1565l178 266h102l176 -266h-106l-121 188l-123 -188h-106zM231 729 q0 -222 5.5 -329.5t19.5 -162t45 -92.5q47 -53 129 -53q84 0 131 53q31 38 45 92.5t19.5 162t5.5 329.5t-5.5 329.5t-19.5 162t-45 92.5q-47 53 -131 53q-82 0 -129 -53q-31 -38 -45 -92.5t-19.5 -162t-5.5 -329.5z" />
<glyph unicode="&#xd5;" horiz-adv-x="862" d="M111 729q0 346 17.5 467.5t84.5 192.5q80 86 217 86q139 0 219 -86q67 -72 85 -193.5t18 -466.5t-18 -466t-85 -193q-80 -86 -219 -86q-137 0 -217 86q-67 71 -84.5 192t-17.5 467zM188 1665q47 47 79 62.5t65 15.5q54 0 110 -35q57 -33 86 -33q20 0 38.5 9t49.5 40 l60 -59q-48 -47 -81 -62.5t-65 -15.5q-45 0 -110 35q-53 33 -86 33q-22 0 -39 -8.5t-49 -40.5zM231 729q0 -222 5.5 -329.5t19.5 -162t45 -92.5q47 -53 129 -53q84 0 131 53q31 38 45 92.5t19.5 162t5.5 329.5t-5.5 329.5t-19.5 162t-45 92.5q-47 53 -131 53q-82 0 -129 -53 q-31 -38 -45 -92.5t-19.5 -162t-5.5 -329.5z" />
<glyph unicode="&#xd6;" horiz-adv-x="862" d="M111 729q0 346 17.5 467.5t84.5 192.5q80 86 217 86q139 0 219 -86q67 -72 85 -193.5t18 -466.5t-18 -466t-85 -193q-80 -86 -219 -86q-137 0 -217 86q-67 71 -84.5 192t-17.5 467zM225 1606v129h129v-129h-129zM231 729q0 -222 5.5 -329.5t19.5 -162t45 -92.5 q47 -53 129 -53q84 0 131 53q31 38 45 92.5t19.5 162t5.5 329.5t-5.5 329.5t-19.5 162t-45 92.5q-47 53 -131 53q-82 0 -129 -53q-31 -38 -45 -92.5t-19.5 -162t-5.5 -329.5zM508 1606v129h129v-129h-129z" />
<glyph unicode="&#xd7;" horiz-adv-x="882" d="M127 311l240 240l-240 242l74 73l241 -239l240 239l76 -73l-242 -242l242 -240l-76 -75l-240 241l-241 -241z" />
<glyph unicode="&#xd8;" horiz-adv-x="829" d="M111 729q0 346 17.5 467.5t84.5 192.5q80 86 217 86q96 0 164 -41l35 114h102l-57 -186q51 -65 64.5 -189.5t13.5 -443.5q0 -345 -18 -466t-85 -193q-80 -86 -219 -86q-97 0 -162 41l-35 -115h-102l59 184q-51 66 -65 191t-14 444zM231 729q0 -376 23 -465l303 1055 q-44 47 -127 47q-82 0 -129 -53q-31 -38 -45 -92.5t-19.5 -162t-5.5 -329.5zM305 139q44 -47 125 -47q84 0 131 53q31 38 45 92.5t19.5 162t5.5 329.5q0 367 -23 459z" />
<glyph unicode="&#xd9;" horiz-adv-x="854" d="M125 303v1155h121v-1165q0 -91 52.5 -146t129.5 -55t128.5 55t51.5 146v1165h121v-1155q0 -149 -86 -235q-87 -84 -215 -84t-215 84q-88 88 -88 235zM231 1831h121l133 -266h-100z" />
<glyph unicode="&#xda;" horiz-adv-x="854" d="M125 303v1155h121v-1165q0 -91 52.5 -146t129.5 -55t128.5 55t51.5 146v1165h121v-1155q0 -149 -86 -235q-87 -84 -215 -84t-215 84q-88 88 -88 235zM373 1565l133 266h121l-154 -266h-100z" />
<glyph unicode="&#xdb;" horiz-adv-x="854" d="M125 303v1155h121v-1165q0 -91 52.5 -146t129.5 -55t128.5 55t51.5 146v1165h121v-1155q0 -149 -86 -235q-87 -84 -215 -84t-215 84q-88 88 -88 235zM201 1565l178 266h102l176 -266h-106l-121 188l-123 -188h-106z" />
<glyph unicode="&#xdc;" horiz-adv-x="854" d="M125 303v1155h121v-1165q0 -91 52.5 -146t129.5 -55t128.5 55t51.5 146v1165h121v-1155q0 -149 -86 -235q-87 -84 -215 -84t-215 84q-88 88 -88 235zM223 1606v129h129v-129h-129zM506 1606v129h129v-129h-129z" />
<glyph unicode="&#xdd;" horiz-adv-x="645" d="M6 1458h133l183 -667l184 667h133l-256 -848v-610h-121v610zM272 1565l134 266h120l-153 -266h-101z" />
<glyph unicode="&#xde;" horiz-adv-x="837" d="M141 0v1458h121v-315h166q57 0 100.5 -9t85.5 -35.5t69 -70.5t43.5 -117.5t16.5 -173.5q0 -223 -77 -315t-238 -92h-166v-330h-121zM262 438h170q105 0 148 73.5t43 223.5t-43.5 224.5t-147.5 74.5h-170v-596z" />
<glyph unicode="&#xdf;" horiz-adv-x="763" d="M127 0v1196q0 133 74 207q33 33 83 52.5t103 19.5q116 0 186 -70q46 -46 62 -101.5t16 -148.5q0 -135 -39 -203q-28 -48 -69 -73q29 -16 61 -52q39 -47 53.5 -121t14.5 -247q0 -171 -14 -253t-68 -136q-70 -70 -203 -70v102q84 0 121 43q30 33 39.5 100.5t9.5 219.5 q0 142 -10 211.5t-39 101.5q-39 45 -102 45h-19v99h14q50 0 86 39q32 34 41 80t9 110q0 128 -45 178q-37 43 -105 43q-63 0 -104 -44.5t-41 -127.5v-1200h-115z" />
<glyph unicode="&#xe0;" horiz-adv-x="720" d="M76 289q0 156 88 235q76 70 205 70h118v186q0 178 -143 178q-56 0 -94 -38q-47 -50 -47 -146h-115q0 139 76 215q70 70 180 70q123 0 186 -66q72 -75 72 -217v-776h-110v94q-18 -38 -58 -69q-54 -41 -125 -41q-100 0 -166 69q-67 70 -67 236zM160 1466h119l135 -266h-101 zM190 291q0 -97 36.5 -151t109.5 -54q68 0 109.5 52.5t41.5 135.5v230h-114q-79 0 -127 -45q-56 -56 -56 -168z" />
<glyph unicode="&#xe1;" horiz-adv-x="720" d="M76 289q0 156 88 235q76 70 205 70h118v186q0 178 -143 178q-56 0 -94 -38q-47 -50 -47 -146h-115q0 139 76 215q70 70 180 70q123 0 186 -66q72 -75 72 -217v-776h-110v94q-18 -38 -58 -69q-54 -41 -125 -41q-100 0 -166 69q-67 70 -67 236zM190 291q0 -97 36.5 -151 t109.5 -54q68 0 109.5 52.5t41.5 135.5v230h-114q-79 0 -127 -45q-56 -56 -56 -168zM297 1200l133 266h119l-152 -266h-100z" />
<glyph unicode="&#xe2;" horiz-adv-x="720" d="M76 289q0 156 88 235q76 70 205 70h118v186q0 178 -143 178q-56 0 -94 -38q-47 -50 -47 -146h-115q0 139 76 215q70 70 180 70q123 0 186 -66q72 -75 72 -217v-776h-110v94q-18 -38 -58 -69q-54 -41 -125 -41q-100 0 -166 69q-67 70 -67 236zM123 1200l178 266h102 l177 -266h-105l-123 189l-123 -189h-106zM190 291q0 -97 36.5 -151t109.5 -54q68 0 109.5 52.5t41.5 135.5v230h-114q-79 0 -127 -45q-56 -56 -56 -168z" />
<glyph unicode="&#xe3;" horiz-adv-x="720" d="M76 289q0 156 88 235q76 70 205 70h118v186q0 178 -143 178q-56 0 -94 -38q-47 -50 -47 -146h-115q0 139 76 215q70 70 180 70q123 0 186 -66q72 -75 72 -217v-776h-110v94q-18 -38 -58 -69q-54 -41 -125 -41q-100 0 -166 69q-67 70 -67 236zM111 1300q47 47 78.5 62.5 t64.5 15.5q55 0 111 -35q55 -32 86 -32q20 0 38.5 9t49.5 40l59 -60q-48 -47 -80.5 -62t-64.5 -15q-48 0 -111 34q-3 2 -12 7t-12.5 7t-11.5 5.5t-12.5 5.5t-11.5 4t-13.5 3t-12.5 1q-22 0 -39 -8.5t-49 -40.5zM190 291q0 -97 36.5 -151t109.5 -54q68 0 109.5 52.5 t41.5 135.5v230h-114q-79 0 -127 -45q-56 -56 -56 -168z" />
<glyph unicode="&#xe4;" horiz-adv-x="720" d="M76 289q0 156 88 235q76 70 205 70h118v186q0 178 -143 178q-56 0 -94 -38q-47 -50 -47 -146h-115q0 139 76 215q70 70 180 70q123 0 186 -66q72 -75 72 -217v-776h-110v94q-18 -38 -58 -69q-54 -41 -125 -41q-100 0 -166 69q-67 70 -67 236zM145 1241v129h131v-129h-131 zM190 291q0 -97 36.5 -151t109.5 -54q68 0 109.5 52.5t41.5 135.5v230h-114q-79 0 -127 -45q-56 -56 -56 -168zM428 1241v129h129v-129h-129z" />
<glyph unicode="&#xe5;" horiz-adv-x="720" d="M76 289q0 156 88 235q76 70 205 70h118v186q0 178 -143 178q-56 0 -94 -38q-47 -50 -47 -146h-115q0 139 76 215q70 70 180 70q123 0 186 -66q72 -75 72 -217v-776h-110v94q-18 -38 -58 -69q-54 -41 -125 -41q-100 0 -166 69q-67 70 -67 236zM166 1376q0 77 55 132 t131 55t131.5 -55.5t55.5 -131.5t-55 -131t-132 -55q-76 0 -131 55t-55 131zM190 291q0 -97 36.5 -151t109.5 -54q68 0 109.5 52.5t41.5 135.5v230h-114q-79 0 -127 -45q-56 -56 -56 -168zM244 1376q0 -43 32 -74.5t76 -31.5q43 0 75 31.5t32 74.5q0 44 -32 76.5t-75 32.5 q-44 0 -76 -32.5t-32 -76.5z" />
<glyph unicode="&#xe6;" horiz-adv-x="1114" d="M76 289q0 156 88 235q76 70 205 70h118v186q0 178 -143 178q-61 0 -96 -38q-45 -48 -45 -146h-115q0 139 76 215q70 70 180 70q111 0 172 -58q24 -24 39 -51q13 23 29 39q67 70 174 70q116 0 186 -76q52 -56 68 -163t16 -316h-426q0 -174 10 -254t43 -117q40 -47 107 -47 q66 0 104 41q45 48 45 147h113q-2 -76 -19.5 -127t-56.5 -92q-68 -71 -186 -71q-102 0 -170 61q-39 33 -64 92q-30 -72 -73 -106q-57 -47 -146 -47q-100 0 -166 69q-67 70 -67 236zM190 291q0 -97 36.5 -151t109.5 -54q68 0 109.5 52.5t41.5 135.5v230h-114q-79 0 -127 -45 q-56 -56 -56 -168zM602 596h311q-2 139 -12.5 209t-40.5 104q-40 47 -102 47q-63 0 -103 -47q-30 -34 -40.5 -104t-12.5 -209z" />
<glyph unicode="&#xe7;" horiz-adv-x="696" d="M92 520q0 194 16.5 297t61.5 158q69 84 192 84q124 0 185 -64q42 -42 57 -98t17 -131h-113q0 102 -41 147q-40 43 -102 43q-67 0 -107 -47q-33 -40 -42 -122t-9 -267t9 -266t42 -121q40 -47 107 -47q59 0 100 41q43 43 43 147h113q-3 -149 -74 -223q-64 -67 -185 -67 q-125 0 -192 82q-45 55 -61.5 157.5t-16.5 296.5zM225 -350l109 274h94l-94 -274h-109z" />
<glyph unicode="&#xe8;" horiz-adv-x="714" d="M92 520q0 201 17 305.5t67 157.5q70 76 186 76q117 0 187 -76q52 -56 67 -161.5t15 -317.5h-424q0 -174 10 -254t43 -117q40 -47 105 -47q66 0 104 41q47 50 47 147h113q-2 -76 -19.5 -127t-56.5 -92q-68 -71 -188 -71t-189 75q-50 53 -67 157t-17 304zM170 1466h119 l135 -266h-100zM207 596h309q-2 142 -12 211t-39 102q-40 47 -103 47q-64 0 -104 -47q-29 -33 -39 -102t-12 -211z" />
<glyph unicode="&#xe9;" horiz-adv-x="714" d="M92 520q0 201 17 305.5t67 157.5q70 76 186 76q117 0 187 -76q52 -56 67 -161.5t15 -317.5h-424q0 -174 10 -254t43 -117q40 -47 105 -47q66 0 104 41q47 50 47 147h113q-2 -76 -19.5 -127t-56.5 -92q-68 -71 -188 -71t-189 75q-50 53 -67 157t-17 304zM207 596h309 q-2 142 -12 211t-39 102q-40 47 -103 47q-64 0 -104 -47q-29 -33 -39 -102t-12 -211zM307 1200l133 266h119l-151 -266h-101z" />
<glyph unicode="&#xea;" horiz-adv-x="714" d="M92 520q0 201 17 305.5t67 157.5q70 76 186 76q117 0 187 -76q52 -56 67 -161.5t15 -317.5h-424q0 -174 10 -254t43 -117q40 -47 105 -47q66 0 104 41q47 50 47 147h113q-2 -76 -19.5 -127t-56.5 -92q-68 -71 -188 -71t-189 75q-50 53 -67 157t-17 304zM133 1200l178 266 h103l176 -266h-105l-123 189l-122 -189h-107zM207 596h309q-2 142 -12 211t-39 102q-40 47 -103 47q-64 0 -104 -47q-29 -33 -39 -102t-12 -211z" />
<glyph unicode="&#xeb;" horiz-adv-x="714" d="M92 520q0 201 17 305.5t67 157.5q70 76 186 76q117 0 187 -76q52 -56 67 -161.5t15 -317.5h-424q0 -174 10 -254t43 -117q40 -47 105 -47q66 0 104 41q47 50 47 147h113q-2 -76 -19.5 -127t-56.5 -92q-68 -71 -188 -71t-189 75q-50 53 -67 157t-17 304zM156 1241v129h131 v-129h-131zM207 596h309q-2 142 -12 211t-39 102q-40 47 -103 47q-64 0 -104 -47q-29 -33 -39 -102t-12 -211zM438 1241v129h129v-129h-129z" />
<glyph unicode="&#xec;" horiz-adv-x="370" d="M-10 1466h119l135 -266h-101zM129 0v1042h115v-1042h-115z" />
<glyph unicode="&#xed;" horiz-adv-x="370" d="M129 0v1042h115v-1042h-115zM131 1200l133 266h119l-152 -266h-100z" />
<glyph unicode="&#xee;" horiz-adv-x="370" d="M-43 1200l178 266h103l176 -266h-105l-123 189l-123 -189h-106zM129 0v1042h115v-1042h-115z" />
<glyph unicode="&#xef;" horiz-adv-x="370" d="M-20 1241v129h131v-129h-131zM127 0v1042h115v-1042h-115zM262 1241v129h129v-129h-129z" />
<glyph unicode="&#xf0;" horiz-adv-x="727" d="M92 510q0 200 16 300.5t62 152.5q65 71 174 71q67 0 113 -28l-66 186h-168v90h137l-67 176h117l65 -176h148v-90h-117l80 -236q26 -78 36.5 -174t10.5 -272q0 -192 -16.5 -293t-61.5 -154q-67 -79 -193 -79q-125 0 -192 79q-45 53 -61.5 154t-16.5 293zM207 512 q0 -179 10 -260.5t43 -120.5q38 -45 102 -45q67 0 105 45q33 39 42 119t9 262t-9 261t-42 118q-38 45 -105 45q-64 0 -102 -45q-33 -39 -43 -120t-10 -259z" />
<glyph unicode="&#xf1;" horiz-adv-x="763" d="M127 0v1042h113v-84q20 38 59 64q53 37 119 37q95 0 164 -72q63 -66 63 -205v-782h-115v784q0 83 -40 126.5t-103 43.5t-104 -43.5t-41 -126.5v-784h-115zM147 1300q47 47 79 62.5t65 15.5q54 0 110 -35q55 -32 86 -32q20 0 38.5 9t49.5 40l60 -60q-48 -47 -80.5 -62 t-65.5 -15q-47 0 -110 34q-3 2 -12 7t-12.5 7t-11.5 5.5t-12.5 5.5t-11.5 4t-13.5 3t-12.5 1q-22 0 -39 -8.5t-49 -40.5z" />
<glyph unicode="&#xf2;" horiz-adv-x="722" d="M92 520q0 194 16.5 297t61.5 158q69 84 192 84q124 0 193 -84q45 -55 61.5 -158t16.5 -297t-16.5 -296.5t-61.5 -157.5q-67 -82 -193 -82q-125 0 -192 82q-45 55 -61.5 157.5t-16.5 296.5zM170 1466h119l135 -266h-100zM207 520q0 -185 9 -266t42 -121q40 -47 104 -47 q63 0 103 47q33 40 43 123t10 264q0 182 -10 265.5t-43 123.5q-40 47 -103 47q-64 0 -104 -47q-33 -40 -42 -122t-9 -267z" />
<glyph unicode="&#xf3;" horiz-adv-x="722" d="M92 520q0 194 16.5 297t61.5 158q69 84 192 84q124 0 193 -84q45 -55 61.5 -158t16.5 -297t-16.5 -296.5t-61.5 -157.5q-67 -82 -193 -82q-125 0 -192 82q-45 55 -61.5 157.5t-16.5 296.5zM207 520q0 -185 9 -266t42 -121q40 -47 104 -47q63 0 103 47q33 40 43 123 t10 264q0 182 -10 265.5t-43 123.5q-40 47 -103 47q-64 0 -104 -47q-33 -40 -42 -122t-9 -267zM307 1200l133 266h119l-151 -266h-101z" />
<glyph unicode="&#xf4;" horiz-adv-x="722" d="M92 520q0 194 16.5 297t61.5 158q69 84 192 84q124 0 193 -84q45 -55 61.5 -158t16.5 -297t-16.5 -296.5t-61.5 -157.5q-67 -82 -193 -82q-125 0 -192 82q-45 55 -61.5 157.5t-16.5 296.5zM133 1200l178 266h103l176 -266h-105l-123 189l-122 -189h-107zM207 520 q0 -185 9 -266t42 -121q40 -47 104 -47q63 0 103 47q33 40 43 123t10 264q0 182 -10 265.5t-43 123.5q-40 47 -103 47q-64 0 -104 -47q-33 -40 -42 -122t-9 -267z" />
<glyph unicode="&#xf5;" horiz-adv-x="722" d="M92 520q0 194 16.5 297t61.5 158q69 84 192 84q124 0 193 -84q45 -55 61.5 -158t16.5 -297t-16.5 -296.5t-61.5 -157.5q-67 -82 -193 -82q-125 0 -192 82q-45 55 -61.5 157.5t-16.5 296.5zM121 1300q47 47 78.5 62.5t64.5 15.5q55 0 111 -35q55 -32 86 -32q20 0 38.5 9 t49.5 40l59 -60q-48 -47 -80.5 -62t-64.5 -15q-48 0 -111 34q-3 2 -12 7t-12.5 7t-11.5 5.5t-12.5 5.5t-11.5 4t-13.5 3t-12.5 1q-22 0 -39 -8.5t-49 -40.5zM207 520q0 -185 9 -266t42 -121q40 -47 104 -47q63 0 103 47q33 40 43 123t10 264q0 182 -10 265.5t-43 123.5 q-40 47 -103 47q-64 0 -104 -47q-33 -40 -42 -122t-9 -267z" />
<glyph unicode="&#xf6;" horiz-adv-x="722" d="M92 520q0 194 16.5 297t61.5 158q69 84 192 84q124 0 193 -84q45 -55 61.5 -158t16.5 -297t-16.5 -296.5t-61.5 -157.5q-67 -82 -193 -82q-125 0 -192 82q-45 55 -61.5 157.5t-16.5 296.5zM156 1241v129h131v-129h-131zM207 520q0 -185 9 -266t42 -121q40 -47 104 -47 q63 0 103 47q33 40 43 123t10 264q0 182 -10 265.5t-43 123.5q-40 47 -103 47q-64 0 -104 -47q-33 -40 -42 -122t-9 -267zM438 1241v129h129v-129h-129z" />
<glyph unicode="&#xf7;" horiz-adv-x="882" d="M100 508v108h684v-108h-684zM367 182v156h153v-156h-153zM367 786v154h153v-154h-153z" />
<glyph unicode="&#xf8;" horiz-adv-x="710" d="M86 -90l68 178q-35 56 -48.5 157.5t-13.5 274.5q0 194 16.5 297t61.5 158q69 84 192 84q82 0 140 -39l41 113h94l-66 -179q35 -56 48.5 -157.5t13.5 -276.5q0 -194 -16.5 -296.5t-61.5 -157.5q-67 -82 -193 -82q-88 0 -141 36l-41 -110h-94zM207 520q0 -213 16 -276 l240 671q-40 43 -101 43q-67 0 -104 -47q-33 -40 -42 -122.5t-9 -268.5zM262 125q38 -41 100 -41q66 0 103 47q33 40 43 123.5t10 265.5q0 216 -16 279z" />
<glyph unicode="&#xf9;" horiz-adv-x="763" d="M119 260v782h114v-784q0 -83 40.5 -126.5t103.5 -43.5t104 43.5t41 126.5v784h115v-1042h-113v84q-20 -38 -59 -64q-52 -36 -119 -36q-98 0 -164 69q-63 66 -63 207zM184 1466h119l135 -266h-100z" />
<glyph unicode="&#xfa;" horiz-adv-x="763" d="M119 260v782h114v-784q0 -83 40.5 -126.5t103.5 -43.5t104 43.5t41 126.5v784h115v-1042h-113v84q-20 -38 -59 -64q-52 -36 -119 -36q-98 0 -164 69q-63 66 -63 207zM322 1200l133 266h118l-151 -266h-100z" />
<glyph unicode="&#xfb;" horiz-adv-x="763" d="M119 260v782h114v-784q0 -83 40.5 -126.5t103.5 -43.5t104 43.5t41 126.5v784h115v-1042h-113v84q-20 -38 -59 -64q-52 -36 -119 -36q-98 0 -164 69q-63 66 -63 207zM147 1200l179 266h102l176 -266h-104l-123 189l-123 -189h-107z" />
<glyph unicode="&#xfc;" horiz-adv-x="763" d="M119 260v782h114v-784q0 -83 40.5 -126.5t103.5 -43.5t104 43.5t41 126.5v784h115v-1042h-113v84q-20 -38 -59 -64q-52 -36 -119 -36q-98 0 -164 69q-63 66 -63 207zM170 1241v129h131v-129h-131zM453 1241v129h129v-129h-129z" />
<glyph unicode="&#xfd;" horiz-adv-x="630" d="M8 1042h127l178 -860l179 860h124l-294 -1245q-28 -116 -103.5 -164.5t-200.5 -48.5v103q83 0 128 32.5t63 100.5l47 184zM268 1200l133 266h119l-151 -266h-101z" />
<glyph unicode="&#xfe;" horiz-adv-x="749" d="M129 -416v1874h113v-500q14 32 57 64q52 37 119 37q97 0 162 -74q45 -53 61 -156.5t16 -308.5q0 -204 -16 -307t-61 -156q-63 -73 -162 -73q-70 0 -119 32q-33 20 -55 62v-494h-115zM244 268q0 -98 47 -145q40 -37 100 -37q61 0 101 47q33 40 42 121t9 266t-9 267 t-42 122q-40 47 -101 47q-59 0 -100 -38q-47 -47 -47 -144v-506z" />
<glyph unicode="&#xff;" horiz-adv-x="630" d="M8 1042h127l178 -860l179 860h124l-294 -1245q-28 -116 -103.5 -164.5t-200.5 -48.5v103q83 0 128 32.5t63 100.5l47 184zM117 1241v129h131v-129h-131zM399 1241v129h129v-129h-129z" />
<glyph unicode="&#x152;" horiz-adv-x="1232" d="M111 729q0 341 18.5 465t83.5 195q80 86 215 86q139 0 207 -99v82h504v-108h-389v-566h335v-108h-335v-567h389v-109h-504v82q-70 -98 -207 -98q-135 0 -215 86q-65 71 -83.5 195t-18.5 464zM231 729q0 -222 5.5 -329.5t19.5 -162t45 -92.5q47 -53 129 -53q84 0 131 53 q31 38 45 92.5t19.5 162t5.5 329.5t-5.5 329.5t-19.5 162t-45 92.5q-47 53 -131 53q-82 0 -129 -53q-31 -38 -45 -92.5t-19.5 -162t-5.5 -329.5z" />
<glyph unicode="&#x153;" horiz-adv-x="1144" d="M92 520q0 194 16.5 297t61.5 158q69 84 192 84q110 0 177 -70q22 -25 36 -57q14 32 39 57q70 70 172 70q117 0 187 -76q52 -56 68 -163t16 -316h-424q0 -174 10 -254t43 -117q40 -47 105 -47q66 0 104 41q47 50 47 147h113q-1 -75 -19.5 -126.5t-58.5 -92.5 q-68 -71 -186 -71q-108 0 -177 69q-25 25 -39 60q-15 -37 -38 -60q-69 -69 -175 -69q-125 0 -192 82q-45 55 -61.5 157.5t-16.5 296.5zM207 520q0 -185 9 -266t42 -121q40 -47 104 -47q63 0 103 47q33 40 43 123t10 264q0 182 -10 265.5t-43 123.5q-40 47 -103 47 q-64 0 -104 -47q-33 -40 -42 -122t-9 -267zM633 596h309q-2 142 -12 211t-39 102q-40 47 -105 47q-62 0 -102 -47q-29 -33 -39 -102t-12 -211z" />
<glyph unicode="&#x178;" horiz-adv-x="645" d="M6 1458h133l183 -667l184 667h133l-256 -848v-610h-121v610zM119 1606v129h129v-129h-129zM401 1606v129h129v-129h-129z" />
<glyph unicode="&#x2c6;" horiz-adv-x="724" d="M133 1200l178 266h103l176 -266h-105l-123 189l-122 -189h-107z" />
<glyph unicode="&#x2dc;" horiz-adv-x="724" d="M121 1300q47 47 78.5 62.5t64.5 15.5q55 0 111 -35q55 -32 86 -32q20 0 38.5 9t49.5 40l59 -60q-48 -47 -80.5 -62t-64.5 -15q-48 0 -111 34q-3 2 -12 7t-12.5 7t-11.5 5.5t-12.5 5.5t-11.5 4t-13.5 3t-12.5 1q-22 0 -39 -8.5t-49 -40.5z" />
<glyph unicode="&#x2000;" horiz-adv-x="955" />
<glyph unicode="&#x2001;" horiz-adv-x="1911" />
<glyph unicode="&#x2002;" horiz-adv-x="955" />
<glyph unicode="&#x2003;" horiz-adv-x="1911" />
<glyph unicode="&#x2004;" horiz-adv-x="637" />
<glyph unicode="&#x2005;" horiz-adv-x="477" />
<glyph unicode="&#x2006;" horiz-adv-x="318" />
<glyph unicode="&#x2007;" horiz-adv-x="318" />
<glyph unicode="&#x2008;" horiz-adv-x="238" />
<glyph unicode="&#x2009;" horiz-adv-x="382" />
<glyph unicode="&#x200a;" horiz-adv-x="106" />
<glyph unicode="&#x2010;" horiz-adv-x="616" d="M113 514v109h391v-109h-391z" />
<glyph unicode="&#x2011;" horiz-adv-x="616" d="M113 514v109h391v-109h-391z" />
<glyph unicode="&#x2012;" horiz-adv-x="616" d="M113 514v109h391v-109h-391z" />
<glyph unicode="&#x2013;" horiz-adv-x="884" d="M98 512v111h686v-111h-686z" />
<glyph unicode="&#x2014;" horiz-adv-x="1374" d="M113 512v111h1149v-111h-1149z" />
<glyph unicode="&#x2018;" horiz-adv-x="376" d="M119 1303v155l141 105v-260h-141z" />
<glyph unicode="&#x2019;" horiz-adv-x="376" d="M119 1200v258h141v-155z" />
<glyph unicode="&#x201a;" horiz-adv-x="376" d="M119 -104v260h141v-156z" />
<glyph unicode="&#x201c;" horiz-adv-x="673" d="M119 1303v155l141 105v-260h-141zM414 1303v155l141 105v-260h-141z" />
<glyph unicode="&#x201d;" horiz-adv-x="673" d="M119 1200v258h141v-155zM414 1200v258h141v-155z" />
<glyph unicode="&#x201e;" horiz-adv-x="673" d="M119 -104v260h141v-156zM414 -104v260h141v-156z" />
<glyph unicode="&#x2022;" horiz-adv-x="950" d="M141 684q0 138 98 236t236 98t236 -98t98 -236t-98 -236t-236 -98t-236 98t-98 236z" />
<glyph unicode="&#x2026;" horiz-adv-x="1124" d="M127 0v154h154v-154h-154zM485 0v154h154v-154h-154zM844 0v154h153v-154h-153z" />
<glyph unicode="&#x202f;" horiz-adv-x="382" />
<glyph unicode="&#x2039;" horiz-adv-x="448" d="M57 549l279 430v-197l-154 -233l154 -236v-194z" />
<glyph unicode="&#x203a;" horiz-adv-x="448" d="M113 119v194l153 236l-153 233v197l278 -430z" />
<glyph unicode="&#x205f;" horiz-adv-x="477" />
<glyph unicode="&#x20ac;" horiz-adv-x="917" d="M72 537v90h129v204h-129v91h129q3 224 24 315.5t78 151.5q80 86 217 86q131 0 209 -78q89 -89 92 -273h-121q0 242 -180 242q-84 0 -131 -53q-38 -44 -50 -115t-15 -276h272v-91h-274v-204h274v-90h-272q3 -203 16 -275.5t51 -116.5q47 -53 129 -53q52 0 89 20t56.5 56 t28 76.5t8.5 89.5h121q-3 -192 -102 -281q-79 -69 -201 -69q-137 0 -217 86q-57 60 -78 151.5t-24 315.5h-129z" />
<glyph unicode="&#x2122;" horiz-adv-x="1232" d="M68 1378v80h389v-80h-152v-800h-86v800h-151zM573 578v880h86l185 -493l186 493h84v-880h-88v661l-149 -422h-64l-151 408v-647h-89z" />
<glyph unicode="&#x25fc;" horiz-adv-x="1044" d="M0 0v1044h1044v-1044h-1044z" />
</font>
</defs>
</svg>
