<?xml version="1.0" standalone="no"?>
<!DOCTYPE svg PUBLIC "-//W3C//DTD SVG 1.1//EN" "http://www.w3.org/Graphics/SVG/1.1/DTD/svg11.dtd" >
<svg xmlns="http://www.w3.org/2000/svg">
<metadata></metadata>
<defs>
<font id="granjon_old_style_figuresbold" horiz-adv-x="909" >
<font-face units-per-em="2048" ascent="1638" descent="-410" />
<missing-glyph horiz-adv-x="454" />
<glyph horiz-adv-x="2048" />
<glyph horiz-adv-x="2048" />
<glyph unicode="&#xd;" horiz-adv-x="2048" />
<glyph unicode=" "  horiz-adv-x="454" />
<glyph unicode="&#x09;" horiz-adv-x="454" />
<glyph unicode="&#xa0;" horiz-adv-x="454" />
<glyph unicode="!" horiz-adv-x="606" d="M154 133q0 65 42.5 107.5t106.5 42.5t107 -42.5t43 -107.5t-43 -107t-107 -42t-106.5 42t-42.5 107zM154 1169q0 96 42 139.5t107 43.5t107.5 -43.5t42.5 -139.5q0 -21 -26 -143t-56 -299.5t-39 -320.5h-58q-9 143 -39 320.5t-55.5 299.5t-25.5 143z" />
<glyph unicode="&#x22;" horiz-adv-x="681" d="M92 1196.5q2 28.5 6.5 54.5t24.5 45t53 19t53 -19t24.5 -45t6.5 -54.5t-2 -47.5l-37 -418q-8 -63 -45 -63t-45 63l-37 418q-4 19 -2 47.5zM422 1196.5q2 28.5 6.5 54.5t24.5 45t53 19t53 -19t24.5 -45t6.5 -54.5t-2 -47.5l-37 -418q-8 -63 -45 -63t-45 63l-37 418 q-4 19 -2 47.5z" />
<glyph unicode="#" d="M0 397v123h199l37 258h-187v123h205l53 397h135l-55 -397h221l54 397h135l-56 -397h168v-123h-184l-37 -258h166v-123h-184l-56 -397h-133l56 397h-222l-55 -397h-133l55 397h-182zM334 520h219l37 258h-219z" />
<glyph unicode="$" d="M8 176q0 28 20 47t50 19q38 0 68 -17.5t47.5 -40t43.5 -53t50 -47.5v522q-250 120 -250 332q0 73 22.5 136.5t59.5 106.5t80 71.5t88 41.5v209h73v-194q42 6 72 6q10 0 21.5 -1t25 -2.5t21.5 -2.5v194h73v-200q254 -38 254 -158q0 -31 -17.5 -49.5t-49.5 -18.5 q-29 0 -55.5 15.5t-43 35.5t-41 44t-47.5 36v-475q31 -14 45.5 -21.5t49 -27t54.5 -36t48 -44.5t43.5 -56.5t27 -68t11.5 -82.5q0 -148 -78 -250.5t-201 -144.5v-207h-73v193q-8 0 -31 -2t-35 -2q-16 0 -74 4v-193h-73v197q-279 43 -279 184zM152 1034q0 -37 12 -67.5 t36 -53.5t41 -35.5t46 -29.5v373q-59 -29 -97 -79t-38 -108zM360 53q12 0 33 -2t31 -2q11 0 36 2t40 2v463l-140 59v-522zM360 815l140 -57v483q-27 8 -68 8q-26 0 -72 -8v-426zM573 80q68 31 108 83.5t40 123.5q0 137 -148 200v-407z" />
<glyph unicode="%" horiz-adv-x="1705" d="M98 797q0 83 44 166t111.5 144t151.5 99.5t162 38.5q90 0 140 -38t73 -126q49 -16 140 -16q130 0 250.5 73t197.5 177h102l-1095 -1368h-101l900 1128l-5 4q-131 -59 -249 -59q-97 0 -140 14q-4 -57 -23.5 -123t-57 -134.5t-87 -123.5t-121 -90t-151.5 -35 q-97 0 -169.5 70.5t-72.5 198.5zM233 739q0 -83 27.5 -124.5t97.5 -41.5q72 0 142.5 45.5t120.5 115t81.5 154.5t32.5 163q-91 45 -155 141q-57 -2 -112 -37t-96.5 -87.5t-73.5 -113.5t-48.5 -117.5t-16.5 -97.5zM928 260q0 78 43 161t109.5 147.5t152 106.5t166.5 42 q97 0 153 -50.5t56 -177.5q0 -78 -34 -164t-90 -158t-137.5 -119.5t-168.5 -47.5q-250 0 -250 260zM1063 170q0 -125 127 -125q78 0 150 48.5t119.5 120t75.5 149.5t28 141q0 81 -41.5 124.5t-98.5 43.5q-83 0 -168 -78.5t-138.5 -196.5t-53.5 -227z" />
<glyph unicode="&#x26;" horiz-adv-x="1290" d="M84 272q0 57 16 109t35.5 87t57 74t59.5 57t63 50q-61 66 -86.5 111.5t-25.5 109.5q0 105 84.5 187t204.5 82q73 0 125.5 -45.5t52.5 -118.5q0 -126 -150 -252q40 -35 84.5 -79t75.5 -77t80.5 -86t75.5 -80q29 44 49 100t20 107q0 41 -30 56.5t-87 15.5v78h381v-78 q-35 0 -55 -3t-40 -12.5t-37 -31.5t-35 -54t-44 -87l-71 -152l67 -82q46 -57 74 -78.5t57 -21.5q24 0 38.5 24.5t17.5 61.5h65q-2 -49 -12.5 -92t-31 -82.5t-57 -62.5t-85.5 -23q-35 0 -68 13t-62.5 38t-52.5 50t-51 58q-9 12 -14 17q-35 -36 -62 -59.5t-74.5 -54 t-108 -46.5t-130.5 -16q-139 0 -226 83t-87 205zM248 375q0 -111 80 -187.5t188 -76.5q65 0 119 27.5t88 72.5q-207 237 -352 379q-60 -33 -91.5 -90t-31.5 -125zM338 948q0 -54 32.5 -93t96.5 -87q84 91 84 180q0 56 -28 82.5t-72 26.5q-50 0 -81.5 -30t-31.5 -79z" />
<glyph unicode="'" horiz-adv-x="454" d="M143 1196.5q2 28.5 6.5 54.5t24.5 45t53 19t53 -19t24.5 -45t6.5 -54.5t-2 -47.5l-37 -418q-8 -63 -45 -63t-45 63l-37 418q-4 19 -2 47.5z" />
<glyph unicode="(" d="M217 416q0 106 25.5 208t65.5 182.5t95 157t107 130.5t109 102t94 74t69 45v-66q-172 -175 -251.5 -367.5t-79.5 -465.5t79.5 -466t251.5 -368v-65q-32 19 -69 45t-94 74t-109 102t-107 130.5t-95 157t-65.5 182.5t-25.5 208z" />
<glyph unicode=")" d="M127 -418q172 175 252 368t80 466t-80 465.5t-252 367.5v66q32 -19 69 -45t94 -74t109 -102t107 -130.5t95 -157t65.5 -182.5t25.5 -208t-25.5 -208t-65.5 -182.5t-95 -157t-107 -130.5t-109 -102t-94 -74t-69 -45v65z" />
<glyph unicode="*" d="M72 967q0 69 80 69q44 0 121 -19.5t104 -19.5q22 0 22 13q0 9 -37.5 52t-75.5 99t-38 94q0 60 63 60q47 0 74.5 -44t34.5 -96.5t15 -96.5t20 -44t27.5 42t30.5 92.5t42 92.5t59 42q30 0 53 -21.5t23 -52.5q0 -36 -46 -86.5t-92 -89t-46 -45.5q0 -13 18 -13q23 0 107 20.5 t123 20.5q44 0 64 -16.5t20 -52.5q0 -29 -17 -47t-45 -21q-36 -4 -142.5 17.5t-109.5 21.5q-16 0 -16 -14q0 -13 37 -59t74.5 -99t37.5 -82q0 -26 -20.5 -46t-50.5 -20q-41 0 -65 45t-30.5 98.5t-15.5 98.5t-24 45q-12 0 -27 -41.5t-29.5 -91.5t-45 -91.5t-68.5 -41.5 q-30 0 -50 20t-20 50t28.5 66.5t62.5 64t62.5 52t28.5 32.5q0 16 -14 16q-24 0 -111.5 -19.5t-128.5 -19.5q-31 0 -49 19t-18 47z" />
<glyph unicode="+" horiz-adv-x="1228" d="M207 342v131h342v342h131v-342h342v-131h-342v-342h-131v342h-342z" />
<glyph unicode="," horiz-adv-x="454" d="M74 -295q90 42 153.5 106t63.5 123q0 37 -16.5 49.5t-61.5 12.5q-62 0 -98.5 36t-36.5 95q0 68 45 112t115 44q87 0 133.5 -64t46.5 -162q0 -272 -344 -417v65z" />
<glyph unicode="-" horiz-adv-x="681" d="M86 309v146l510 51v-146z" />
<glyph unicode="." horiz-adv-x="454" d="M78 133q0 65 42.5 107.5t106.5 42.5t107 -42.5t43 -107.5t-43 -107t-107 -42t-106.5 42t-42.5 107z" />
<glyph unicode="/" horiz-adv-x="569" d="M-33 -16l502 1331h133l-502 -1331h-133z" />
<glyph unicode="0" d="M49 416q0 201 112 316.5t292 115.5t291.5 -115.5t111.5 -316.5t-111.5 -316.5t-291.5 -115.5t-292 115.5t-112 316.5zM299 416q0 -143 20.5 -226.5t52 -112t81.5 -28.5q37 0 63 16t47.5 55.5t32 113t10.5 182.5q0 143 -20 226t-51.5 111.5t-81.5 28.5t-81.5 -28.5 t-52 -111.5t-20.5 -226z" />
<glyph unicode="1" d="M166 0v78q116 3 144 19.5t28 82.5v471q0 35 -4.5 53t-24.5 30t-50.5 15t-92.5 5v77h577v-77q-62 -2 -92.5 -5t-50.5 -15t-24.5 -30t-4.5 -53v-471q0 -66 28 -82.5t144 -19.5v-78h-577z" />
<glyph unicode="2" d="M37 43q0 16 27 34.5t88.5 53t105.5 64.5q156 106 233.5 191.5t77.5 170.5q0 74 -47.5 117t-124.5 43q-66 0 -132.5 -26.5t-113.5 -52.5t-65 -26q-25 0 -25 21q0 29 84 81.5t202 94t200 39.5q122 -3 189 -61t67 -154q0 -58 -34.5 -117t-85.5 -105t-111.5 -90t-111.5 -73.5 t-85.5 -52.5t-34.5 -31q0 -17 25 -17h233q51 0 87 12.5t53 30.5t28.5 35.5t23.5 30t29 12.5q35 0 35 -26q0 -7 -6 -31l-45 -170q-9 -41 -80 -41h-647q-39 0 -39 43z" />
<glyph unicode="3" d="M41 -371q0 29 18 46.5t47 17.5q28 0 57 -15.5t51 -34t60 -34t82 -15.5q99 0 160.5 80t61.5 201q0 128 -94.5 210.5t-241.5 82.5q-28 0 -38.5 6.5t-10.5 32.5q0 6 1.5 11t5 9t6.5 7t10.5 6.5t11.5 5.5t14.5 6t15.5 6q58 25 102.5 52t85.5 65t63.5 89.5t22.5 113.5 q0 76 -41.5 119.5t-111.5 43.5q-69 0 -121 -23.5t-106 -66.5l-41 41q149 156 366 156q133 0 205 -60t72 -161q0 -87 -80.5 -184.5t-239.5 -172.5v-4q184 -9 280.5 -98.5t96.5 -237.5q0 -177 -142 -295t-366 -118q-129 0 -195.5 35t-66.5 77z" />
<glyph unicode="4" d="M37 0v119l516 712h164q-8 -74 -8 -114v-570h131v-147h-131v-483h-205v483h-467zM156 147h348v476h-4z" />
<glyph unicode="5" d="M49 -426q248 27 388.5 133t140.5 258q0 285 -463 285h-58l82 581h500q33 0 57 14t34.5 31.5t23 31.5t26.5 14q12 0 19.5 -9.5t7.5 -23.5q0 -10 -8.5 -41t-22.5 -79.5t-22 -80.5q-10 -37 -76 -37h-481l-29 -213h65q143 0 253.5 -30t177.5 -84t101 -124t34 -155 q0 -225 -201.5 -367t-548.5 -161v57z" />
<glyph unicode="6" d="M61 469q0 222 101 410.5t280.5 305t401.5 130.5v-58q-200 -39 -325.5 -167t-190.5 -351l4 -8q78 62 178 62q148 0 243 -111.5t95 -275.5q0 -191 -117 -306.5t-282 -115.5q-73 0 -137 29t-109 77.5t-77.5 111.5t-48.5 131t-16 136zM283 381q0 -74 6 -127.5t23 -103 t51 -75.5t86 -26q51 0 85.5 26t51 75.5t22.5 103t6 127.5t-6 127.5t-22.5 104t-51 76.5t-85.5 26t-85.5 -26t-51.5 -76t-23 -104t-6 -128z" />
<glyph unicode="7" d="M25 492l131 442h65q-1 -7 -4.5 -24.5t-3.5 -26.5q0 -35 57 -35h578v-57l-549 -1274h-233l639 1126h-455q-113 0 -160 -151h-65z" />
<glyph unicode="8" d="M80 295q0 111 72 199.5t184 144.5q-103 60 -173.5 146t-70.5 192q0 141 106.5 239.5t266.5 98.5q147 0 235 -74t88 -197q0 -82 -54 -159t-144 -121q115 -66 180.5 -166.5t65.5 -218.5q0 -98 -35.5 -176t-95 -124.5t-131.5 -70.5t-150 -24q-151 0 -247.5 89t-96.5 222z M223 293q0 -108 56.5 -176t162.5 -68q104 0 156.5 63.5t52.5 161.5q0 92 -55 162t-195 160q-84 -47 -131 -127t-47 -176zM276 1067q0 -77 56.5 -136.5t195.5 -129.5q117 130 117 256q0 85 -48.5 138.5t-133.5 53.5t-136 -51.5t-51 -130.5z" />
<glyph unicode="9" d="M61 426q0 191 117.5 306.5t282.5 115.5q91 0 166.5 -44.5t122.5 -115.5t72.5 -155.5t25.5 -170.5q0 -166 -59 -317t-162 -263.5t-249 -183t-312 -81.5v57q200 39 325.5 167t190.5 351l-4 8q-77 -61 -179 -61q-148 0 -243 111.5t-95 275.5zM295 451q0 -74 6 -128t23 -104 t51.5 -76t85.5 -26t85.5 26t51.5 76t23 104t6 128q0 58 -3.5 102.5t-14 89.5t-28 74t-48 47t-72.5 18t-72.5 -18t-48 -47t-28 -74t-14 -89.5t-3.5 -102.5z" />
<glyph unicode=":" horiz-adv-x="454" d="M78 133q0 65 42.5 107.5t106.5 42.5t107 -42.5t43 -107.5t-43 -107t-107 -42t-106.5 42t-42.5 107zM78 674q0 65 42.5 107t106.5 42t107 -42t43 -107t-43 -107.5t-107 -42.5t-106.5 42.5t-42.5 107.5z" />
<glyph unicode=";" horiz-adv-x="454" d="M74 -295q90 42 153.5 106t63.5 123q0 37 -16.5 49.5t-61.5 12.5q-62 0 -98.5 36t-36.5 95q0 68 45 112t115 44q87 0 133.5 -64t46.5 -162q0 -272 -344 -417v65zM78 674q0 65 42.5 107t106.5 42t107 -42t43 -107t-43 -107.5t-107 -42.5t-106.5 42.5t-42.5 107.5z" />
<glyph unicode="&#x3c;" horiz-adv-x="1228" d="M205 350v115l819 362v-131l-651 -288l651 -289v-131z" />
<glyph unicode="=" horiz-adv-x="1228" d="M207 180v131h815v-131h-815zM207 504v131h815v-131h-815z" />
<glyph unicode="&#x3e;" horiz-adv-x="1228" d="M205 -12v131l651 289l-651 288v131l819 -362v-115z" />
<glyph unicode="?" horiz-adv-x="985" d="M215 133q0 65 43 107.5t107 42.5t106.5 -42.5t42.5 -107.5t-42.5 -107t-106.5 -42t-107 42t-43 107zM246 1268q0 5 0.5 11.5t5.5 20.5t14 24.5t28.5 19t45.5 8.5q72 0 143 -29t132.5 -84.5t100 -150t38.5 -211.5q0 -316 -330 -316h-31l-8 -172h-66v406h121 q115 0 181.5 31t66.5 108q0 118 -86.5 180t-220.5 62q-69 0 -102 26.5t-33 65.5z" />
<glyph unicode="@" horiz-adv-x="1638" d="M156 629q0 150 56.5 279.5t152 218t222.5 138.5t267 50q174 0 318 -72.5t227.5 -201.5t83.5 -287q0 -76 -23.5 -154t-66 -146t-113 -111.5t-154.5 -43.5q-44 0 -80 17.5t-54 41.5t-27.5 45t-8.5 33h-4q-22 -40 -83.5 -88.5t-135.5 -48.5q-75 0 -130.5 66t-55.5 172 q0 51 17 112.5t51 123t79 112t106 82.5t126 32q50 0 84.5 -25t46.5 -71h4l16 68h135l-114 -463q-11 -37 -11 -55q0 -76 68 -76q64 0 118 60.5t82.5 146t28.5 168.5q0 65 -22.5 131.5t-68 128t-108 109t-148.5 76t-183 28.5q-80 0 -154.5 -23t-141 -72.5t-115.5 -120.5 t-78 -174.5t-29 -226.5q0 -101 41.5 -198t111.5 -171t171 -119.5t212 -45.5q118 0 201 27t178 83l21 -71q-202 -129 -398 -129q-144 0 -265 38.5t-203.5 102t-140 147.5t-83.5 174t-26 183zM698 545q0 -83 21.5 -119.5t79.5 -36.5q52 0 105.5 72t85.5 165.5t32 164.5 q0 118 -96 118q-51 0 -105 -56.5t-88.5 -142t-34.5 -165.5z" />
<glyph unicode="A" horiz-adv-x="1478" d="M45 0v78q83 12 124.5 54t90.5 157l326 764q16 37 16 55q0 5 -2 16t-2 15v8q0 13 23 51l47 74q20 29 30 36t37 7q22 0 33.5 -11t24.5 -42l409 -1047q32 -80 76 -108.5t115 -28.5v-78h-611v78q154 0 154 45q0 26 -14 70l-95 274h-391l-57 -133q-51 -115 -51 -174 q0 -45 26.5 -62t100.5 -20v-78h-410zM465 545h332l-154 418h-12z" />
<glyph unicode="B" horiz-adv-x="1251" d="M61 0v78q110 0 149.5 33t39.5 118v840q0 85 -39.5 118.5t-149.5 33.5v77h529q248 0 380 -79t132 -226q0 -52 -19.5 -97.5t-48.5 -76.5t-69.5 -57t-77 -41t-76.5 -27v-4q174 -22 269.5 -122.5t95.5 -223.5q0 -45 -13.5 -89.5t-48 -91.5t-87 -82.5t-137 -58t-190.5 -22.5 h-639zM516 219q0 -82 32 -111.5t124 -29.5q120 0 183 75.5t63 202.5q0 142 -82.5 214.5t-217.5 72.5q-64 0 -83 -18t-19 -80v-326zM516 801q0 -44 25 -62t88 -18q106 0 166.5 57t60.5 195q0 136 -60.5 192t-177.5 56q-59 0 -80.5 -24.5t-21.5 -82.5v-313z" />
<glyph unicode="C" horiz-adv-x="1366" d="M72 649q0 181 92 334t251 242.5t347 89.5q116 0 235 -28.5t196 -73t77 -89.5q0 -52 -7.5 -121.5t-7.5 -78.5q0 -13 -8.5 -27t-25.5 -14q-16 0 -26.5 14t-31.5 68q-51 130 -156 201t-245 71q-57 0 -112 -19t-108.5 -64t-94 -111t-65 -167.5t-24.5 -226.5q0 -126 25 -226.5 t68 -167.5t103 -111t126.5 -63.5t142.5 -19.5q64 0 124 23t102 56t77 73.5t53.5 71.5t26.5 53q11 33 22 41t32 8q32 0 32 -27q0 -5 -0.5 -13t-1.5 -22.5t-2 -27.5l-8 -72q-7 -65 -33 -98q-14 -17 -50 -38.5t-94.5 -46.5t-149 -41.5t-191.5 -16.5q-141 0 -269 52.5t-220 142 t-146.5 212.5t-54.5 258z" />
<glyph unicode="D" horiz-adv-x="1554" d="M66 0v78q96 0 131.5 33.5t35.5 117.5v840q0 85 -36 118.5t-131 33.5v77h622q171 0 321 -53t254 -141.5t164 -207t60 -247.5t-57.5 -247t-160 -207t-254 -142t-327.5 -53h-622zM500 190q0 -61 42 -86.5t134 -25.5q110 0 199 30.5t148.5 83.5t100 126t58.5 155.5t18 175.5 q0 86 -18 166t-60 154.5t-103.5 130t-155 88.5t-208.5 33q-92 0 -123.5 -26.5t-31.5 -86.5v-918z" />
<glyph unicode="E" horiz-adv-x="1290" d="M61 0v78q101 0 139 33.5t38 117.5v840q0 85 -38 118.5t-139 33.5v77h998l53 -184q10 -33 10 -47q0 -9 -12.5 -20t-28.5 -11q-10 0 -17.5 7.5t-25.5 35.5q-65 97 -154.5 129.5t-238.5 32.5q-92 0 -116.5 -19t-24.5 -83v-406h162q91 0 130.5 29t59.5 117q3 17 9 20.5 t30 5.5q20 0 27.5 -7.5t7.5 -31.5v-401q0 -27 -39 -27q-25 0 -29 15q-21 68 -38 105.5t-41.5 56.5t-48 23.5t-68.5 4.5h-162v-436q0 -44 5.5 -66.5t29 -38.5t63 -20t113.5 -4q75 0 131.5 10t97 27t75.5 51t60.5 69.5t59.5 94.5q5 9 11.5 12.5t23.5 3.5q30 0 30 -14 q0 -1 -4 -37l-45 -295h-1094z" />
<glyph unicode="F" horiz-adv-x="1214" d="M49 0v78q101 0 138.5 33t37.5 118v840q0 85 -37.5 118.5t-138.5 33.5v77h1026l64 -196q24 -74 24 -84q-1 -17 -16 -26t-29 -9q-17 0 -59 55q-2 4 -4 6q-34 45 -53 69t-44.5 47.5t-44 32.5t-51 17t-65.5 9.5t-88 1.5q-94 0 -140.5 -11.5t-61.5 -33.5t-15 -66v-397h241 q78 0 114.5 33.5t53.5 99.5q9 33 15.5 42t21.5 9q37 0 37 -20v-431q0 -24 -35 -24q-15 0 -21 8.5t-14 38.5q-20 65 -46 96.5t-73 44.5t-137 13h-157v-402q0 -88 44 -115.5t177 -27.5v-78h-664z" />
<glyph unicode="G" horiz-adv-x="1517" d="M57 649q0 134 61 258t161.5 213t235 142t276.5 53q171 0 293.5 -29.5t224.5 -99.5q14 -91 14 -242q0 -29 -6 -36t-29 -7q-20 0 -28.5 8.5t-26.5 44.5q-38 78 -88.5 135t-107.5 88t-113 45t-117 15h-6q-57 0 -115 -17q-60 -17 -123 -60.5t-110.5 -108.5t-78 -169 t-30.5 -233q0 -87 17.5 -170.5t55 -159.5t89.5 -133t127 -91t162 -34q89 0 140 12t77.5 47t33.5 80t7 130q0 107 -35.5 138.5t-140.5 31.5v90h583v-90q-105 0 -135.5 -19.5t-30.5 -87.5v-278q-223 -131 -506 -131q-145 0 -266.5 35.5t-206.5 97.5t-144 146.5t-86.5 181.5 t-27.5 204z" />
<glyph unicode="H" horiz-adv-x="1669" d="M57 0v78q93 0 128.5 33.5t35.5 117.5v840q0 84 -35.5 118t-128.5 34v77h615v-77q-95 0 -140 -35.5t-45 -116.5v-364h695v364q0 81 -45 116.5t-140 35.5v77h615v-77q-93 0 -128.5 -34t-35.5 -118v-840q0 -84 35.5 -117.5t128.5 -33.5v-78h-615v78q95 0 140 35t45 116v385 h-695v-385q0 -81 45 -116t140 -35v-78h-615z" />
<glyph unicode="I" horiz-adv-x="720" d="M63 0v78q93 0 128.5 33.5t35.5 117.5v840q0 84 -35.5 118t-128.5 34v77h594v-77q-93 0 -128 -34t-35 -118v-840q0 -84 35 -117.5t128 -33.5v-78h-594z" />
<glyph unicode="J" horiz-adv-x="720" d="M0 -311q122 55 171.5 146t49.5 255v979q0 85 -38 118.5t-142 33.5v77h627v-77q-104 0 -142.5 -33.5t-38.5 -118.5v-897q0 -212 -118 -345.5t-369 -207.5v70z" />
<glyph unicode="K" horiz-adv-x="1517" d="M43 0v78q101 0 138.5 33t37.5 118v840q0 85 -37.5 118.5t-138.5 33.5v77h606v-77q-93 0 -128.5 -34t-35.5 -118v-428l228 227q219 222 219 297q0 28 -28 42t-103 14v77h491v-77q-84 0 -160.5 -52.5t-213.5 -203.5l-181 -199l541 -573q55 -58 101 -86.5t94 -28.5v-78h-615 v78q67 0 103 15.5t36 39.5q0 23 -32 60l-390 415l-90 -84v-295q0 -84 35.5 -117.5t128.5 -33.5v-78h-606z" />
<glyph unicode="L" horiz-adv-x="1290" d="M59 0v78q101 0 139 33.5t38 117.5v840q0 85 -38 118.5t-139 33.5v77h635v-77q-113 0 -152.5 -33t-39.5 -119v-860q0 -47 5 -69.5t28 -38.5t60 -19.5t110 -3.5q174 0 275.5 58.5t166.5 195.5q10 23 21 32t28 9q20 0 29.5 -10.5t9.5 -40.5q0 -44 -14 -121l-35 -201h-1127z " />
<glyph unicode="M" horiz-adv-x="1744" d="M55 0v78q51 0 82 7.5t55.5 29.5t35 63.5t10.5 108.5v733q0 61 -5 93.5t-22.5 58.5t-51 36t-91.5 13v77h413l396 -938l413 938h379v-77q-82 0 -124 -36t-42 -118v-780q0 -46 2 -73t8.5 -53t18 -39t33.5 -23.5t51.5 -14.5t73.5 -6v-78h-600v78q43 2 71 6t49 14.5t32 23.5 t18 39t8.5 53t1.5 73v792h-4l-424 -1007q-13 -31 -25.5 -45.5t-30.5 -14.5t-30 14.5t-25 45.5l-399 999h-4v-784q0 -90 16.5 -134.5t50 -59.5t101.5 -15v-78h-441z" />
<glyph unicode="N" horiz-adv-x="1630" d="M55 1221v77h371l877 -890v604q0 69 -8 109t-32.5 63t-60 30t-98.5 7v77h469v-77q-67 0 -103 -14.5t-56.5 -60.5t-20.5 -134v-1012h-76l-948 989v-702q0 -92 17.5 -135.5t57 -58.5t123.5 -15v-78h-469v78q50 0 81 7.5t55 29.5t34.5 63.5t10.5 108.5v631q0 127 -22.5 192 t-68 88t-133.5 23z" />
<glyph unicode="O" horiz-adv-x="1517" d="M68 649q0 181 92 334t251 242.5t347 89.5t347 -89.5t251 -242.5t92 -334q0 -135 -54.5 -258t-146.5 -212.5t-220 -142t-269 -52.5t-269 52.5t-220 142t-146.5 212.5t-54.5 258zM354 649q0 -125 24.5 -226.5t65 -167.5t94 -111t108.5 -64t112 -19t112 19t108.5 64 t93.5 111t64.5 167.5t24.5 226.5t-24.5 226.5t-64.5 167.5t-93.5 111t-108.5 64t-112 19t-112 -19t-108.5 -64t-94 -111t-65 -167.5t-24.5 -226.5z" />
<glyph unicode="P" horiz-adv-x="1175" d="M53 0v78q97 0 133.5 33.5t36.5 117.5v840q0 84 -36.5 118t-133.5 34v77h539q268 0 400 -90t132 -282q0 -71 -33.5 -137.5t-94.5 -119.5t-156 -84.5t-209 -31.5q-64 0 -82.5 8.5t-18.5 36.5q0 20 11 26.5t39 9.5q150 15 214 80.5t64 211.5q0 148 -70 221.5t-188 73.5 q-63 0 -87 -22t-24 -79v-891q0 -84 38 -117.5t139 -33.5v-78h-613z" />
<glyph unicode="Q" horiz-adv-x="1517" d="M68 649q0 181 92 334t251 242.5t347 89.5t347 -89.5t251 -242.5t92 -334q0 -125 -45.5 -239.5t-122 -199.5t-178.5 -143t-215 -77q28 -80 75 -133.5t109 -80t123 -36.5t139 -10q50 0 65 -8t15 -29q0 -8 -3 -14.5t-14.5 -14t-31.5 -12.5t-56.5 -8.5t-86.5 -3.5 q-265 0 -432 87.5t-236 276.5q-211 69 -348 245.5t-137 399.5zM354 649q0 -125 24.5 -226.5t65 -167.5t94 -111t108.5 -64t112 -19t112 19t108.5 64t93.5 111t64.5 167.5t24.5 226.5t-24.5 226.5t-64.5 167.5t-93.5 111t-108.5 64t-112 19t-112 -19t-108.5 -64t-94 -111 t-65 -167.5t-24.5 -226.5z" />
<glyph unicode="R" horiz-adv-x="1366" d="M53 0v78q93 0 128.5 33.5t35.5 117.5v840q0 84 -35.5 118t-128.5 34v77h561q120 0 213.5 -25t149.5 -68.5t84.5 -97t28.5 -114.5q0 -111 -72.5 -202t-194.5 -127q67 -91 174 -263t123 -196q48 -70 82 -94.5t111 -32.5v-78h-316q-31 0 -69 51q-164 226 -322 551h-123v-373 q0 -84 35.5 -117.5t128.5 -33.5v-78h-594zM483 692q168 0 254 64.5t86 216.5q0 118 -63 183t-164 65q-66 0 -89.5 -25t-23.5 -82v-422z" />
<glyph unicode="S" horiz-adv-x="1024" d="M76 330q0 33 8.5 45t34.5 12q27 0 37 -9t20 -48q8 -29 21.5 -59t41 -69.5t62.5 -69t89.5 -50.5t117.5 -21q105 0 176.5 53.5t71.5 153.5q0 49 -22.5 90t-61 71.5t-88 58t-104 53t-109 52.5t-104 61t-88 73.5t-61 94.5t-22.5 120q0 91 41 164.5t107.5 117.5t143.5 67.5 t155 23.5q88 0 168 -15.5t119 -32t47 -26.5q0 -7 2.5 -27.5t4 -46t1.5 -61.5v-78q0 -32 -7 -41.5t-28 -9.5q-17 0 -26.5 11.5t-30.5 53.5q-39 80 -115 137.5t-168 57.5q-91 0 -156 -55.5t-65 -137.5q0 -58 36.5 -103.5t94.5 -76.5t128 -60.5t140.5 -65t128.5 -80 t94.5 -115.5t36.5 -162q0 -58 -13 -111t-47 -106.5t-86.5 -92t-138 -63t-194.5 -24.5q-82 0 -194 24t-166 53q-10 13 -21.5 107.5t-11.5 161.5z" />
<glyph unicode="T" horiz-adv-x="1441" d="M47 987l74 356h78q22 -38 60.5 -51.5t143.5 -13.5h736q79 0 114 15.5t58 49.5h82l-9 -356h-81q-11 38 -26 69t-40.5 61t-60 50t-84.5 32.5t-113 12.5q-71 0 -99 -27t-28 -100v-856q0 -86 42 -118.5t163 -32.5v-78h-676v78q121 0 163 32.5t42 118.5v856q0 75 -23 101 t-94 26q-117 0 -195.5 -52.5t-150.5 -172.5h-76z" />
<glyph unicode="U" horiz-adv-x="1517" d="M57 1221v77h611v-77q-107 0 -137.5 -28.5t-30.5 -113.5v-633q0 -192 80 -276t247 -84q188 0 284.5 115.5t96.5 330.5v512q0 100 -40 138.5t-140 38.5v77h430v-77q-100 -3 -130 -46t-30 -163v-494q0 -145 -39.5 -250.5t-113 -166t-167 -89t-212.5 -28.5q-88 0 -163 13 t-144.5 46t-118.5 84t-78 131t-29 184v602q0 100 -39.5 138.5t-136.5 38.5z" />
<glyph unicode="V" horiz-adv-x="1478" d="M53 1221v77h611v-77q-164 0 -164 -66q0 -37 30 -108l297 -713q185 404 247 587q44 130 44 189q0 58 -38.5 84.5t-133.5 26.5v77h479v-77q-63 0 -118 -55.5t-109 -182.5l-424 -999h-59l-479 1091q-39 88 -78.5 116t-104.5 30z" />
<glyph unicode="W" horiz-adv-x="2048" d="M51 1221v77h578v-77q-70 0 -98.5 -21t-28.5 -65q0 -16 3 -35t12 -46t13 -40.5t17.5 -49t15.5 -40.5l213 -578l219 557l-75 217q-20 58 -49.5 77t-102.5 24v77h569v-77q-147 0 -147 -76q0 -35 31 -119l229 -647l168 444q84 220 84 303q0 44 -37.5 68t-101.5 27v77h434v-77 q-78 0 -131 -54t-107 -200l-360 -983h-68l-291 809l-319 -809h-66q-25 84 -76 219.5t-88.5 228.5t-127.5 313t-121 295q-44 109 -82.5 143.5t-108.5 37.5z" />
<glyph unicode="X" horiz-adv-x="1441" d="M35 0v78q122 7 227 129l354 416l-204 295q-70 101 -119.5 162.5t-88 92t-65.5 39.5t-63 9v77h594v-77q-56 0 -87.5 -6.5t-39.5 -15.5t-8 -23q0 -10 2 -18t8.5 -19t11.5 -18t18.5 -24.5t20.5 -27.5l186 -258l172 215q72 92 72 131q0 64 -139 64v77h479v-77 q-78 0 -130.5 -27t-115.5 -104l-286 -349l311 -422q53 -72 82 -109t62.5 -72t60.5 -47.5t57 -12.5v-78h-602v78q75 2 107 14.5t32 48.5q0 16 -7 34.5t-21.5 41.5t-27.5 41t-36 48.5t-35 47.5l-147 205l-166 -213q-4 -5 -19.5 -24.5t-21.5 -27.5t-19.5 -26.5t-19.5 -29.5 t-14 -26.5t-11.5 -28.5t-3.5 -25q0 -73 131 -80v-78h-491z" />
<glyph unicode="Y" horiz-adv-x="1366" d="M45 1221v77h588v-77q-69 0 -96 -11.5t-27 -42.5q0 -12 3.5 -24.5t12.5 -28.5t14.5 -26t20 -31t19.5 -29l202 -315l174 272q38 60 51.5 83t25 50t11.5 49q0 31 -24.5 42.5t-99.5 11.5v77h401v-77q-63 0 -99 -22t-77 -85l-328 -493v-392q0 -86 42.5 -118.5t168.5 -32.5v-78 h-696v78q131 0 175 32.5t44 118.5v373l-322 502q-47 73 -80.5 95t-103.5 22z" />
<glyph unicode="Z" horiz-adv-x="1290" d="M49 0v49l858 1172h-252q-205 0 -313 -59.5t-199 -231.5h-65l59 418h62q6 -32 59 -41t213 -9h748v-65l-830 -1155h203q87 0 154 7.5t133 28t116.5 55.5t93.5 91t74 133h78l-61 -393h-1131z" />
<glyph unicode="[" d="M332 -483v1798h450v-78h-258v-1643h258v-77h-450z" />
<glyph unicode="\" horiz-adv-x="569" d="M-123 1315h131l684 -1331h-131z" />
<glyph unicode="]" d="M127 -406h258v1643h-258v78h451v-1798h-451v77z" />
<glyph unicode="^" horiz-adv-x="1228" d="M172 553l369 745h147l369 -745h-170l-273 565l-274 -565h-168z" />
<glyph unicode="_" horiz-adv-x="1024" d="M0 -154h1024v-102h-1024v102z" />
<glyph unicode="`" horiz-adv-x="569" d="M-8 1227q0 32 17.5 49.5t47.5 17.5q33 0 58 -16t75 -70l252 -262h-82l-274 166q-57 34 -75.5 58t-18.5 57z" />
<glyph unicode="a" horiz-adv-x="872" d="M49 143q0 45 21 83.5t52.5 65.5t78 50.5t87.5 37t91 25t78 16.5t59 9v180q0 85 -24.5 120.5t-73.5 35.5q-48 0 -83 -27.5t-54.5 -66.5t-37 -78t-43 -66.5t-59.5 -27.5q-30 0 -48.5 23t-18.5 59q0 56 57 114t148.5 96.5t183.5 38.5q76 0 128 -17.5t80 -53.5t39 -80.5 t11 -106.5q0 -90 -4 -236.5t-4 -160.5q0 -61 6.5 -81.5t23.5 -20.5t45 28l37 -43q-69 -75 -151 -75q-44 0 -77 18t-47 37t-32 51q-34 -45 -103 -75.5t-161 -30.5q-105 0 -155 45.5t-50 113.5zM270 182q0 -58 29.5 -83t67.5 -25q82 0 114 70.5t35 220.5q-28 -2 -57.5 -8 t-64.5 -20t-61.5 -33t-44.5 -51t-18 -71z" />
<glyph unicode="b" horiz-adv-x="985" d="M41 1284q0 24 16 29q5 2 54.5 18t79 25t68 18.5t56.5 9.5q15 0 22 -13.5t7 -59.5v-600h4q16 23 31.5 39.5t42.5 37t65.5 32t85.5 11.5q148 0 248.5 -117.5t100.5 -293.5q0 -188 -113.5 -312t-294.5 -124q-47 0 -118 16t-105 16q-27 0 -64.5 -16t-54.5 -16q-33 0 -33 53 v1089q0 66 -15 89.5t-63 37.5q-20 5 -20 31zM344 240q0 -191 143 -191q72 0 118 49t64.5 126t18.5 182q0 147 -46 233t-130 86q-48 0 -98 -33t-70 -71v-381z" />
<glyph unicode="c" horiz-adv-x="796" d="M61 360q0 102 37 191t97.5 149.5t139 95.5t161.5 35q94 0 161.5 -42t67.5 -107q0 -32 -17.5 -50t-45.5 -18q-35 0 -67.5 22t-53 48t-50.5 48t-61 22q-69 0 -112.5 -73.5t-43.5 -213.5q0 -157 60.5 -254.5t165.5 -97.5q53 0 110.5 25t94.5 65l49 -53 q-67 -75 -153.5 -121.5t-182.5 -46.5q-74 0 -135.5 23.5t-102 62t-68 88.5t-39.5 100.5t-12 101.5z" />
<glyph unicode="d" horiz-adv-x="1062" d="M63 385q0 78 29 156.5t81.5 143.5t134 105.5t177.5 40.5q54 0 97 -11.5t63 -22t53 -33.5v362q0 67 -14.5 90t-62.5 37q-21 5 -21 31q0 24 16 29q5 2 54.5 18t79 25t68 18.5t56.5 9.5q15 0 22 -13.5t7 -59.5v-1135q0 -45 14 -63.5t52 -18.5q21 0 41 4v-65l-312 -49v114 q-52 -54 -110.5 -84t-151.5 -30q-159 0 -266 118t-107 283zM297 416q0 -138 57 -240t144 -102q105 0 152.5 85.5t47.5 256.5t-47.5 254.5t-152.5 83.5q-87 0 -144 -100.5t-57 -237.5z" />
<glyph unicode="e" horiz-adv-x="833" d="M61 399q0 178 114.5 305t279.5 127q34 0 71.5 -8t81 -31t78.5 -57t60 -92t28 -131h-491v-26q0 -68 9 -128q11 -70 37.5 -131t76.5 -95t120 -34q40 0 73 6.5t61.5 22t40 23t36.5 26.5l33 -41q-147 -151 -319 -151q-185 0 -287.5 108.5t-102.5 306.5zM291 590h278 q0 79 -35 127.5t-92 48.5q-58 0 -103.5 -53.5t-47.5 -122.5z" />
<glyph unicode="f" horiz-adv-x="645" d="M45 0v66q66 0 94.5 21.5t28.5 84.5v533h-102q-17 0 -17 6q0 4 4 16l13 29q15 39 43 39h26q33 0 33 34q0 72 15 146.5t48.5 148.5t81.5 131.5t119.5 93t155.5 35.5q182 0 182 -118q0 -33 -24.5 -55.5t-57.5 -22.5q-34 0 -64 16.5t-48.5 36.5t-42.5 36.5t-46 16.5 q-52 0 -83 -83t-31 -250v-166h233q21 0 21 -13q0 -4 -6 -22l-15 -37q-8 -18 -33 -18h-200v-515q0 -77 35 -100.5t137 -23.5v-66h-500z" />
<glyph unicode="g" horiz-adv-x="1024" d="M70 -285q0 67 67 120t160 81v4q-34 6 -59.5 13.5t-56.5 23.5t-48.5 45t-17.5 68q0 67 50 110.5t181 93.5q-88 41 -141 111t-53 154q0 123 96.5 207.5t259.5 84.5q70 0 122.5 -17.5t84 -34.5t49.5 -17q13 0 32.5 9t57 18.5t94.5 9.5q34 0 49 -7.5t15 -27.5 q0 -32 -21.5 -72.5t-34.5 -40.5q-25 0 -69 29t-72 29q-20 0 -20 -19q0 -3 9 -20.5t18 -52t9 -80.5q0 -126 -81 -210.5t-226 -84.5q-17 0 -49 2t-35 2q-25 0 -97.5 -41t-72.5 -64q0 -26 60.5 -38.5t130.5 -12.5q112 0 195 -11t136.5 -30.5t86.5 -50t46 -65t13 -78.5 q0 -62 -30.5 -121.5t-88 -108t-150 -78.5t-206.5 -30q-99 0 -185.5 20t-147 66.5t-60.5 111.5zM250 -260q0 -75 71.5 -116.5t167.5 -41.5q132 0 212.5 50t80.5 132q0 88 -153 111l-238 27q-19 -6 -39 -16t-45 -29t-41 -49.5t-16 -67.5zM356 588q0 -123 43 -202t127 -79 q43 0 72 43.5t29 116.5q0 143 -43 221t-109 78q-53 0 -86 -43t-33 -135z" />
<glyph unicode="h" horiz-adv-x="1062" d="M49 0v66q77 2 100 27t23 112v921q0 66 -15 89.5t-63 37.5q-20 5 -20 31q0 24 16 29q5 2 54.5 18t79 25t68 18.5t56.5 9.5q15 0 22 -13.5t7 -59.5v-578q70 52 121.5 75t122.5 23q134 0 203 -72t69 -235v-348v-13q1 -55 23 -75q26 -22 83 -22v-66h-421v66q62 6 86 26.5 t24 71.5v323q0 139 -34.5 188.5t-116.5 49.5q-86 0 -160 -70v-450q0 -86 18.5 -111.5t75.5 -27.5v-66h-422z" />
<glyph unicode="i" horiz-adv-x="569" d="M57 0v66q73 0 99 21.5t26 90.5v395q0 67 -16 90t-70 37q-12 3 -12 31q0 14 4.5 20t17.5 11q3 1 71.5 23t113 34t61.5 12t26 -15t9 -60v-586q0 -65 24.5 -84.5t100.5 -19.5v-66h-455zM164 1178q0 52 37 86t84 34q48 0 84.5 -35t36.5 -85q0 -47 -34.5 -84t-86.5 -37 q-48 0 -84.5 33.5t-36.5 87.5z" />
<glyph unicode="j" horiz-adv-x="569" d="M-14 -418q51 29 83.5 57.5t56 63t35 84t16.5 109.5t5 151v483q0 98 -28.5 136.5t-102.5 38.5q-14 0 -19 6t-5 26q0 30 16 33q23 4 155.5 39t153.5 35q10 0 16.5 -4.5t12.5 -25.5t6 -60v-662q0 -92 -9.5 -160.5t-35 -133t-70 -113t-115.5 -91.5t-171 -77v65zM164 1178 q0 52 37 86t84 34q48 0 84.5 -35t36.5 -85q0 -47 -34.5 -84t-86.5 -37q-48 0 -84.5 33.5t-36.5 87.5z" />
<glyph unicode="k" horiz-adv-x="1062" d="M45 0v66q77 2 100 27t23 112v921q0 66 -15 89.5t-63 37.5q-20 5 -20 31q0 24 16 29q5 2 54.5 18t79 25t68 18.5t56.5 9.5q15 0 22 -13.5t7 -59.5v-860l211 157q67 50 67 94q0 48 -78 48v65h365v-65q-46 0 -85.5 -19.5t-111.5 -81.5l-145 -127l295 -360q43 -52 66 -69.5 t63 -26.5v-66h-430v66q78 0 78 26q0 25 -29 62l-201 262l-65 -49v-162q0 -86 20 -111.5t86 -27.5v-66h-434z" />
<glyph unicode="l" horiz-adv-x="530" d="M41 0v66q77 2 100 27t23 112v921q0 66 -15 89.5t-63 37.5q-20 5 -20 31q0 24 16 29q5 2 54.5 18t79 25t68 18.5t56.5 9.5q15 0 22 -13.5t7 -59.5v-1106q0 -87 23 -112t100 -27v-66h-451z" />
<glyph unicode="m" horiz-adv-x="1630" d="M53 0v66q80 0 107.5 21.5t27.5 90.5v395q0 71 -17 98.5t-58 35.5q-8 1 -12.5 2.5t-7.5 6.5t-3 15q0 24 23 31q30 8 91.5 32t109.5 43t55 19q24 0 24 -45v-86q77 58 129 82t127 24q76 0 131.5 -27t106.5 -85q79 63 147.5 87.5t143.5 24.5q134 0 203 -72t69 -235v-348v-12 q0 -56 26 -76q28 -22 101 -22v-66h-438v66q59 6 82.5 26.5t23.5 71.5v323q0 139 -34.5 188.5t-116.5 49.5q-40 0 -78.5 -17t-93.5 -53v-131v-348v-13q0 -55 23 -75q26 -22 87 -22v-66h-426v66q62 6 86.5 26.5t24.5 71.5v323q0 139 -35 188.5t-117 49.5q-85 0 -172 -78v-477 q0 -64 20.5 -84t78.5 -20v-66h-439z" />
<glyph unicode="n" horiz-adv-x="1062" d="M53 0v66q63 0 87 22t24 90v395q0 71 -17.5 98.5t-58.5 35.5q-8 1 -12 2.5t-7 6.5t-3 15q0 25 22 31q31 9 92 35.5t109.5 48.5t54.5 22q25 0 25 -47v-96q77 58 129 82t127 24q134 0 203 -72t69 -235v-348v-13q-1 -55 23 -75q26 -22 88 -22v-66h-426v66q62 6 86 26.5 t24 71.5v323q0 139 -34.5 188.5t-116.5 49.5q-85 0 -172 -78v-477q0 -64 20.5 -84t77.5 -20v-66h-414z" />
<glyph unicode="o" horiz-adv-x="948" d="M61 408q0 77 27.5 151t77.5 135.5t130 99t177 37.5t177 -37.5t130 -99t77.5 -135.5t27.5 -151t-27.5 -151.5t-77.5 -136t-130 -99t-177 -37.5t-177 37.5t-130 99t-77.5 136t-27.5 151.5zM295 408q0 -359 178 -359t178 359q0 358 -178 358t-178 -358z" />
<glyph unicode="p" horiz-adv-x="1024" d="M35 -418q72 0 95.5 29t23.5 115v860q0 66 -15 89.5t-63 37.5q-21 5 -21 30q0 23 17 29q6 2 75.5 25.5t116.5 37t66 13.5q15 0 21.5 -15.5t6.5 -62.5v-55q26 27 41.5 41t47 35t71.5 30.5t90 9.5q105 0 188 -60.5t124 -148.5t41 -182q0 -87 -29 -168.5t-81 -146t-132 -103 t-174 -38.5q-49 0 -88.5 9.5t-56 19t-42.5 26.5v-336q0 -73 25 -97t115 -24v-65h-463v65zM358 233q0 -86 44 -135t130 -49q195 0 195 342t-195 342q-77 0 -125.5 -50.5t-48.5 -133.5v-316z" />
<glyph unicode="q" horiz-adv-x="1062" d="M63 387q0 83 30.5 162t86.5 142t143 101.5t191 38.5q87 0 174.5 -22.5t104.5 -22.5q27 0 92 45h30v-1089q0 -92 23.5 -126t95.5 -34v-65h-479v65q66 0 111 32.5t45 102.5v344q-108 -77 -258 -77q-72 0 -135.5 24.5t-109 65t-79 93t-50 109t-16.5 111.5zM297 434 q0 -173 74 -266.5t174 -93.5q101 0 166 65v439q0 28 -11 59t-32.5 61t-59.5 49t-86 19q-97 0 -161 -79t-64 -253z" />
<glyph unicode="r" horiz-adv-x="720" d="M49 0v66q74 0 100.5 21.5t26.5 90.5v395q0 67 -16 90t-70 37q-12 3 -12 31q0 14 4.5 20t17.5 11q3 1 71.5 23t113 34t61.5 12t26 -15t9 -60v-78h4q112 153 223 153q44 0 76.5 -23.5t32.5 -64.5q0 -43 -26.5 -69.5t-78.5 -26.5q-36 0 -83 8.5t-58 8.5q-48 0 -69 -31.5 t-21 -97.5v-365q0 -65 23.5 -84.5t95.5 -19.5v-66h-451z" />
<glyph unicode="s" horiz-adv-x="681" d="M70 80q0 162 57 162q18 0 33 -20t28.5 -48t31 -56.5t50.5 -48.5t78 -20q49 0 80 24.5t31 73.5q0 38 -21 69.5t-54.5 55t-74.5 46.5t-81.5 48.5t-74 55.5t-54.5 73.5t-21 96.5q0 107 86.5 173t232.5 66q87 0 134.5 -19.5t52.5 -43.5v-139q0 -27 -29 -27q-18 0 -27.5 11.5 t-31.5 52.5q-24 46 -71.5 73t-86.5 27q-41 0 -68.5 -26.5t-27.5 -65.5q0 -32 21.5 -61t56.5 -52t76.5 -47t83.5 -51.5t77 -58.5t56.5 -76t21.5 -97q0 -112 -91.5 -179.5t-221.5 -67.5q-34 0 -88 8t-109 31.5t-55 56.5z" />
<glyph unicode="t" horiz-adv-x="606" d="M41 745q0 14 21.5 34.5t58.5 48t49 38.5q6 6 21 20.5t23.5 22.5t22.5 22t23.5 22.5t22 19.5t21.5 17.5t18.5 13t16 9.5t11.5 3q12 0 17.5 -8t5.5 -29v-164h184v-98h-184v-479q0 -83 31 -119.5t81 -36.5q53 0 101 24l24 -51q-110 -71 -231 -71q-105 0 -158 59t-53 166v407 q0 66 -18.5 83.5t-73.5 17.5q-35 0 -35 28z" />
<glyph unicode="u" horiz-adv-x="1062" d="M53 750v65l324 16v-585q0 -83 25.5 -119.5t82.5 -36.5q85 0 199 103v393q0 94 -27.5 124.5t-119.5 39.5v65l352 16v-645q0 -52 24.5 -72t96.5 -20v-65l-326 -45v131q-143 -131 -289 -131q-108 0 -165.5 59.5t-57.5 177.5v426q0 56 -22.5 76t-96.5 27z" />
<glyph unicode="v" horiz-adv-x="948" d="M53 750v65h410v-65q-35 0 -62.5 -14.5t-27.5 -43.5q0 -24 24 -94l140 -362l135 356q24 67 24 100q0 55 -78 58v65h275v-65q-30 -2 -44 -10.5t-32 -39.5t-49 -108l-252 -608h-76l-270 649q-28 69 -50 93t-67 24z" />
<glyph unicode="w" horiz-adv-x="1478" d="M53 750v65h402v-65q-37 -2 -59.5 -16.5t-22.5 -41.5q0 -24 24 -94l140 -362l174 339l-35 101q-25 74 -115 74v65h426v-65q-43 0 -66.5 -16t-23.5 -42q0 -12 2.5 -24.5t5 -20.5t9 -25t8.5 -24l139 -362l135 356q25 70 25 94q0 34 -23 49t-72 15v65h299v-65 q-45 0 -67.5 -27t-65.5 -131l-252 -608h-73l-215 495l-234 -495h-78l-270 649q-28 69 -50 93t-67 24z" />
<glyph unicode="x" horiz-adv-x="948" d="M41 0v66q55 9 91.5 40t135.5 150l109 129l-205 285q-34 46 -59.5 62t-63.5 18v65h406v-65q-66 0 -66 -33q0 -4 0.5 -7.5t1.5 -6.5t3 -8t3.5 -7.5t5 -8t5 -7.5t6 -9.5t6.5 -9.5l94 -131l90 111q43 50 43 82q0 18 -19 26.5t-67 8.5v65h311v-65q-34 0 -60.5 -14.5 t-63.5 -57.5l-185 -217l189 -264q51 -72 81 -98.5t72 -32.5v-66h-413v66q77 3 77 32q0 26 -65 111l-76 110l-104 -129q-41 -51 -41 -84q0 -19 17 -29t60 -11v-66h-319z" />
<glyph unicode="y" d="M45 750v65h406v-65q-103 0 -103 -54q0 -23 27 -92l151 -391l123 354q27 83 27 117q0 66 -86 66v65h274v-65q-24 0 -38.5 -10.5t-34 -48t-48.5 -118.5l-239 -655q-27 -73 -48.5 -124t-52 -107.5t-60 -90.5t-69.5 -56.5t-84 -22.5q-39 0 -71.5 26.5t-32.5 67.5 q0 42 25.5 64t64.5 22q10 0 34.5 -4t43.5 -4q41 0 72 33.5t57 107.5l43 123l-283 688q-26 63 -43.5 84.5t-54.5 24.5z" />
<glyph unicode="z" horiz-adv-x="948" d="M70 33q0 27 32 69l500 648h-119q-130 0 -202 -32.5t-127 -129.5q-23 -43 -54 -43q-28 0 -28 16q0 3 6 33l63 221h688q19 0 25 -5.5t6 -21.5t-12 -34l-529 -688h173q119 0 181 34.5t126 132.5q30 46 40 56t27 10q31 0 31 -25q0 -11 -12 -57l-39 -143q-13 -47 -24.5 -60.5 t-45.5 -13.5h-665q-16 0 -28.5 8.5t-12.5 24.5z" />
<glyph unicode="{" d="M188 416q86 28 115 79t29 158v371q0 74 13.5 125.5t38 84t67 50.5t92 24.5t121.5 6.5v-66q-76 0 -108 -51.5t-32 -163.5v-350q0 -119 -31 -179.5t-124 -86.5v-4q93 -26 124 -87t31 -180v-350q0 -112 32 -163.5t108 -51.5v-65q-72 0 -121.5 6.5t-92 24.5t-67 50t-38 83.5 t-13.5 125.5v371q0 107 -29 158.5t-115 79.5z" />
<glyph unicode="|" horiz-adv-x="454" d="M162 0v1384h131v-1384h-131z" />
<glyph unicode="}" d="M246 -418q76 0 107.5 51.5t31.5 163.5v350q0 119 31.5 180t124.5 87v4q-93 26 -124.5 86.5t-31.5 179.5v350q0 112 -31.5 163.5t-107.5 51.5v66q72 0 121.5 -6.5t92 -24.5t67 -50.5t38 -84t13.5 -125.5v-371q0 -107 28.5 -158t114.5 -79q-86 -28 -114.5 -79.5 t-28.5 -158.5v-371q0 -74 -13.5 -125.5t-38 -83.5t-67 -50t-92 -24.5t-121.5 -6.5v65z" />
<glyph unicode="~" horiz-adv-x="1228" d="M141 379q94 176 256 176q35 0 78 -11.5t73.5 -23.5t80.5 -35q126 -57 171 -65q18 -4 34 -4q38 0 73.5 23.5t56.5 50.5t50 73l73 -127q-94 -176 -256 -176q-75 0 -231 70q-150 69 -205 69q-38 0 -73.5 -23.5t-56.5 -50.5t-50 -73z" />
<glyph unicode="&#xa1;" horiz-adv-x="606" d="M154 682q0 65 42.5 107t106.5 42t107 -42t43 -107t-43 -107.5t-107 -42.5t-106.5 42.5t-42.5 107.5zM160 -289q0 38 22 131t51.5 247.5t42.5 320.5h54q13 -166 42.5 -320.5t51.5 -247.5t22 -131q0 -90 -42.5 -130t-100.5 -40t-100.5 40t-42.5 130z" />
<glyph unicode="&#xa2;" d="M90 360q0 102 37 191t97.5 149.5t138.5 95.5t161 35q63 0 121 -22l117 244h78l-133 -279q47 -41 47 -92q0 -32 -18 -50t-46 -18q-27 0 -53 15l-225 -471q46 -43 116 -43q53 0 110.5 25t94.5 65l49 -53q-67 -75 -153.5 -121.5t-182.5 -46.5q-57 0 -110 16l-123 -258h-78 l137 285q-62 34 -104.5 92t-60 118.5t-17.5 122.5zM303 467q0 -152 59 -252l220 459l-21 21t-23.5 22.5t-22 17.5t-27.5 14.5t-29 4.5q-69 0 -112.5 -73.5t-43.5 -213.5z" />
<glyph unicode="&#xa3;" d="M25 63q0 87 41 129.5t155 49.5q1 45 1.5 70t-7 80t-12.5 83.5t-14.5 80.5t-12.5 71h-143v90h133q-6 69 -6 147q0 95 21 174.5t64.5 142.5t117.5 98.5t172 35.5q77 0 138 -22.5t96 -58t53 -75t18 -78.5q0 -59 -31.5 -97t-101.5 -38q-47 0 -78 32t-31 73q0 32 18.5 81.5 t18.5 65.5q0 21 -22 36t-56 15q-53 0 -88 -32t-49 -79t-14 -106q0 -37 2 -81t4.5 -75.5t7 -82.5t6.5 -76h219v-90h-219q-4 -116 -28.5 -199t-69.5 -178q77 0 201 -18.5t180 -18.5q62 0 100 51q7 9 14 23t12 19t13 5q18 0 18 -47q0 -25 -6 -57t-23.5 -72.5t-43.5 -73 t-72.5 -55t-104.5 -22.5q-57 0 -113.5 27.5t-91 60.5t-64.5 60.5t-42 27.5q-5 0 -15.5 -10.5t-31 -37t-33.5 -40.5q-80 -88 -135 -88q-32 0 -48.5 16t-16.5 63z" />
<glyph unicode="&#xa4;" d="M-33 649q0 165 103 299l-99 99l92 92l101 -101q129 99 291 99t293 -101l100 103l92 -92l-100 -103q102 -127 102 -295q0 -170 -102 -297l100 -100l-92 -92l-100 102q-127 -100 -293 -100q-163 0 -291 98l-101 -100l-92 92l99 100q-103 131 -103 297zM127 649 q0 -136 97 -238t231 -102t230.5 102t96.5 238t-96.5 238t-230.5 102t-231 -102t-97 -238z" />
<glyph unicode="&#xa5;" d="M-184 1221v77h590v-77q-69 0 -96 -11.5t-27 -42.5q0 -12 3 -24t12.5 -29t14 -25.5t20.5 -32t19 -28.5l203 -315l174 272q38 60 51.5 83t25 50t11.5 49q0 31 -25 42.5t-100 11.5v77h402v-77q-63 0 -99 -22t-77 -85l-240 -360h229v-90h-289l-28 -43v-89h317v-90h-317v-213 q0 -86 42.5 -118.5t168.5 -32.5v-78h-697v78q131 0 175.5 32.5t44.5 118.5v213h-318v90h318v70l-39 62h-279v90h221l-225 350q-47 73 -80.5 95t-105.5 22z" />
<glyph unicode="&#xa6;" horiz-adv-x="454" d="M162 0v565h131v-565h-131zM162 819v565h131v-565h-131z" />
<glyph unicode="&#xa7;" horiz-adv-x="1024" d="M123 510q0 106 72.5 172t191.5 80q-174 136 -174 297q0 123 87.5 189.5t209.5 66.5q47 0 91.5 -9t90.5 -29.5t74.5 -63t28.5 -101.5q0 -54 -31.5 -87.5t-77.5 -33.5q-47 0 -82 29.5t-35 79.5q0 31 12 53t27 30.5t27 18t12 19.5q0 23 -30.5 38t-92.5 15 q-75 0 -121.5 -39.5t-46.5 -110.5q0 -36 30 -76.5t78 -80.5t106 -83.5t116.5 -92.5t106.5 -100.5t78 -114.5t30 -127q0 -116 -71.5 -188.5t-184.5 -72.5v-4q38 -28 63 -51.5t52.5 -58t41 -76.5t13.5 -92q0 -60 -20.5 -109t-53.5 -80t-75.5 -52t-84 -29.5t-81.5 -8.5 q-126 0 -212.5 63t-86.5 140q0 57 29.5 93t86.5 36q109 0 109 -104q0 -72 -70 -109q8 -39 50 -58.5t94 -19.5q69 0 116.5 39.5t47.5 104.5q0 48 -30 96t-77.5 89t-105.5 83.5t-115.5 89t-105 96t-77.5 112.5t-30 132zM262 586q0 -58 75.5 -142.5t167 -145t138.5 -60.5 q55 0 87 33t32 89q0 50 -46 114t-109 115.5t-128 87.5t-102 36q-49 0 -82 -37.5t-33 -89.5z" />
<glyph unicode="&#xa8;" horiz-adv-x="569" d="M10 1118q0 40 29.5 71.5t73.5 31.5t73 -31.5t29 -71.5t-29 -71t-73 -31t-73.5 31t-29.5 71zM354 1118q0 40 29.5 71.5t73.5 31.5t73 -31.5t29 -71.5t-29 -71t-73 -31t-73.5 31t-29.5 71z" />
<glyph unicode="&#xa9;" horiz-adv-x="1638" d="M168 647q0 137 50.5 260.5t136.5 213t207 142t257 52.5t257 -52.5t207.5 -141.5t136.5 -212.5t50 -261.5q0 -183 -85 -335t-235 -240t-331 -88t-331 88t-235 240t-85 335zM291 647q0 -153 69.5 -283.5t191.5 -208t267 -77.5t267.5 77.5t192 208t69.5 283.5 q0 154 -69.5 285.5t-192 210t-267.5 78.5t-267 -78.5t-191.5 -210.5t-69.5 -285zM451 668q0 50 14 100t46 98.5t79 86t119.5 60.5t160.5 23q95 0 197 -32q43 -11 43 -39v-138h-37q-12 71 -61.5 119.5t-143.5 48.5q-120 0 -179.5 -85.5t-61.5 -233.5q-2 -160 58.5 -256 t188.5 -96q155 0 230 172h35l-29 -140q-1 -11 -9 -18.5t-16 -10.5t-26 -8q-117 -36 -201 -36q-184 0 -295.5 97.5t-111.5 287.5z" />
<glyph unicode="&#xaa;" horiz-adv-x="524" d="M16 901q0 37 26 67.5t60 47.5t82 30.5t76.5 18t58.5 8.5v109q0 51 -16 71.5t-47 20.5q-39 0 -65 -25t-37.5 -55t-31 -55t-46.5 -25q-20 0 -32.5 14t-12.5 35q0 52 81 102t173 50q95 0 132.5 -39.5t37.5 -116.5q0 -54 -4.5 -141.5t-4.5 -95.5q0 -62 21 -62q12 0 29 17 l24 -27l-8 -6q-7 -7 -10 -9.5t-11 -8.5t-14.5 -9t-15.5 -7t-18.5 -5.5t-20.5 -1.5q-28 0 -50 11.5t-31.5 23t-21.5 30.5q-23 -28 -66.5 -46.5t-102.5 -18.5q-68 0 -101 28.5t-33 69.5zM160 924q0 -35 18 -49.5t43 -14.5q54 0 75 41.5t23 130.5q-23 -1 -47.5 -6.5t-51 -16.5 t-43.5 -33t-17 -52z" />
<glyph unicode="&#xab;" horiz-adv-x="1024" d="M137 401v13q88 52 320 270q35 31 43 31q6 0 11 -6.5t5 -16.5q0 -37 -174 -262q-2 -3 -6.5 -7t-7 -7.5t-2.5 -7.5t2.5 -7.5t7 -8.5t6.5 -7q174 -225 174 -262q0 -10 -5 -16.5t-11 -6.5q-8 0 -43 31q-232 218 -320 270zM494 401v13q40 24 103.5 76.5t104.5 90t111 103.5 q35 31 43 31q6 0 11 -6.5t5 -16.5q0 -37 -174 -262q-2 -3 -6.5 -7t-7 -7.5t-2.5 -7.5t2.5 -7.5t7 -8.5t6.5 -7q174 -225 174 -262q0 -10 -5 -16.5t-11 -6.5q-8 0 -43 31q-70 66 -111 103.5t-104.5 90t-103.5 76.5z" />
<glyph unicode="&#xac;" horiz-adv-x="1228" d="M207 504v131h815v-457h-131v326h-684z" />
<glyph unicode="&#xad;" horiz-adv-x="681" d="M86 309v146l510 51v-146z" />
<glyph unicode="&#xae;" horiz-adv-x="1638" d="M168 647q0 137 50.5 260.5t136.5 213t207 142t257 52.5t257 -52.5t207.5 -141.5t136.5 -212.5t50 -261.5q0 -183 -85 -335t-235 -240t-331 -88t-331 88t-235 240t-85 335zM291 647q0 -153 69.5 -283.5t191.5 -208t267 -77.5t267.5 77.5t192 208t69.5 283.5 q0 154 -69.5 285.5t-192 210t-267.5 78.5t-267 -78.5t-191.5 -210.5t-69.5 -285zM508 303v41q45 0 67.5 21.5t22.5 72.5v451q0 49 -21.5 68t-68.5 26v33h356q93 0 155 -45.5t62 -132.5q0 -71 -41 -123.5t-110 -73.5l110 -158q87 -117 136 -149v-31h-142q-27 0 -56 38.5 t-79 130t-86 146.5h-76v-180q0 -51 22.5 -72.5t67.5 -21.5v-41h-319zM737 659h74q123 0 123 170q0 146 -123 146h-74v-316z" />
<glyph unicode="&#xaf;" horiz-adv-x="569" d="M10 1049v122h549v-122h-549z" />
<glyph unicode="&#xb0;" horiz-adv-x="819" d="M115 1022q0 123 86 208t209 85t209 -85t86 -208t-86 -208t-209 -85t-209 85t-86 208zM205 1022q0 -87 60 -151t145 -64t144.5 64t59.5 151t-59.5 151t-144.5 64t-145 -64t-60 -151z" />
<glyph unicode="&#xb1;" horiz-adv-x="1228" d="M207 0v131h815v-131h-815zM207 436v131h342v248h131v-248h342v-131h-342v-248h-131v248h-342z" />
<glyph unicode="&#xb2;" horiz-adv-x="544" d="M23 559l178 205q106 121 138 188t32 133q0 58 -40.5 95t-99.5 37q-43 0 -88 -21t-77 -51l-29 24q24 28 59.5 57t102.5 59t133 30q78 0 130 -48t52 -128q0 -133 -205 -338l-184 -187h197q69 0 101 6.5t48 28.5q22 27 33 27q18 0 18 -14q0 -5 -10 -50l-25 -88h-452 q-12 0 -12 35z" />
<glyph unicode="&#xb3;" horiz-adv-x="544" d="M23 582q0 41 38 41q26 0 45.5 -10.5t30 -22.5t33 -22.5t55.5 -10.5q61 0 101.5 46t40.5 120q0 53 -23 91t-62.5 57.5t-75.5 28t-77 11.5q-6 0 -6 19q0 8 1 9t7 3q86 34 147.5 85.5t61.5 117.5q0 54 -22.5 79t-79.5 25q-40 0 -70 -12.5t-72 -40.5l-22 31q7 4 25 16.5 t25 17t23.5 14.5t26 14t26.5 10.5t31.5 9t34.5 4.5t41 2q78 0 129 -35.5t51 -101.5q0 -114 -206 -209v-4q42 -3 82 -15.5t77 -35t59.5 -61.5t22.5 -89q0 -109 -93 -178.5t-234 -69.5q-81 0 -126.5 17.5t-45.5 48.5z" />
<glyph unicode="&#xb4;" horiz-adv-x="569" d="M127 946l252 262q50 54 75 70t58 16q30 0 48 -17.5t18 -49.5q0 -33 -19 -57t-76 -58l-274 -166h-82z" />
<glyph unicode="&#xb5;" horiz-adv-x="1062" d="M53 -418q37 4 54 7t35 13.5t24 30t6 52.5v962q0 56 -22.5 76t-96.5 27v65l324 16v-585q0 -83 25.5 -119.5t82.5 -36.5q85 0 199 103v393q0 94 -27.5 124.5t-119.5 39.5v65l352 16v-645q0 -52 24.5 -72t96.5 -20v-65l-326 -45v131q-55 -62 -134.5 -96.5t-172.5 -34.5v-467 h-324v65z" />
<glyph unicode="&#xb6;" horiz-adv-x="1228" d="M139 893q0 215 99.5 310t328.5 95h559v-49q-56 -3 -85.5 -9t-47 -23.5t-22 -42t-4.5 -72.5v-1381q0 -57 10.5 -82t42.5 -38t106 -19v-49h-327v1700h-121v-1700h-326v49q54 5 85 12.5t47.5 25t21 39.5t4.5 62v736q-180 0 -275.5 118.5t-95.5 317.5z" />
<glyph unicode="&#xb7;" horiz-adv-x="454" d="M80 408q0 62 43 104.5t104 42.5q62 0 105 -43t43 -104q0 -62 -43.5 -105t-104.5 -43t-104 43t-43 105z" />
<glyph unicode="&#xb8;" horiz-adv-x="569" d="M-98 -340l39 70q35 -23 55 -34.5t62 -25.5t83 -14q59 0 86 26t27 68q0 39 -24 60.5t-66 21.5q-38 0 -62 -12l-8 14l68 166h65l-30 -94h49q81 0 124.5 -43t43.5 -99q0 -62 -42.5 -104.5t-102.5 -60t-130 -17.5q-69 0 -123 20t-114 58z" />
<glyph unicode="&#xb9;" horiz-adv-x="544" d="M86 524v41q65 0 92 19.5t27 70.5v510q0 22 -24 30.5t-95 8.5v41q148 14 238 70h32v-668q0 -48 21 -65t84 -17v-41h-375z" />
<glyph unicode="&#xba;" horiz-adv-x="569" d="M16 1059q0 99 72 177.5t195 78.5t195.5 -78.5t72.5 -177.5q0 -98 -73 -177t-195 -79t-194.5 79t-72.5 177zM168 1059q0 -215 115 -215q116 0 116 215t-116 215q-115 0 -115 -215z" />
<glyph unicode="&#xbb;" horiz-adv-x="1024" d="M152 123q0 37 174 262q2 2 6.5 7t7 8.5t2.5 7.5t-2.5 7.5t-7 7.5t-6.5 7q-174 225 -174 262q0 10 5 16.5t11 6.5q8 0 43 -31q70 -66 111 -103.5t104.5 -90t103.5 -76.5v-13q-40 -24 -103.5 -76.5t-104.5 -90t-111 -103.5q-35 -31 -43 -31q-6 0 -11 6.5t-5 16.5zM508 123 q0 37 174 262q2 2 6.5 7t7 8.5t2.5 7.5t-2.5 7.5t-7 7.5t-6.5 7q-174 225 -174 262q0 10 5 16.5t11 6.5q8 0 43 -31q232 -218 320 -270v-13q-88 -52 -320 -270q-35 -31 -43 -31q-6 0 -11 6.5t-5 16.5z" />
<glyph unicode="&#xbc;" horiz-adv-x="1363" d="M86 526v41q65 0 92 19.5t27 70.5v508q0 22 -24 30.5t-95 8.5v41q142 13 246 70h24v-666q0 -48 21 -65t84 -17v-41h-375zM256 -16l934 1331h92l-934 -1331h-92zM819 274v70l344 434h90v-413h88v-91h-88v-274h-135v274h-299zM893 365h225v282h-4z" />
<glyph unicode="&#xbd;" horiz-adv-x="1363" d="M86 524v41q65 0 92 19.5t27 70.5v510q0 22 -24 30.5t-95 8.5v41q148 14 238 70h32v-668q0 -48 21 -65t84 -17v-41h-375zM195 -16l933 1331h93l-934 -1331h-92zM842 35l178 205q106 121 138 188t32 133q0 58 -40 94.5t-99 36.5q-43 0 -89 -20.5t-77 -50.5l-29 24 q24 28 59.5 57t102.5 59t133 30q78 0 130 -48.5t52 -128.5q0 -133 -205 -338l-184 -186h197q69 0 101 6.5t48 28.5q22 27 33 27q6 0 12 -4t6 -11q0 -4 -10 -49l-24 -88h-453q-12 0 -12 35z" />
<glyph unicode="&#xbe;" horiz-adv-x="1363" d="M23 582q0 41 38 41q26 0 45.5 -10.5t30 -22.5t33 -22.5t55.5 -10.5q61 0 101.5 46t40.5 120q0 53 -23 91t-62.5 57.5t-75.5 28t-77 11.5q-6 0 -6 19q0 8 1 9t7 3q86 34 147.5 85.5t61.5 117.5q0 54 -22.5 79t-79.5 25q-40 0 -70 -12.5t-72 -40.5l-22 31q7 4 25 16.5 t25 17t23.5 14.5t26 14t26.5 10.5t31.5 9t34.5 4.5t41 2q78 0 129 -35.5t51 -101.5q0 -114 -206 -209v-4q42 -3 82 -15.5t77 -35t59.5 -61.5t22.5 -89q0 -109 -93 -178.5t-234 -69.5q-81 0 -126.5 17.5t-45.5 48.5zM236 -16l933 1331h93l-934 -1331h-92zM819 274v70l344 434 h90v-413h88v-91h-88v-274h-135v274h-299zM893 365h225v282h-4z" />
<glyph unicode="&#xbf;" horiz-adv-x="985" d="M231 -41q0 91 24 155t69 99t99.5 50.5t125.5 15.5h47l8 147h62v-381h-74q-161 0 -224 -30t-63 -103q0 -54 29.5 -94t76.5 -61t94.5 -30.5t94.5 -9.5q135 0 135 -100q0 -76 -106 -76q-63 0 -131.5 28.5t-128.5 80t-99 133t-39 176.5zM471 682q0 65 43 107t107 42 t106.5 -42t42.5 -107t-42.5 -107.5t-106.5 -42.5t-107 42.5t-43 107.5z" />
<glyph unicode="&#xc0;" horiz-adv-x="1478" d="M45 0v78q83 12 124.5 54t90.5 157l326 764q16 37 16 55q0 5 -2 16t-2 15v8q0 13 23 51l47 74q20 29 30 36t37 7q22 0 33.5 -11t24.5 -42l409 -1047q32 -80 76 -108.5t115 -28.5v-78h-611v78q154 0 154 45q0 26 -14 70l-95 274h-391l-57 -133q-51 -115 -51 -174 q0 -45 26.5 -62t100.5 -20v-78h-410zM446 1651q0 32 18 49.5t48 17.5q33 0 58 -16t75 -70l252 -262h-82l-274 166q-57 34 -76 58t-19 57zM465 545h332l-154 418h-12z" />
<glyph unicode="&#xc1;" horiz-adv-x="1478" d="M45 0v78q83 12 124.5 54t90.5 157l326 764q16 37 16 55q0 5 -2 16t-2 15v8q0 13 23 51l47 74q20 29 30 36t37 7q22 0 33.5 -11t24.5 -42l409 -1047q32 -80 76 -108.5t115 -28.5v-78h-611v78q154 0 154 45q0 26 -14 70l-95 274h-391l-57 -133q-51 -115 -51 -174 q0 -45 26.5 -62t100.5 -20v-78h-410zM465 545h332l-154 418h-12zM582 1370l252 262q50 54 75 70t58 16q30 0 47.5 -17.5t17.5 -49.5q0 -33 -18.5 -57t-75.5 -58l-274 -166h-82z" />
<glyph unicode="&#xc2;" horiz-adv-x="1478" d="M45 0v78q83 12 124.5 54t90.5 157l326 764q16 37 16 55q0 5 -2 16t-2 15v8q0 13 23 51l47 74q20 29 30 36t37 7q22 0 33.5 -11t24.5 -42l409 -1047q32 -80 76 -108.5t115 -28.5v-78h-611v78q154 0 154 45q0 26 -14 70l-95 274h-391l-57 -133q-51 -115 -51 -174 q0 -45 26.5 -62t100.5 -20v-78h-410zM455 1370l217 344h133l219 -344h-68l-217 209l-217 -209h-67zM465 545h332l-154 418h-12z" />
<glyph unicode="&#xc3;" horiz-adv-x="1478" d="M45 0v78q83 12 124.5 54t90.5 157l326 764q16 37 16 55q0 5 -2 16t-2 15v8q0 13 23 51l47 74q20 29 30 36t37 7q22 0 33.5 -11t24.5 -42l409 -1047q32 -80 76 -108.5t115 -28.5v-78h-611v78q154 0 154 45q0 26 -14 70l-95 274h-391l-57 -133q-51 -115 -51 -174 q0 -45 26.5 -62t100.5 -20v-78h-410zM461 1432q2 81 43.5 140.5t126.5 59.5q51 0 135.5 -20.5t118.5 -20.5q66 0 80 70h53q-8 -87 -55 -142t-127 -55q-26 0 -125 23q-79 22 -127 22q-30 0 -48.5 -23.5t-21.5 -53.5h-53zM465 545h332l-154 418h-12z" />
<glyph unicode="&#xc4;" horiz-adv-x="1478" d="M45 0v78q83 12 124.5 54t90.5 157l326 764q16 37 16 55q0 5 -2 16t-2 15v8q0 13 23 51l47 74q20 29 30 36t37 7q22 0 33.5 -11t24.5 -42l409 -1047q32 -80 76 -108.5t115 -28.5v-78h-611v78q154 0 154 45q0 26 -14 70l-95 274h-391l-57 -133q-51 -115 -51 -174 q0 -45 26.5 -62t100.5 -20v-78h-410zM465 545h332l-154 418h-12zM465 1542q0 40 29 71.5t73 31.5t73.5 -31.5t29.5 -71.5t-29.5 -71t-73.5 -31t-73 31t-29 71zM809 1542q0 40 29 71.5t73 31.5t73.5 -31.5t29.5 -71.5t-29.5 -71t-73.5 -31t-73 31t-29 71z" />
<glyph unicode="&#xc5;" horiz-adv-x="1478" d="M45 0v78q83 12 124.5 54t90.5 157l326 764q16 37 16 55q0 5 -2 16t-2 15v8q0 13 23 51l47 74q20 29 30 36t37 7q22 0 33.5 -11t24.5 -42l409 -1047q32 -80 76 -108.5t115 -28.5v-78h-611v78q154 0 154 45q0 26 -14 70l-95 274h-391l-57 -133q-51 -115 -51 -174 q0 -45 26.5 -62t100.5 -20v-78h-410zM465 545h332l-154 418h-12zM535 1550q0 88 58.5 146.5t145.5 58.5t146 -59t59 -146t-59 -145.5t-146 -58.5t-145.5 58.5t-58.5 145.5zM616 1550q0 -55 35 -89t88 -34t88 34t35 89t-35 89t-88 34t-88 -34t-35 -89z" />
<glyph unicode="&#xc6;" horiz-adv-x="1857" d="M0 0v78q33 8 53 16t51 29.5t64 64.5t70 109l421 747q50 87 50 119q0 23 -15.5 34.5t-65 17.5t-149.5 6v77h1131l53 -184q10 -33 10 -47q0 -9 -12.5 -20t-28.5 -11q-10 0 -17.5 7.5t-25.5 35.5q-65 97 -154.5 129.5t-238.5 32.5q-53 0 -69.5 -20t-16.5 -82v-406h139 q43 0 70 5.5t52 23.5t39 55t20 96h77v-450h-77q-6 59 -20 96t-39 55t-52 23.5t-70 5.5h-139v-436q0 -44 5 -66.5t25.5 -38t54 -20t97.5 -4.5q75 0 131.5 10t97 27t75.5 51t60.5 69.5t59.5 94.5q5 9 11.5 12.5t23.5 3.5q31 0 31 -14q0 -1 -4 -37l-45 -295h-1065v78 q101 0 138.5 33t37.5 118v373h-336q-20 -41 -80.5 -147t-96.5 -185t-36 -125q0 -30 32.5 -48.5t94.5 -18.5v-78h-422zM547 680h297v520h-4z" />
<glyph unicode="&#xc7;" horiz-adv-x="1366" d="M72 649q0 181 92 334t251 242.5t347 89.5q116 0 235 -28.5t196 -73t77 -89.5q0 -52 -7.5 -121.5t-7.5 -78.5q0 -13 -8.5 -27t-25.5 -14q-16 0 -26.5 14t-31.5 68q-51 130 -156 201t-245 71q-57 0 -112 -19t-108.5 -64t-94 -111t-65 -167.5t-24.5 -226.5q0 -126 25 -226.5 t68 -167.5t103 -111t126.5 -63.5t142.5 -19.5q64 0 124 23t102 56t77 73.5t53.5 71.5t26.5 53q11 33 22 41t32 8q32 0 32 -27q0 -5 -0.5 -13t-1.5 -22.5t-2 -27.5l-8 -72q-7 -65 -33 -98q-14 -17 -50 -38.5t-94.5 -46.5t-149 -41.5t-191.5 -16.5q-33 0 -47 2l-27 -80h49 q81 0 124.5 -43t43.5 -99q0 -47 -24 -83.5t-64 -57t-87.5 -31t-98.5 -10.5q-115 0 -238 78l39 70q34 -22 55 -34t62.5 -26t83.5 -14q112 0 112 94q0 39 -24 60.5t-66 21.5q-37 0 -61 -12l-8 14l65 160q-164 25 -296.5 117.5t-207.5 234t-75 303.5z" />
<glyph unicode="&#xc8;" horiz-adv-x="1290" d="M61 0v78q101 0 139 33.5t38 117.5v840q0 85 -38 118.5t-139 33.5v77h998l53 -184q10 -33 10 -47q0 -9 -12.5 -20t-28.5 -11q-10 0 -17.5 7.5t-25.5 35.5q-65 97 -154.5 129.5t-238.5 32.5q-92 0 -116.5 -19t-24.5 -83v-406h162q91 0 130.5 29t59.5 117q3 17 9 20.5 t30 5.5q20 0 27.5 -7.5t7.5 -31.5v-401q0 -27 -39 -27q-25 0 -29 15q-21 68 -38 105.5t-41.5 56.5t-48 23.5t-68.5 4.5h-162v-436q0 -44 5.5 -66.5t29 -38.5t63 -20t113.5 -4q75 0 131.5 10t97 27t75.5 51t60.5 69.5t59.5 94.5q5 9 11.5 12.5t23.5 3.5q30 0 30 -14 q0 -1 -4 -37l-45 -295h-1094zM352 1651q0 32 18 49.5t48 17.5q33 0 58 -16t75 -70l252 -262h-82l-275 166q-57 34 -75.5 58t-18.5 57z" />
<glyph unicode="&#xc9;" horiz-adv-x="1290" d="M61 0v78q101 0 139 33.5t38 117.5v840q0 85 -38 118.5t-139 33.5v77h998l53 -184q10 -33 10 -47q0 -9 -12.5 -20t-28.5 -11q-10 0 -17.5 7.5t-25.5 35.5q-65 97 -154.5 129.5t-238.5 32.5q-92 0 -116.5 -19t-24.5 -83v-406h162q91 0 130.5 29t59.5 117q3 17 9 20.5 t30 5.5q20 0 27.5 -7.5t7.5 -31.5v-401q0 -27 -39 -27q-25 0 -29 15q-21 68 -38 105.5t-41.5 56.5t-48 23.5t-68.5 4.5h-162v-436q0 -44 5.5 -66.5t29 -38.5t63 -20t113.5 -4q75 0 131.5 10t97 27t75.5 51t60.5 69.5t59.5 94.5q5 9 11.5 12.5t23.5 3.5q30 0 30 -14 q0 -1 -4 -37l-45 -295h-1094zM487 1370l252 262q50 54 75 70t58 16q30 0 48 -17.5t18 -49.5q0 -33 -18.5 -57t-75.5 -58l-275 -166h-82z" />
<glyph unicode="&#xca;" horiz-adv-x="1290" d="M61 0v78q101 0 139 33.5t38 117.5v840q0 85 -38 118.5t-139 33.5v77h998l53 -184q10 -33 10 -47q0 -9 -12.5 -20t-28.5 -11q-10 0 -17.5 7.5t-25.5 35.5q-65 97 -154.5 129.5t-238.5 32.5q-92 0 -116.5 -19t-24.5 -83v-406h162q91 0 130.5 29t59.5 117q3 17 9 20.5 t30 5.5q20 0 27.5 -7.5t7.5 -31.5v-401q0 -27 -39 -27q-25 0 -29 15q-21 68 -38 105.5t-41.5 56.5t-48 23.5t-68.5 4.5h-162v-436q0 -44 5.5 -66.5t29 -38.5t63 -20t113.5 -4q75 0 131.5 10t97 27t75.5 51t60.5 69.5t59.5 94.5q5 9 11.5 12.5t23.5 3.5q30 0 30 -14 q0 -1 -4 -37l-45 -295h-1094zM360 1370l218 344h133l219 -344h-68l-217 209l-217 -209h-68z" />
<glyph unicode="&#xcb;" horiz-adv-x="1290" d="M61 0v78q101 0 139 33.5t38 117.5v840q0 85 -38 118.5t-139 33.5v77h998l53 -184q10 -33 10 -47q0 -9 -12.5 -20t-28.5 -11q-10 0 -17.5 7.5t-25.5 35.5q-65 97 -154.5 129.5t-238.5 32.5q-92 0 -116.5 -19t-24.5 -83v-406h162q91 0 130.5 29t59.5 117q3 17 9 20.5 t30 5.5q20 0 27.5 -7.5t7.5 -31.5v-401q0 -27 -39 -27q-25 0 -29 15q-21 68 -38 105.5t-41.5 56.5t-48 23.5t-68.5 4.5h-162v-436q0 -44 5.5 -66.5t29 -38.5t63 -20t113.5 -4q75 0 131.5 10t97 27t75.5 51t60.5 69.5t59.5 94.5q5 9 11.5 12.5t23.5 3.5q30 0 30 -14 q0 -1 -4 -37l-45 -295h-1094zM371 1542q0 40 29 71.5t73 31.5t73 -31.5t29 -71.5t-29 -71t-73 -31t-73 31t-29 71zM715 1542q0 40 29 71.5t73 31.5t73.5 -31.5t29.5 -71.5t-29.5 -71t-73.5 -31t-73 31t-29 71z" />
<glyph unicode="&#xcc;" horiz-adv-x="720" d="M63 0v78q93 0 128.5 33.5t35.5 117.5v840q0 84 -35.5 118t-128.5 34v77h594v-77q-93 0 -128 -34t-35 -118v-840q0 -84 35 -117.5t128 -33.5v-78h-594zM68 1651q0 32 17.5 49.5t47.5 17.5q33 0 58 -16t75 -70l252 -262h-82l-274 166q-57 34 -75.5 58t-18.5 57z" />
<glyph unicode="&#xcd;" horiz-adv-x="720" d="M63 0v78q93 0 128.5 33.5t35.5 117.5v840q0 84 -35.5 118t-128.5 34v77h594v-77q-93 0 -128 -34t-35 -118v-840q0 -84 35 -117.5t128 -33.5v-78h-594zM203 1370l252 262q50 54 75 70t58 16q30 0 47.5 -17.5t17.5 -49.5q0 -33 -18.5 -57t-75.5 -58l-274 -166h-82z" />
<glyph unicode="&#xce;" horiz-adv-x="720" d="M63 0v78q93 0 128.5 33.5t35.5 117.5v840q0 84 -35.5 118t-128.5 34v77h594v-77q-93 0 -128 -34t-35 -118v-840q0 -84 35 -117.5t128 -33.5v-78h-594zM76 1370l217 344h133l219 -344h-67l-218 209l-217 -209h-67z" />
<glyph unicode="&#xcf;" horiz-adv-x="720" d="M63 0v78q93 0 128.5 33.5t35.5 117.5v840q0 84 -35.5 118t-128.5 34v77h594v-77q-93 0 -128 -34t-35 -118v-840q0 -84 35 -117.5t128 -33.5v-78h-594zM86 1542q0 40 29 71.5t73 31.5t73.5 -31.5t29.5 -71.5t-29.5 -71t-73.5 -31t-73 31t-29 71zM430 1542q0 40 29 71.5 t73 31.5t73.5 -31.5t29.5 -71.5t-29.5 -71t-73.5 -31t-73 31t-29 71z" />
<glyph unicode="&#xd0;" horiz-adv-x="1554" d="M66 0v78q96 0 131.5 33.5t35.5 117.5v385h-167v91h167v364q0 85 -36 118.5t-131 33.5v77h622q171 0 321 -53t254 -141.5t164 -207t60 -247.5t-57.5 -247t-160 -207t-254 -142t-327.5 -53h-622zM500 190q0 -61 42 -86.5t134 -25.5q110 0 199 30.5t148.5 83.5t100 126 t58.5 155.5t18 175.5q0 86 -18 166t-60 154.5t-103.5 130t-155 88.5t-208.5 33q-92 0 -123.5 -26.5t-31.5 -86.5v-403h311v-91h-311v-424z" />
<glyph unicode="&#xd1;" horiz-adv-x="1630" d="M55 1221v77h371l877 -890v604q0 69 -8 109t-32.5 63t-60 30t-98.5 7v77h469v-77q-67 0 -103 -14.5t-56.5 -60.5t-20.5 -134v-1012h-76l-948 989v-702q0 -92 17.5 -135.5t57 -58.5t123.5 -15v-78h-469v78q50 0 81 7.5t55 29.5t34.5 63.5t10.5 108.5v631q0 127 -22.5 192 t-68 88t-133.5 23zM561 1432q2 81 43.5 140.5t126.5 59.5q51 0 135.5 -20.5t118.5 -20.5q66 0 80 70h53q-8 -87 -55 -142t-127 -55q-26 0 -125 23q-79 22 -127 22q-30 0 -48.5 -23.5t-21.5 -53.5h-53z" />
<glyph unicode="&#xd2;" horiz-adv-x="1517" d="M68 649q0 181 92 334t251 242.5t347 89.5t347 -89.5t251 -242.5t92 -334q0 -135 -54.5 -258t-146.5 -212.5t-220 -142t-269 -52.5t-269 52.5t-220 142t-146.5 212.5t-54.5 258zM354 649q0 -125 24.5 -226.5t65 -167.5t94 -111t108.5 -64t112 -19t112 19t108.5 64 t93.5 111t64.5 167.5t24.5 226.5t-24.5 226.5t-64.5 167.5t-93.5 111t-108.5 64t-112 19t-112 -19t-108.5 -64t-94 -111t-65 -167.5t-24.5 -226.5zM467 1651q0 32 17.5 49.5t47.5 17.5q33 0 58.5 -16.5t75.5 -69.5l252 -262h-82l-275 166q-57 34 -75.5 58t-18.5 57z" />
<glyph unicode="&#xd3;" horiz-adv-x="1517" d="M68 649q0 181 92 334t251 242.5t347 89.5t347 -89.5t251 -242.5t92 -334q0 -135 -54.5 -258t-146.5 -212.5t-220 -142t-269 -52.5t-269 52.5t-220 142t-146.5 212.5t-54.5 258zM354 649q0 -125 24.5 -226.5t65 -167.5t94 -111t108.5 -64t112 -19t112 19t108.5 64 t93.5 111t64.5 167.5t24.5 226.5t-24.5 226.5t-64.5 167.5t-93.5 111t-108.5 64t-112 19t-112 -19t-108.5 -64t-94 -111t-65 -167.5t-24.5 -226.5zM602 1370l252 262q50 54 75 70t58 16q30 0 48 -17.5t18 -49.5q0 -33 -19 -57t-76 -58l-274 -166h-82z" />
<glyph unicode="&#xd4;" horiz-adv-x="1517" d="M68 649q0 181 92 334t251 242.5t347 89.5t347 -89.5t251 -242.5t92 -334q0 -135 -54.5 -258t-146.5 -212.5t-220 -142t-269 -52.5t-269 52.5t-220 142t-146.5 212.5t-54.5 258zM354 649q0 -125 24.5 -226.5t65 -167.5t94 -111t108.5 -64t112 -19t112 19t108.5 64 t93.5 111t64.5 167.5t24.5 226.5t-24.5 226.5t-64.5 167.5t-93.5 111t-108.5 64t-112 19t-112 -19t-108.5 -64t-94 -111t-65 -167.5t-24.5 -226.5zM475 1370l217 344h133l219 -344h-67l-217 209l-217 -209h-68z" />
<glyph unicode="&#xd5;" horiz-adv-x="1517" d="M68 649q0 181 92 334t251 242.5t347 89.5t347 -89.5t251 -242.5t92 -334q0 -135 -54.5 -258t-146.5 -212.5t-220 -142t-269 -52.5t-269 52.5t-220 142t-146.5 212.5t-54.5 258zM354 649q0 -125 24.5 -226.5t65 -167.5t94 -111t108.5 -64t112 -19t112 19t108.5 64 t93.5 111t64.5 167.5t24.5 226.5t-24.5 226.5t-64.5 167.5t-93.5 111t-108.5 64t-112 19t-112 -19t-108.5 -64t-94 -111t-65 -167.5t-24.5 -226.5zM481 1432q2 81 43.5 140.5t126.5 59.5q51 0 135.5 -20.5t118.5 -20.5q66 0 80 70h53q-8 -87 -55 -142t-127 -55 q-26 0 -125 23q-79 22 -127 22q-30 0 -48 -23.5t-21 -53.5h-54z" />
<glyph unicode="&#xd6;" horiz-adv-x="1517" d="M68 649q0 181 92 334t251 242.5t347 89.5t347 -89.5t251 -242.5t92 -334q0 -135 -54.5 -258t-146.5 -212.5t-220 -142t-269 -52.5t-269 52.5t-220 142t-146.5 212.5t-54.5 258zM354 649q0 -125 24.5 -226.5t65 -167.5t94 -111t108.5 -64t112 -19t112 19t108.5 64 t93.5 111t64.5 167.5t24.5 226.5t-24.5 226.5t-64.5 167.5t-93.5 111t-108.5 64t-112 19t-112 -19t-108.5 -64t-94 -111t-65 -167.5t-24.5 -226.5zM485 1542q0 40 29.5 71.5t73.5 31.5t73 -31.5t29 -71.5t-29 -71t-73 -31t-73.5 31t-29.5 71zM829 1542q0 40 29.5 71.5 t73.5 31.5t73 -31.5t29 -71.5t-29 -71t-73 -31t-73.5 31t-29.5 71z" />
<glyph unicode="&#xd7;" horiz-adv-x="1228" d="M207 90l319 318l-319 317l90 90l317 -317l318 317l90 -90l-320 -317l320 -318l-90 -90l-318 317l-317 -317z" />
<glyph unicode="&#xd8;" horiz-adv-x="1517" d="M68 649q0 181 92 334t251 242.5t347 89.5q127 0 248 -45l116 250h90l-131 -283q167 -86 267 -243t100 -345q0 -135 -54.5 -258t-146.5 -212.5t-220 -142t-269 -52.5q-131 0 -244 43l-131 -281h-96l149 315q-168 84 -268 241t-100 347zM354 649q0 -307 142 -463l462 983 q-91 68 -200 68q-57 0 -112 -19t-108.5 -64t-94 -111t-65 -167.5t-24.5 -226.5zM561 127q89 -66 197 -66q57 0 112 19t108.5 64t93.5 111t64.5 167.5t24.5 226.5q0 307 -139 463z" />
<glyph unicode="&#xd9;" horiz-adv-x="1517" d="M57 1221v77h611v-77q-107 0 -137.5 -28.5t-30.5 -113.5v-633q0 -192 80 -276t247 -84q188 0 284.5 115.5t96.5 330.5v512q0 100 -40 138.5t-140 38.5v77h430v-77q-100 -3 -130 -46t-30 -163v-494q0 -145 -39.5 -250.5t-113 -166t-167 -89t-212.5 -28.5q-88 0 -163 13 t-144.5 46t-118.5 84t-78 131t-29 184v602q0 100 -39.5 138.5t-136.5 38.5zM514 1651q0 32 18 49.5t48 17.5q33 0 58 -16t75 -70l252 -262h-82l-275 166q-57 34 -75.5 58t-18.5 57z" />
<glyph unicode="&#xda;" horiz-adv-x="1517" d="M57 1221v77h611v-77q-107 0 -137.5 -28.5t-30.5 -113.5v-633q0 -192 80 -276t247 -84q188 0 284.5 115.5t96.5 330.5v512q0 100 -40 138.5t-140 38.5v77h430v-77q-100 -3 -130 -46t-30 -163v-494q0 -145 -39.5 -250.5t-113 -166t-167 -89t-212.5 -28.5q-88 0 -163 13 t-144.5 46t-118.5 84t-78 131t-29 184v602q0 100 -39.5 138.5t-136.5 38.5zM649 1370l252 262q50 54 75 70t58 16q30 0 48 -17.5t18 -49.5q0 -33 -18.5 -57t-75.5 -58l-275 -166h-82z" />
<glyph unicode="&#xdb;" horiz-adv-x="1517" d="M57 1221v77h611v-77q-107 0 -137.5 -28.5t-30.5 -113.5v-633q0 -192 80 -276t247 -84q188 0 284.5 115.5t96.5 330.5v512q0 100 -40 138.5t-140 38.5v77h430v-77q-100 -3 -130 -46t-30 -163v-494q0 -145 -39.5 -250.5t-113 -166t-167 -89t-212.5 -28.5q-88 0 -163 13 t-144.5 46t-118.5 84t-78 131t-29 184v602q0 100 -39.5 138.5t-136.5 38.5zM522 1370l217 344h133l220 -344h-68l-217 209l-217 -209h-68z" />
<glyph unicode="&#xdc;" horiz-adv-x="1517" d="M57 1221v77h611v-77q-107 0 -137.5 -28.5t-30.5 -113.5v-633q0 -192 80 -276t247 -84q188 0 284.5 115.5t96.5 330.5v512q0 100 -40 138.5t-140 38.5v77h430v-77q-100 -3 -130 -46t-30 -163v-494q0 -145 -39.5 -250.5t-113 -166t-167 -89t-212.5 -28.5q-88 0 -163 13 t-144.5 46t-118.5 84t-78 131t-29 184v602q0 100 -39.5 138.5t-136.5 38.5zM532 1542q0 40 29.5 71.5t73.5 31.5t73 -31.5t29 -71.5t-29 -71t-73 -31t-73.5 31t-29.5 71zM877 1542q0 40 29 71.5t73 31.5t73 -31.5t29 -71.5t-29 -71t-73 -31t-73 31t-29 71z" />
<glyph unicode="&#xdd;" horiz-adv-x="1366" d="M45 1221v77h588v-77q-69 0 -96 -11.5t-27 -42.5q0 -12 3.5 -24.5t12.5 -28.5t14.5 -26t20 -31t19.5 -29l202 -315l174 272q38 60 51.5 83t25 50t11.5 49q0 31 -24.5 42.5t-99.5 11.5v77h401v-77q-63 0 -99 -22t-77 -85l-328 -493v-392q0 -86 42.5 -118.5t168.5 -32.5v-78 h-696v78q131 0 175 32.5t44 118.5v373l-322 502q-47 73 -80.5 95t-103.5 22zM479 1370l252 262q50 54 75 70t58 16q30 0 48 -17.5t18 -49.5q0 -33 -18.5 -57t-75.5 -58l-275 -166h-82z" />
<glyph unicode="&#xde;" horiz-adv-x="1175" d="M53 0v78q97 0 133.5 33.5t36.5 117.5v840q0 84 -36.5 118t-133.5 34v77h613v-77q-101 0 -139 -33.5t-38 -118.5v-33h103q268 0 400 -90t132 -282t-132 -282.5t-400 -90.5h-103v-62q0 -84 38 -117.5t139 -33.5v-78h-613zM489 455q0 -48 25.5 -67t85.5 -19q118 0 188 73.5 t70 221.5t-70 221t-188 73q-60 0 -85.5 -19t-25.5 -67v-417z" />
<glyph unicode="&#xdf;" horiz-adv-x="1062" d="M41 0v66q67 0 99 25t32 102v796q0 199 100.5 297t270.5 98q163 0 271 -84.5t108 -220.5q0 -58 -20.5 -108.5t-46 -81.5t-66 -59.5t-62.5 -39.5t-53 -24q23 -7 34 -11t41 -16t48.5 -22.5t48 -30t49 -39.5t42 -50t36 -62.5t22.5 -75t9 -90.5q0 -165 -95 -275t-262 -110 q-99 0 -162 32l31 93q20 -20 32 -30t32.5 -20t42.5 -10q72 0 109.5 81t37.5 222q0 357 -199 357q-29 0 -47 -9v99q26 -13 39 -13q69 0 107.5 76t38.5 211q0 127 -45.5 186.5t-126.5 59.5q-91 0 -125.5 -69.5t-34.5 -215.5v-1034h-336z" />
<glyph unicode="&#xe0;" horiz-adv-x="872" d="M49 143q0 45 21 83.5t52.5 65.5t78 50.5t87.5 37t91 25t78 16.5t59 9v180q0 85 -24.5 120.5t-73.5 35.5q-48 0 -83 -27.5t-54.5 -66.5t-37 -78t-43 -66.5t-59.5 -27.5q-30 0 -48.5 23t-18.5 59q0 56 57 114t148.5 96.5t183.5 38.5q76 0 128 -17.5t80 -53.5t39 -80.5 t11 -106.5q0 -90 -4 -236.5t-4 -160.5q0 -61 6.5 -81.5t23.5 -20.5t45 28l37 -43q-69 -75 -151 -75q-44 0 -77 18t-47 37t-32 51q-34 -45 -103 -75.5t-161 -30.5q-105 0 -155 45.5t-50 113.5zM143 1227q0 32 18 49.5t48 17.5q33 0 58 -16t75 -70l252 -262h-82l-274 166 q-57 34 -76 58t-19 57zM270 182q0 -58 29.5 -83t67.5 -25q82 0 114 70.5t35 220.5q-28 -2 -57.5 -8t-64.5 -20t-61.5 -33t-44.5 -51t-18 -71z" />
<glyph unicode="&#xe1;" horiz-adv-x="872" d="M49 143q0 45 21 83.5t52.5 65.5t78 50.5t87.5 37t91 25t78 16.5t59 9v180q0 85 -24.5 120.5t-73.5 35.5q-48 0 -83 -27.5t-54.5 -66.5t-37 -78t-43 -66.5t-59.5 -27.5q-30 0 -48.5 23t-18.5 59q0 56 57 114t148.5 96.5t183.5 38.5q76 0 128 -17.5t80 -53.5t39 -80.5 t11 -106.5q0 -90 -4 -236.5t-4 -160.5q0 -61 6.5 -81.5t23.5 -20.5t45 28l37 -43q-69 -75 -151 -75q-44 0 -77 18t-47 37t-32 51q-34 -45 -103 -75.5t-161 -30.5q-105 0 -155 45.5t-50 113.5zM270 182q0 -58 29.5 -83t67.5 -25q82 0 114 70.5t35 220.5q-28 -2 -57.5 -8 t-64.5 -20t-61.5 -33t-44.5 -51t-18 -71zM279 946l251 262q50 53 75.5 69.5t58.5 16.5q30 0 47.5 -17.5t17.5 -49.5q0 -33 -18.5 -57t-75.5 -58l-275 -166h-81z" />
<glyph unicode="&#xe2;" horiz-adv-x="872" d="M49 143q0 45 21 83.5t52.5 65.5t78 50.5t87.5 37t91 25t78 16.5t59 9v180q0 85 -24.5 120.5t-73.5 35.5q-48 0 -83 -27.5t-54.5 -66.5t-37 -78t-43 -66.5t-59.5 -27.5q-30 0 -48.5 23t-18.5 59q0 56 57 114t148.5 96.5t183.5 38.5q76 0 128 -17.5t80 -53.5t39 -80.5 t11 -106.5q0 -90 -4 -236.5t-4 -160.5q0 -61 6.5 -81.5t23.5 -20.5t45 28l37 -43q-69 -75 -151 -75q-44 0 -77 18t-47 37t-32 51q-34 -45 -103 -75.5t-161 -30.5q-105 0 -155 45.5t-50 113.5zM152 946l217 344h133l219 -344h-68l-217 209l-217 -209h-67zM270 182 q0 -58 29.5 -83t67.5 -25q82 0 114 70.5t35 220.5q-28 -2 -57.5 -8t-64.5 -20t-61.5 -33t-44.5 -51t-18 -71z" />
<glyph unicode="&#xe3;" horiz-adv-x="872" d="M49 143q0 45 21 83.5t52.5 65.5t78 50.5t87.5 37t91 25t78 16.5t59 9v180q0 85 -24.5 120.5t-73.5 35.5q-48 0 -83 -27.5t-54.5 -66.5t-37 -78t-43 -66.5t-59.5 -27.5q-30 0 -48.5 23t-18.5 59q0 56 57 114t148.5 96.5t183.5 38.5q76 0 128 -17.5t80 -53.5t39 -80.5 t11 -106.5q0 -90 -4 -236.5t-4 -160.5q0 -61 6.5 -81.5t23.5 -20.5t45 28l37 -43q-69 -75 -151 -75q-44 0 -77 18t-47 37t-32 51q-34 -45 -103 -75.5t-161 -30.5q-105 0 -155 45.5t-50 113.5zM158 1008q2 81 43.5 140.5t126.5 59.5q51 0 135.5 -20.5t118.5 -20.5q66 0 80 70 h53q-8 -87 -55.5 -142t-127.5 -55q-25 0 -124 23q-79 22 -127 22q-30 0 -48.5 -23.5t-21.5 -53.5h-53zM270 182q0 -58 29.5 -83t67.5 -25q82 0 114 70.5t35 220.5q-28 -2 -57.5 -8t-64.5 -20t-61.5 -33t-44.5 -51t-18 -71z" />
<glyph unicode="&#xe4;" horiz-adv-x="872" d="M49 143q0 45 21 83.5t52.5 65.5t78 50.5t87.5 37t91 25t78 16.5t59 9v180q0 85 -24.5 120.5t-73.5 35.5q-48 0 -83 -27.5t-54.5 -66.5t-37 -78t-43 -66.5t-59.5 -27.5q-30 0 -48.5 23t-18.5 59q0 56 57 114t148.5 96.5t183.5 38.5q76 0 128 -17.5t80 -53.5t39 -80.5 t11 -106.5q0 -90 -4 -236.5t-4 -160.5q0 -61 6.5 -81.5t23.5 -20.5t45 28l37 -43q-69 -75 -151 -75q-44 0 -77 18t-47 37t-32 51q-34 -45 -103 -75.5t-161 -30.5q-105 0 -155 45.5t-50 113.5zM162 1118q0 40 29 71.5t73 31.5t73.5 -31.5t29.5 -71.5t-29.5 -71t-73.5 -31 t-73 31t-29 71zM270 182q0 -58 29.5 -83t67.5 -25q82 0 114 70.5t35 220.5q-28 -2 -57.5 -8t-64.5 -20t-61.5 -33t-44.5 -51t-18 -71zM506 1118q0 40 29 71.5t73 31.5t73.5 -31.5t29.5 -71.5t-29.5 -71t-73.5 -31t-73 31t-29 71z" />
<glyph unicode="&#xe5;" horiz-adv-x="872" d="M49 143q0 45 21 83.5t52.5 65.5t78 50.5t87.5 37t91 25t78 16.5t59 9v180q0 85 -24.5 120.5t-73.5 35.5q-48 0 -83 -27.5t-54.5 -66.5t-37 -78t-43 -66.5t-59.5 -27.5q-30 0 -48.5 23t-18.5 59q0 56 57 114t148.5 96.5t183.5 38.5q76 0 128 -17.5t80 -53.5t39 -80.5 t11 -106.5q0 -90 -4 -236.5t-4 -160.5q0 -61 6.5 -81.5t23.5 -20.5t45 28l37 -43q-69 -75 -151 -75q-44 0 -77 18t-47 37t-32 51q-34 -45 -103 -75.5t-161 -30.5q-105 0 -155 45.5t-50 113.5zM231 1126q0 87 59 146t146 59t146 -59t59 -146t-59 -145.5t-146 -58.5t-146 58.5 t-59 145.5zM270 182q0 -58 29.5 -83t67.5 -25q82 0 114 70.5t35 220.5q-28 -2 -57.5 -8t-64.5 -20t-61.5 -33t-44.5 -51t-18 -71zM313 1126q0 -55 35 -88.5t88 -33.5t88 33.5t35 88.5t-35 89t-88 34t-88 -34t-35 -89z" />
<glyph unicode="&#xe6;" horiz-adv-x="1214" d="M70 152q0 35 19.5 68.5t45.5 58.5t72.5 51.5t78.5 41.5t86.5 34.5t73.5 25.5t62 19v137q0 89 -20.5 133.5t-77.5 44.5q-48 0 -77.5 -23.5t-41.5 -57t-22 -67.5t-30 -57.5t-55 -23.5q-34 0 -51.5 21t-17.5 52q0 36 20.5 73.5t58.5 71t101.5 55t140.5 21.5q158 0 228 -90 q35 31 56 46t63 29.5t94 14.5q59 0 107.5 -18t76 -40t50.5 -58t31 -54.5t17 -46.5l-446 -163v-140q0 -237 178 -237q40 0 82.5 14t65 26.5t63.5 37.5l39 -58q-69 -56 -153.5 -84t-153.5 -26q-57 -1 -103.5 9.5t-80.5 31.5t-53 37.5t-44 43.5q-83 -65 -143 -91.5t-142 -30.5 q-77 -5 -135.5 37t-62.5 131zM274 172q0 -49 26 -73.5t69 -24.5q52 3 80.5 25.5t45 91t13.5 194.5q-20 -6 -32.5 -10t-40 -14.5t-46 -21t-42 -28.5t-38 -37t-25 -45.5t-10.5 -56.5zM713 528l200 72q33 11 49.5 31t16.5 39q0 47 -35 71.5t-88 24.5q-72 0 -107.5 -67 t-35.5 -171z" />
<glyph unicode="&#xe7;" horiz-adv-x="796" d="M61 360q0 102 37 191t97.5 149.5t139 95.5t161.5 35q94 0 161.5 -42t67.5 -107q0 -32 -17.5 -50t-45.5 -18q-35 0 -67.5 22t-53 48t-50.5 48t-61 22q-69 0 -112.5 -73.5t-43.5 -213.5q0 -157 60.5 -254.5t165.5 -97.5q53 0 110.5 25t94.5 65l49 -53 q-67 -75 -153.5 -121.5t-182.5 -46.5l-25 -78h49q81 0 124.5 -43t43.5 -99q0 -47 -24 -83.5t-64 -57t-87.5 -31t-98.5 -10.5q-115 0 -238 78l39 70q34 -22 55 -34t62.5 -26t83.5 -14q59 0 86 26t27 68q0 39 -24.5 60.5t-66.5 21.5q-37 0 -61 -12l-8 14l63 158 q-76 11 -134.5 49.5t-92 92t-50 111t-16.5 115.5z" />
<glyph unicode="&#xe8;" horiz-adv-x="833" d="M61 399q0 178 114.5 305t279.5 127q34 0 71.5 -8t81 -31t78.5 -57t60 -92t28 -131h-491q-2 -84 9 -154.5t37.5 -131t76.5 -94.5t120 -34q40 0 73 6.5t61.5 22t40 23t36.5 26.5l33 -41q-147 -151 -319 -151q-185 0 -287.5 108.5t-102.5 306.5zM150 1227q0 32 17.5 49.5 t47.5 17.5q33 0 58 -16t75 -70l252 -262h-82l-274 166q-57 34 -75.5 58t-18.5 57zM291 590h278q0 79 -35 127.5t-92 48.5q-58 0 -103.5 -53.5t-47.5 -122.5z" />
<glyph unicode="&#xe9;" horiz-adv-x="833" d="M61 399q0 178 114.5 305t279.5 127q34 0 71.5 -8t81 -31t78.5 -57t60 -92t28 -131h-491q-2 -84 9 -154.5t37.5 -131t76.5 -94.5t120 -34q40 0 73 6.5t61.5 22t40 23t36.5 26.5l33 -41q-147 -151 -319 -151q-185 0 -287.5 108.5t-102.5 306.5zM285 946l252 262 q50 54 75 70t58 16q30 0 47.5 -17.5t17.5 -49.5q0 -33 -18.5 -57t-75.5 -58l-274 -166h-82zM291 590h278q0 79 -35 127.5t-92 48.5q-58 0 -103.5 -53.5t-47.5 -122.5z" />
<glyph unicode="&#xea;" horiz-adv-x="833" d="M61 399q0 178 114.5 305t279.5 127q34 0 71.5 -8t81 -31t78.5 -57t60 -92t28 -131h-491q-2 -84 9 -154.5t37.5 -131t76.5 -94.5t120 -34q40 0 73 6.5t61.5 22t40 23t36.5 26.5l33 -41q-147 -151 -319 -151q-185 0 -287.5 108.5t-102.5 306.5zM158 946l217 344h133 l219 -344h-68l-217 209l-217 -209h-67zM291 590h278q0 79 -35 127.5t-92 48.5q-58 0 -103.5 -53.5t-47.5 -122.5z" />
<glyph unicode="&#xeb;" horiz-adv-x="833" d="M61 399q0 178 114.5 305t279.5 127q34 0 71.5 -8t81 -31t78.5 -57t60 -92t28 -131h-491q-2 -84 9 -154.5t37.5 -131t76.5 -94.5t120 -34q40 0 73 6.5t61.5 22t40 23t36.5 26.5l33 -41q-147 -151 -319 -151q-185 0 -287.5 108.5t-102.5 306.5zM168 1118q0 40 29 71.5 t73 31.5t73.5 -31.5t29.5 -71.5t-29.5 -71t-73.5 -31t-73 31t-29 71zM291 590h278q0 79 -35 127.5t-92 48.5q-58 0 -103.5 -53.5t-47.5 -122.5zM512 1118q0 40 29 71.5t73 31.5t73.5 -31.5t29.5 -71.5t-29.5 -71t-73.5 -31t-73 31t-29 71z" />
<glyph unicode="&#xec;" horiz-adv-x="569" d="M-8 1227q0 32 17.5 49.5t47.5 17.5q33 0 58 -16t75 -70l252 -262h-82l-274 166q-57 34 -75.5 58t-18.5 57zM57 0v66q73 0 99 21.5t26 90.5v395q0 67 -16 90t-70 37q-12 3 -12 31q0 14 4.5 20t17.5 11q3 1 71.5 23t113 34t61.5 12t26 -15t9 -60v-586q0 -65 24.5 -84.5 t100.5 -19.5v-66h-455z" />
<glyph unicode="&#xed;" horiz-adv-x="569" d="M57 0v66q73 0 99 21.5t26 90.5v395q0 67 -16 90t-70 37q-12 3 -12 31q0 14 4.5 20t17.5 11q3 1 71.5 23t113 34t61.5 12t26 -15t9 -60v-586q0 -65 24.5 -84.5t100.5 -19.5v-66h-455zM127 946l252 262q50 54 75 70t58 16q30 0 48 -17.5t18 -49.5q0 -33 -19 -57t-76 -58 l-274 -166h-82z" />
<glyph unicode="&#xee;" horiz-adv-x="569" d="M0 946l217 344h133l219 -344h-67l-217 209l-217 -209h-68zM57 0v66q73 0 99 21.5t26 90.5v395q0 67 -16 90t-70 37q-12 3 -12 31q0 14 4.5 20t17.5 11q3 1 71.5 23t113 34t61.5 12t26 -15t9 -60v-586q0 -65 24.5 -84.5t100.5 -19.5v-66h-455z" />
<glyph unicode="&#xef;" horiz-adv-x="569" d="M10 1118q0 40 29.5 71.5t73.5 31.5t73 -31.5t29 -71.5t-29 -71t-73 -31t-73.5 31t-29.5 71zM57 0v66q73 0 99 21.5t26 90.5v395q0 67 -16 90t-70 37q-12 3 -12 31q0 14 4.5 20t17.5 11q3 1 71.5 23t113 34t61.5 12t26 -15t9 -60v-586q0 -65 24.5 -84.5t100.5 -19.5v-66 h-455zM354 1118q0 40 29.5 71.5t73.5 31.5t73 -31.5t29 -71.5t-29 -71t-73 -31t-73.5 31t-29.5 71z" />
<glyph unicode="&#xf0;" horiz-adv-x="948" d="M61 408q0 77 27.5 151t77.5 135.5t130 99t177 37.5q93 0 143 -24q-15 121 -96 248l-231 -142l-37 50l235 143q-85 132 -188 209l20 69q147 -75 279 -210l240 145l36 -49l-235 -144q246 -283 246 -643q0 -80 -14 -151.5t-45.5 -135.5t-78.5 -110.5t-117 -74t-157 -27.5 q-97 0 -177 37.5t-130 99t-77.5 136t-27.5 151.5zM295 408q0 -359 178 -359t178 359q0 358 -178 358t-178 -358z" />
<glyph unicode="&#xf1;" horiz-adv-x="1062" d="M53 0v66q63 0 87 22t24 90v395q0 71 -17.5 98.5t-58.5 35.5q-8 1 -12 2.5t-7 6.5t-3 15q0 25 22 31q31 9 92 35.5t109.5 48.5t54.5 22q25 0 25 -47v-96q77 58 129 82t127 24q134 0 203 -72t69 -235v-348q-3 -65 23.5 -87.5t87.5 -22.5v-66h-426v66q62 6 86 26.5t24 71.5 v323q0 139 -34.5 188.5t-116.5 49.5q-85 0 -172 -78v-477q0 -64 20.5 -84t77.5 -20v-66h-414zM254 1008q2 81 43.5 140.5t126.5 59.5q51 0 135.5 -20.5t118.5 -20.5q66 0 80 70h53q-8 -87 -55 -142t-127 -55q-26 0 -125 23q-79 22 -127 22q-30 0 -48.5 -23.5t-21.5 -53.5 h-53z" />
<glyph unicode="&#xf2;" horiz-adv-x="948" d="M61 408q0 77 27.5 151t77.5 135.5t130 99t177 37.5t177 -37.5t130 -99t77.5 -135.5t27.5 -151t-27.5 -151.5t-77.5 -136t-130 -99t-177 -37.5t-177 37.5t-130 99t-77.5 136t-27.5 151.5zM182 1227q0 32 18 49.5t48 17.5q33 0 58 -16t75 -70l252 -262h-82l-275 166 q-57 34 -75.5 58t-18.5 57zM295 408q0 -359 178 -359t178 359q0 358 -178 358t-178 -358z" />
<glyph unicode="&#xf3;" horiz-adv-x="948" d="M61 408q0 77 27.5 151t77.5 135.5t130 99t177 37.5t177 -37.5t130 -99t77.5 -135.5t27.5 -151t-27.5 -151.5t-77.5 -136t-130 -99t-177 -37.5t-177 37.5t-130 99t-77.5 136t-27.5 151.5zM295 408q0 -359 178 -359t178 359q0 358 -178 358t-178 -358zM317 946l252 262 q50 54 75 70t58 16q30 0 48 -17.5t18 -49.5q0 -33 -18.5 -57t-75.5 -58l-275 -166h-82z" />
<glyph unicode="&#xf4;" horiz-adv-x="948" d="M61 408q0 77 27.5 151t77.5 135.5t130 99t177 37.5t177 -37.5t130 -99t77.5 -135.5t27.5 -151t-27.5 -151.5t-77.5 -136t-130 -99t-177 -37.5t-177 37.5t-130 99t-77.5 136t-27.5 151.5zM190 946l218 344h133l219 -344h-68l-217 209l-217 -209h-68zM295 408 q0 -359 178 -359t178 359q0 358 -178 358t-178 -358z" />
<glyph unicode="&#xf5;" horiz-adv-x="948" d="M61 408q0 77 27.5 151t77.5 135.5t130 99t177 37.5t177 -37.5t130 -99t77.5 -135.5t27.5 -151t-27.5 -151.5t-77.5 -136t-130 -99t-177 -37.5t-177 37.5t-130 99t-77.5 136t-27.5 151.5zM197 1008q2 81 43.5 140.5t126.5 59.5q51 0 135.5 -20.5t118.5 -20.5q65 0 79 70 h54q-8 -87 -55.5 -142t-127.5 -55q-26 0 -125 23q-79 22 -127 22q-30 0 -48 -23.5t-21 -53.5h-53zM295 408q0 -359 178 -359t178 359q0 358 -178 358t-178 -358z" />
<glyph unicode="&#xf6;" horiz-adv-x="948" d="M61 408q0 77 27.5 151t77.5 135.5t130 99t177 37.5t177 -37.5t130 -99t77.5 -135.5t27.5 -151t-27.5 -151.5t-77.5 -136t-130 -99t-177 -37.5t-177 37.5t-130 99t-77.5 136t-27.5 151.5zM201 1118q0 40 29 71.5t73 31.5t73.5 -31.5t29.5 -71.5t-29.5 -71t-73.5 -31 t-73 31t-29 71zM295 408q0 -359 178 -359t178 359q0 358 -178 358t-178 -358zM545 1118q0 40 29 71.5t73 31.5t73.5 -31.5t29.5 -71.5t-29.5 -71t-73.5 -31t-73 31t-29 71z" />
<glyph unicode="&#xf7;" horiz-adv-x="1228" d="M207 342v131h815v-131h-815zM498 74q0 47 34.5 81.5t81.5 34.5t82 -34.5t35 -81.5t-35 -82t-82 -35t-81.5 35t-34.5 82zM498 741q0 47 34.5 82t81.5 35t82 -35t35 -82t-35 -81.5t-82 -34.5t-81.5 34.5t-34.5 81.5z" />
<glyph unicode="&#xf8;" horiz-adv-x="948" d="M61 408q0 77 27.5 151t77.5 135.5t130 99t177 37.5q84 0 154 -28l86 172h75l-100 -205q94 -57 145.5 -156t51.5 -206q0 -77 -27.5 -151.5t-77.5 -136t-130 -99t-177 -37.5q-87 0 -158 30l-94 -190h-80l111 225q-92 58 -141.5 155.5t-49.5 203.5zM295 408q0 -134 27 -220 l260 523q-40 55 -109 55q-178 0 -178 -358zM360 106q42 -57 113 -57q178 0 178 359q0 150 -30 227z" />
<glyph unicode="&#xf9;" horiz-adv-x="1062" d="M53 750v65l324 16v-585q0 -83 25.5 -119.5t82.5 -36.5q85 0 199 103v393q0 94 -27.5 124.5t-119.5 39.5v65l352 16v-645q0 -52 24.5 -72t96.5 -20v-65l-326 -45v131q-143 -131 -289 -131q-108 0 -165.5 59.5t-57.5 177.5v426q0 56 -22.5 76t-96.5 27zM240 1227 q0 32 17.5 49.5t47.5 17.5q33 0 58 -16t75 -70l252 -262h-82l-274 166q-57 34 -75.5 58t-18.5 57z" />
<glyph unicode="&#xfa;" horiz-adv-x="1062" d="M53 750v65l324 16v-585q0 -83 25.5 -119.5t82.5 -36.5q85 0 199 103v393q0 94 -27.5 124.5t-119.5 39.5v65l352 16v-645q0 -52 24.5 -72t96.5 -20v-65l-326 -45v131q-143 -131 -289 -131q-108 0 -165.5 59.5t-57.5 177.5v426q0 56 -22.5 76t-96.5 27zM375 946l252 262 q50 54 75 70t58 16q30 0 47.5 -17.5t17.5 -49.5q0 -33 -18.5 -57t-75.5 -58l-274 -166h-82z" />
<glyph unicode="&#xfb;" horiz-adv-x="1062" d="M53 750v65l324 16v-585q0 -83 25.5 -119.5t82.5 -36.5q85 0 199 103v393q0 94 -27.5 124.5t-119.5 39.5v65l352 16v-645q0 -52 24.5 -72t96.5 -20v-65l-326 -45v131q-143 -131 -289 -131q-108 0 -165.5 59.5t-57.5 177.5v426q0 56 -22.5 76t-96.5 27zM248 946l217 344 h133l219 -344h-67l-218 209l-217 -209h-67z" />
<glyph unicode="&#xfc;" horiz-adv-x="1062" d="M53 750v65l324 16v-585q0 -83 25.5 -119.5t82.5 -36.5q85 0 199 103v393q0 94 -27.5 124.5t-119.5 39.5v65l352 16v-645q0 -52 24.5 -72t96.5 -20v-65l-326 -45v131q-143 -131 -289 -131q-108 0 -165.5 59.5t-57.5 177.5v426q0 56 -22.5 76t-96.5 27zM258 1118 q0 40 29 71.5t73 31.5t73.5 -31.5t29.5 -71.5t-29.5 -71t-73.5 -31t-73 31t-29 71zM602 1118q0 40 29.5 71.5t73.5 31.5t73 -31.5t29 -71.5t-29 -71t-73 -31t-73.5 31t-29.5 71z" />
<glyph unicode="&#xfd;" d="M45 750v65h406v-65q-103 0 -103 -54q0 -23 27 -92l151 -391l123 354q27 83 27 117q0 66 -86 66v65h274v-65q-24 0 -38.5 -10.5t-34 -48t-48.5 -118.5l-239 -655q-27 -73 -48.5 -124t-52 -107.5t-60 -90.5t-69.5 -56.5t-84 -22.5q-39 0 -71.5 26.5t-32.5 67.5 q0 42 25.5 64t64.5 22q10 0 34.5 -4t43.5 -4q41 0 72 33.5t57 107.5l43 123l-283 688q-26 63 -43.5 84.5t-54.5 24.5zM297 946l252 262q50 54 75 70t58 16q30 0 48 -17.5t18 -49.5q0 -33 -19 -57t-76 -58l-274 -166h-82z" />
<glyph unicode="&#xfe;" horiz-adv-x="1024" d="M35 -418q72 0 95.5 29t23.5 115v1400q0 66 -15 89.5t-63 37.5q-21 5 -21 31q0 23 17 29q5 2 54.5 18t79 25t68 18.5t56.5 9.5q15 0 21.5 -13.5t6.5 -59.5v-596q26 27 41.5 41t47 35t71.5 30.5t90 9.5q105 0 188 -60.5t124 -148.5t41 -182q0 -87 -29 -168.5t-81 -146 t-132 -103t-174 -38.5q-49 0 -88.5 9.5t-56 19t-42.5 26.5v-336q0 -73 25 -97t115 -24v-65h-463v65zM358 233q0 -86 44 -135t130 -49q195 0 195 342t-195 342q-77 0 -125.5 -50.5t-48.5 -133.5v-316z" />
<glyph unicode="&#xff;" d="M45 750v65h406v-65q-103 0 -103 -54q0 -23 27 -92l151 -391l123 354q27 83 27 117q0 66 -86 66v65h274v-65q-24 0 -38.5 -10.5t-34 -48t-48.5 -118.5l-239 -655q-27 -73 -48.5 -124t-52 -107.5t-60 -90.5t-69.5 -56.5t-84 -22.5q-39 0 -71.5 26.5t-32.5 67.5 q0 42 25.5 64t64.5 22q10 0 34.5 -4t43.5 -4q41 0 72 33.5t57 107.5l43 123l-283 688q-26 63 -43.5 84.5t-54.5 24.5zM180 1118q0 40 29.5 71.5t73.5 31.5t73 -31.5t29 -71.5t-29 -71t-73 -31t-73.5 31t-29.5 71zM524 1118q0 40 29.5 71.5t73.5 31.5t73 -31.5t29 -71.5 t-29 -71t-73 -31t-73.5 31t-29.5 71z" />
<glyph unicode="&#x152;" horiz-adv-x="2086" d="M74 641q0 98 26.5 192t83.5 178.5t137 148t196 101t253 37.5h1098l53 -184q10 -33 10 -47q0 -9 -12.5 -20t-28.5 -11q-10 0 -17.5 7.5t-25.5 35.5q-65 97 -154.5 129.5t-238.5 32.5q-76 0 -97.5 -19.5t-21.5 -82.5v-406h172q43 0 70 5.5t52 23.5t39 55t20 96h77v-450h-77 q-6 59 -20 96t-39 55t-52 23.5t-70 5.5h-172v-436q0 -44 5.5 -66.5t29 -38.5t63 -20t113.5 -4q75 0 131.5 10t97 27t75.5 51t60.5 69.5t59.5 94.5q5 9 11.5 12.5t23.5 3.5q31 0 31 -14q0 -1 -4 -37l-45 -295h-650q-35 0 -245 -6q-305 -10 -322 -10q-182 0 -318.5 50.5 t-217.5 141t-120.5 207t-39.5 258.5zM340 641q0 -156 32 -272.5t90 -185t132 -101.5t164 -33q170 0 240.5 59.5t70.5 200.5v664q0 141 -70.5 200.5t-240.5 59.5q-88 0 -163.5 -38t-132.5 -110.5t-89.5 -186.5t-32.5 -257z" />
<glyph unicode="&#x153;" horiz-adv-x="1402" d="M53 408q0 77 27.5 151t77.5 135.5t130 99t177 37.5q102 -4 170 -34.5t123 -79.5q73 63 128.5 88.5t139.5 25.5q153 0 236 -85.5t86 -274.5h-500q0 -215 56 -300t173 -85q61 0 109 17.5t117 62.5l40 -53q-32 -28 -55 -44.5t-63 -39t-89.5 -34t-107.5 -11.5 q-164 0 -270 106q-122 -106 -293 -106q-97 0 -177 37.5t-130 99t-77.5 136t-27.5 151.5zM274 408q0 -164 48.5 -261.5t142.5 -97.5t142 97.5t48 261.5t-48 261t-142 97t-142.5 -97t-48.5 -261zM856 549h307q0 108 -35.5 159.5t-119.5 51.5q-152 0 -152 -211z" />
<glyph unicode="&#x178;" horiz-adv-x="1366" d="M45 1221v77h588v-77q-69 0 -96 -11.5t-27 -42.5q0 -12 3.5 -24.5t12.5 -28.5t14.5 -26t20 -31t19.5 -29l202 -315l174 272q38 60 51.5 83t25 50t11.5 49q0 31 -24.5 42.5t-99.5 11.5v77h401v-77q-63 0 -99 -22t-77 -85l-328 -493v-392q0 -86 42.5 -118.5t168.5 -32.5v-78 h-696v78q131 0 175 32.5t44 118.5v373l-322 502q-47 73 -80.5 95t-103.5 22zM362 1542q0 40 29.5 71.5t73.5 31.5t73 -31.5t29 -71.5t-29 -71t-73 -31t-73.5 31t-29.5 71zM707 1542q0 40 29 71.5t73 31.5t73 -31.5t29 -71.5t-29 -71t-73 -31t-73 31t-29 71z" />
<glyph unicode="&#x2c6;" horiz-adv-x="569" d="M0 946l217 344h133l219 -344h-67l-217 209l-217 -209h-68z" />
<glyph unicode="&#x2dc;" horiz-adv-x="569" d="M6 1008q2 81 43.5 140.5t126.5 59.5q51 0 135.5 -20.5t118.5 -20.5q66 0 80 70h53q-8 -87 -55 -142t-127 -55q-26 0 -125 23q-79 22 -127 22q-30 0 -48.5 -23.5t-21.5 -53.5h-53z" />
<glyph unicode="&#x2000;" horiz-adv-x="877" />
<glyph unicode="&#x2001;" horiz-adv-x="1755" />
<glyph unicode="&#x2002;" horiz-adv-x="877" />
<glyph unicode="&#x2003;" horiz-adv-x="1755" />
<glyph unicode="&#x2004;" horiz-adv-x="585" />
<glyph unicode="&#x2005;" horiz-adv-x="438" />
<glyph unicode="&#x2006;" horiz-adv-x="292" />
<glyph unicode="&#x2007;" horiz-adv-x="292" />
<glyph unicode="&#x2008;" horiz-adv-x="219" />
<glyph unicode="&#x2009;" horiz-adv-x="351" />
<glyph unicode="&#x200a;" horiz-adv-x="97" />
<glyph unicode="&#x2010;" horiz-adv-x="681" d="M86 309v146l510 51v-146z" />
<glyph unicode="&#x2011;" horiz-adv-x="681" d="M86 309v146l510 51v-146z" />
<glyph unicode="&#x2012;" horiz-adv-x="681" d="M86 309v146l510 51v-146z" />
<glyph unicode="&#x2013;" d="M0 354v107h909v-107h-909z" />
<glyph unicode="&#x2014;" horiz-adv-x="2048" d="M256 354v107h1536v-107h-1536z" />
<glyph unicode="&#x2018;" horiz-adv-x="454" d="M49 1008q0 34 8 67t18.5 59t32.5 56t37 48.5t45.5 47.5t44 41.5t46.5 40.5l32 -51q-145 -123 -145 -199q0 -29 16.5 -41t63.5 -22q74 -15 107.5 -48.5t33.5 -91.5q0 -63 -37.5 -102t-109.5 -39q-90 0 -141.5 67.5t-51.5 166.5z" />
<glyph unicode="&#x2019;" horiz-adv-x="454" d="M66 1206q0 63 37.5 102.5t109.5 39.5q90 0 141.5 -67.5t51.5 -166.5q0 -34 -8 -67t-18.5 -59t-32.5 -56t-37 -48.5t-45.5 -47.5t-44 -41.5t-46.5 -40.5l-33 51q146 124 146 199q0 29 -16.5 41t-63.5 22q-74 15 -107.5 48t-33.5 91z" />
<glyph unicode="&#x201a;" horiz-adv-x="454" d="M66 141q0 63 37.5 102.5t109.5 39.5q90 0 141.5 -67.5t51.5 -166.5q0 -34 -8 -67t-18.5 -59t-32.5 -56t-37 -48.5t-45.5 -47.5t-44 -41.5t-46.5 -40.5l-33 51q146 124 146 199q0 29 -16.5 41t-63.5 22q-74 15 -107.5 48t-33.5 91z" />
<glyph unicode="&#x201c;" horiz-adv-x="948" d="M76 1008q0 47 15.5 92.5t34.5 77.5t56.5 72.5t59 60t65.5 57.5l33 -51q-145 -123 -145 -199q0 -30 16.5 -42t62.5 -21q74 -15 108 -48.5t34 -91.5q0 -63 -38 -102t-110 -39q-90 0 -141 67.5t-51 166.5zM530 1008q0 34 8 67t18.5 59t32.5 56t37 48.5t45.5 47.5t44 41.5 t46.5 40.5l33 -51q-146 -124 -146 -199q0 -29 16.5 -41t63.5 -22q74 -15 107.5 -48.5t33.5 -91.5q0 -63 -37.5 -102t-109.5 -39q-90 0 -141.5 67.5t-51.5 166.5z" />
<glyph unicode="&#x201d;" horiz-adv-x="948" d="M78 1206q0 63 37.5 102.5t109.5 39.5q90 0 141.5 -67.5t51.5 -166.5q0 -34 -8 -67t-18.5 -59t-32.5 -56t-37 -48.5t-45.5 -47.5t-44 -41.5t-46.5 -40.5l-32 51q145 123 145 199q0 29 -16.5 41t-63.5 22q-74 15 -107.5 48t-33.5 91zM532 1206q0 63 38 102.5t110 39.5 q90 0 141 -67.5t51 -166.5q0 -47 -15.5 -92.5t-34.5 -77.5t-56.5 -72.5t-59 -60t-65.5 -57.5l-33 51q146 124 146 199q0 29 -16.5 41t-63.5 22q-74 15 -108 48t-34 91z" />
<glyph unicode="&#x201e;" horiz-adv-x="948" d="M78 141q0 63 37.5 102.5t109.5 39.5q90 0 141.5 -67.5t51.5 -166.5q0 -34 -8 -67t-18.5 -59t-32.5 -56t-37 -48.5t-45.5 -47.5t-44 -41.5t-46.5 -40.5l-32 51q145 123 145 199q0 29 -16.5 41t-63.5 22q-74 15 -107.5 48t-33.5 91zM532 141q0 63 38 102.5t110 39.5 q90 0 141 -67.5t51 -166.5q0 -47 -15.5 -92.5t-34.5 -77.5t-56.5 -72.5t-59 -60t-65.5 -57.5l-33 51q146 124 146 199q0 29 -16.5 41t-63.5 22q-74 15 -108 48t-34 91z" />
<glyph unicode="&#x2022;" horiz-adv-x="1024" d="M188 649q0 135 94.5 230.5t229.5 95.5t230.5 -95.5t95.5 -230.5t-95.5 -229t-230.5 -94t-229.5 94t-94.5 229z" />
<glyph unicode="&#x2026;" horiz-adv-x="2048" d="M78 133q0 65 42.5 107.5t106.5 42.5t107 -42.5t43 -107.5t-43 -107t-107 -42t-106.5 42t-42.5 107zM760 133q0 65 42.5 107.5t106.5 42.5t107 -42.5t43 -107.5t-43 -107t-107 -42t-106.5 42t-42.5 107zM1442 133q0 65 42.5 107.5t106.5 42.5t107 -42.5t43 -107.5 t-43 -107t-107 -42t-106.5 42t-42.5 107z" />
<glyph unicode="&#x202f;" horiz-adv-x="351" />
<glyph unicode="&#x2039;" horiz-adv-x="681" d="M152 401v13q40 24 103.5 76.5t104.5 90t111 103.5q35 31 43 31q6 0 11 -6.5t5 -16.5q0 -37 -174 -262q-2 -3 -6.5 -7t-7 -7.5t-2.5 -7.5t2.5 -7.5t7 -8.5t6.5 -7q174 -225 174 -262q0 -10 -5 -16.5t-11 -6.5q-8 0 -43 31q-70 66 -111 103.5t-104.5 90t-103.5 76.5z" />
<glyph unicode="&#x203a;" horiz-adv-x="681" d="M152 123q0 37 174 262q2 2 6.5 7t7 8.5t2.5 7.5t-2.5 7.5t-7 7.5t-6.5 7q-174 225 -174 262q0 10 5 16.5t11 6.5q8 0 43 -31q70 -66 111 -103.5t104.5 -90t103.5 -76.5v-13q-40 -24 -103.5 -76.5t-104.5 -90t-111 -103.5q-35 -31 -43 -31q-6 0 -11 6.5t-5 16.5z" />
<glyph unicode="&#x205f;" horiz-adv-x="438" />
<glyph unicode="&#x2122;" horiz-adv-x="2027" d="M49 1118v180h729v-180h-45q-29 135 -133 135h-100v-635q0 -57 21.5 -79.5t84.5 -22.5v-45h-385v45q63 0 85 22.5t22 79.5v635h-90q-114 0 -144 -135h-45zM864 1253v45h273l299 -606l315 606h227v-45q-62 0 -84.5 -26t-25.5 -82v-527q0 -57 23.5 -79.5t86.5 -22.5v-45 h-389v45q63 0 85 22.5t22 79.5v461h-4l-303 -608h-25l-293 606h-6v-459q0 -57 21.5 -79.5t84.5 -22.5v-45h-270v45q63 0 85 22.5t22 79.5v531q-20 47 -59 75.5t-85 28.5z" />
<glyph unicode="&#x25fc;" horiz-adv-x="819" d="M0 0v819h819v-819h-819z" />
<glyph unicode="&#xfb01;" horiz-adv-x="1099" d="M45 0v66q66 0 94.5 21.5t28.5 84.5v533h-102q-17 0 -17 6q0 4 4 16l13 29q15 39 43 39h26q33 0 33 34q0 31 3.5 68t15.5 93t31.5 107t56.5 105t85.5 93t122.5 64t164 25q120 0 182 -35.5t62 -91.5q0 -46 -26 -63.5t-60 -17.5q-30 0 -63 22.5t-58 49t-62.5 49t-74.5 22.5 q-82 0 -128 -91.5t-46 -256.5v-176h297q53 0 141 18q70 18 92 18q17 0 26 -15.5t9 -59.5v-586q0 -65 23 -84.5t92 -19.5v-66h-435v66q66 0 90.5 22t24.5 90v395q0 72 -21.5 102t-76.5 30h-262v-515q0 -75 27.5 -99.5t91.5 -24.5v-66h-447z" />
<glyph unicode="&#xfb02;" horiz-adv-x="1099" d="M49 0v66q66 0 94.5 21.5t28.5 84.5v533h-102q-17 0 -17 6q0 4 4 16l13 29q15 39 43 39h26q33 0 33 34q0 37 3.5 75.5t15 95.5t31 107t56 102.5t84.5 89.5t121 61t162 24q39 0 82 -8t47 -8q9 0 69 8t64 8q21 0 28 -9.5t7 -41.5v-1128q0 -87 23 -112t100 -27v-66h-451v66 q77 2 100 27t23 112v500h-360v-515q0 -75 27.5 -99.5t91.5 -24.5v-66h-447zM377 795h360v331q0 83 -51.5 138t-134.5 55q-82 0 -128 -91.5t-46 -256.5v-176z" />
</font>
</defs>
</svg>
