<?xml version="1.0" standalone="no"?>
<!DOCTYPE svg PUBLIC "-//W3C//DTD SVG 1.1//EN" "http://www.w3.org/Graphics/SVG/1.1/DTD/svg11.dtd" >
<svg xmlns="http://www.w3.org/2000/svg">
<metadata></metadata>
<defs>
<font id="granjonitalic" horiz-adv-x="909" >
<font-face units-per-em="2048" ascent="1638" descent="-410" />
<missing-glyph horiz-adv-x="454" />
<glyph horiz-adv-x="2048" />
<glyph horiz-adv-x="2048" />
<glyph unicode="&#xd;" horiz-adv-x="2048" />
<glyph unicode=" "  horiz-adv-x="454" />
<glyph unicode="&#x09;" horiz-adv-x="454" />
<glyph unicode="&#xa0;" horiz-adv-x="454" />
<glyph unicode="!" horiz-adv-x="530" d="M45 76q0 39 27.5 67.5t68.5 28.5t71 -29t30 -67t-30 -65t-71 -27t-68.5 26.5t-27.5 65.5zM143 270l148 918q15 93 36.5 124t65.5 31q78 0 78 -77q0 -13 -1.5 -25.5t-6.5 -33t-8 -32t-13.5 -46t-15.5 -52.5l-141 -483q-16 -56 -45 -165t-43 -159h-54z" />
<glyph unicode="&#x22;" horiz-adv-x="681" d="M204.5 1186.5q-0.5 14.5 1.5 42t9 44t22.5 29.5t38.5 13q81 0 68 -166l-35 -418q0 -1 -1 -10t-1.5 -14t-3 -13.5t-5.5 -13t-9 -8.5t-13 -4q-8 0 -14 4t-9 8.5t-5.5 13t-3 14t-1.5 13.5t-1 10l-35 418q-2 23 -2.5 37.5zM500 1198q0 20 4 51.5t20.5 48.5t44.5 17 q83 0 70 -166l-35 -418q0 -1 -1 -10l-1.5 -13.5t-3 -13.5t-6 -13.5t-9.5 -8.5t-14 -4q-9 0 -15 4.5t-9 13.5t-4.5 15t-2.5 18l-1 12l-35 418q-2 29 -2 49z" />
<glyph unicode="#" d="M0 418v90h219l39 283h-205v90h217l58 417h104l-59 -417h250l57 417h104l-59 -417h188v-90h-202l-39 -283h190v-90h-203l-57 -418h-104l59 418h-250l-57 -418h-105l60 418h-205zM319 508h252l39 283h-252z" />
<glyph unicode="$" d="M-2 133q0 60 7.5 104t19 64.5t24.5 20.5q8 0 12.5 -4.5t7 -15t4 -23.5t5 -35.5t8.5 -44.5q14 -53 59 -86l185 604q-84 75 -131 152t-47 175q0 123 96 209t262 86h8l33 111h61l-37 -119q45 -7 109 -33l45 152h62l-54 -180q97 -60 97 -115q0 -56 -8 -90.5t-19 -34.5 q-10 0 -21 23t-30.5 63t-44.5 68l-140 -469q90 -72 140.5 -154.5t50.5 -200.5q0 -104 -57 -189t-150 -133t-203 -54l-90 -297h-61l90 299q-44 5 -115 24l-98 -323h-62l105 342q-123 54 -123 104zM199 82q52 -24 112 -27l162 539q-17 16 -50.5 43.5t-45.5 38.5zM274 1081 q0 -115 103 -211l125 418q-10 2 -33 2q-78 0 -136.5 -54t-58.5 -155zM373 53q114 8 190 81t76 194q0 115 -117 223zM424 829q14 -11 46 -36t50 -39l142 473q-47 37 -103 51z" />
<glyph unicode="%" horiz-adv-x="1593" d="M125 887q0 90 40.5 177t103.5 149t142 100.5t154 38.5q153 0 178 -148q48 -39 121 -39q63 0 120.5 16t96.5 37t78 55.5t58 56t45 54.5h75l-1011 -1400h-90l847 1171l-4 4q-114 -47 -223 -47q-44 0 -108 27q-26 -207 -142 -355.5t-252 -148.5q-104 0 -166.5 74.5 t-62.5 177.5zM231 827q0 -143 131 -143q79 0 158.5 76.5t128.5 192.5t49 227q-27 24 -38 43.5t-21 64.5q-31 15 -70 15q-75 0 -156.5 -87t-131.5 -198.5t-50 -190.5zM840 236q0 90 40.5 176.5t103.5 149t142 100.5t154 38q184 0 184 -208q0 -62 -29.5 -147t-79 -166.5 t-126.5 -138t-160 -56.5q-104 0 -166.5 74.5t-62.5 177.5zM946 176q0 -143 131 -143q86 0 166.5 82.5t126 193.5t45.5 205q0 63 -31.5 100t-87.5 37q-61 0 -126.5 -52.5t-113.5 -126.5t-79 -156t-31 -140z" />
<glyph unicode="&#x26;" horiz-adv-x="1441" d="M78 307q0 41 14.5 81t36.5 71t55.5 61.5t63.5 52t69.5 44t65 35t58 27.5t40.5 19q-88 68 -88 166q0 64 49.5 134t129 117.5t157.5 47.5q81 0 123.5 -48.5t42.5 -100.5q0 -50 -27.5 -79.5t-64.5 -29.5q-26 0 -39.5 13.5t-13.5 35.5q0 24 17 40.5t33.5 31.5t16.5 35 q0 24 -25 38.5t-61 14.5q-87 0 -161 -74t-74 -178q0 -59 21.5 -98t55.5 -39q24 0 56 3t37 3q43 0 43 -35q0 -41 -58 -41q-28 0 -69.5 4.5t-57.5 4.5q-10 0 -35 -8t-60.5 -23.5t-72.5 -42.5t-69.5 -60t-53 -81t-20.5 -101q0 -52 22 -105.5t61 -99t101 -74t135 -28.5 q108 0 200.5 37t152.5 96.5t93.5 132t33.5 144.5q0 40 -15 106q-71 29 -149 29q-55 0 -75.5 -10t-20.5 -35q0 -8 11 -34t11 -44q0 -24 -20.5 -43t-44.5 -19q-25 0 -41.5 19.5t-16.5 48.5q0 73 62.5 123.5t173.5 50.5q94 0 194 -14q17 -2 52 -6.5t59 -6.5t45 -2q70 0 70 33 q0 19 -20.5 48t-20.5 48q0 22 15 37t38 15q29 0 49.5 -22.5t20.5 -61.5q0 -74 -66.5 -120t-163.5 -46q-32 0 -112 8q0 -2 9 -53t9 -86q0 -50 -21.5 -105.5t-69.5 -114t-115 -105t-169 -76t-221 -29.5q-164 0 -277.5 86.5t-113.5 236.5z" />
<glyph unicode="'" horiz-adv-x="454" d="M229 1149q-13 166 68 166q83 0 70 -166l-35 -418q0 -1 -1 -10l-1.5 -13.5t-3 -13.5t-6 -13.5t-9.5 -8.5t-14 -4q-7 0 -13 4t-9 8.5t-5.5 13t-3 13.5t-1.5 14t-1 10z" />
<glyph unicode="(" horiz-adv-x="681" d="M143 344q0 312 144 577.5t407 467.5v-41q-187 -176 -307.5 -505.5t-120.5 -621.5q0 -167 30 -320.5t66 -228.5v-41q-110 148 -164.5 336.5t-54.5 376.5z" />
<glyph unicode=")" horiz-adv-x="681" d="M-117 -328q187 176 307.5 505.5t120.5 621.5q0 167 -30 320.5t-66 228.5v41q110 -148 164.5 -336.5t54.5 -376.5q0 -312 -144 -577.5t-407 -467.5v41z" />
<glyph unicode="*" d="M139 1067q0 21 15 36t36 15q9 0 18 -1.5t15 -3t15 -6t12.5 -6t13.5 -7.5t12 -7l181 -104l16 12l-111 181q-15 23 -20 31t-9.5 21t-4.5 27q0 23 16 39.5t39 16.5q50 0 76 -115l43 -192h24l37 170q15 73 32.5 98.5t47.5 25.5q25 0 40 -13.5t15 -35.5q0 -21 -8 -40.5 t-33 -59.5l-102 -154l16 -12l189 107q55 32 82 32q19 0 32 -15t13 -38q0 -26 -16 -40.5t-58 -24.5l-231 -60v-18l227 -52q82 -17 82 -73q0 -47 -60 -47q-40 0 -104 43l-158 104l-16 -14l106 -178q37 -63 37 -97q0 -17 -14 -32t-37 -15q-28 0 -48.5 26.5t-29.5 72.5l-47 217 h-20l-51 -242q-8 -39 -23 -56.5t-41 -17.5q-23 0 -39 15t-16 34q0 37 45 117l94 160l-14 10l-148 -102q-61 -43 -123 -43q-17 0 -29 12t-12 31q0 26 28 46.5t73 31.5l202 49v18l-219 51q-39 9 -63.5 28.5t-24.5 43.5z" />
<glyph unicode="+" horiz-adv-x="1228" d="M172 350v90h350v351h90v-351h351v-90h-351v-350h-90v350h-350z" />
<glyph unicode="," horiz-adv-x="454" d="M-117 -207q25 14 34.5 20t36 25.5t39 35.5t24.5 42t12 53q0 31 -18.5 70t-18.5 72q0 47 26 68.5t68 21.5q46 0 72 -30t26 -81q0 -109 -84.5 -205t-216.5 -139v47z" />
<glyph unicode="-" horiz-adv-x="681" d="M90 332v82l508 45v-82z" />
<glyph unicode="." horiz-adv-x="454" d="M0 92q0 44 32.5 76.5t76.5 32.5t76 -32.5t32 -76.5t-32 -76t-76 -32t-76.5 32t-32.5 76z" />
<glyph unicode="/" horiz-adv-x="569" d="M-39 -16l555 1331h92l-555 -1331h-92z" />
<glyph unicode="0" d="M51 397q0 143 43.5 304t114.5 297.5t174.5 226.5t212.5 90q120 0 191 -115.5t71 -298.5q0 -114 -27 -241.5t-78 -246.5t-117 -215.5t-150.5 -155t-172.5 -58.5q-120 0 -191 115t-71 298zM174 266q0 -73 10 -122t29.5 -74.5t43 -35t56.5 -9.5q69 0 136.5 86t117 213.5 t89 269.5t59.5 259.5t20 178.5q0 73 -10 122t-29.5 74.5t-43 35.5t-56.5 10q-69 0 -136.5 -86t-117 -213.5t-89 -270t-59.5 -260t-20 -178.5z" />
<glyph unicode="1" d="M57 -4v41q44 1 70 3.5t51.5 10.5t39.5 20t29 36.5t26 55t24 79.5l184 671q37 125 37 177q0 34 -23.5 49.5t-97.5 15.5q-26 0 -80 -8v41q203 20 359 104q9 5 19 11.5t14.5 9t9.5 2.5q10 0 10 -12q0 -18 -8 -50l-252 -901q-63 -228 -63 -250q0 -34 35 -48t137 -17v-41 q-172 4 -261 4q-88 0 -260 -4z" />
<glyph unicode="2" d="M4 0v47l309 346q204 229 287.5 357.5t83.5 238.5q0 100 -61 164t-170 64q-145 0 -308 -148l-12 35q116 117 204.5 164t194.5 47q124 0 205.5 -78t81.5 -193q0 -72 -22 -138.5t-75.5 -143t-120 -150t-179.5 -186.5l-256 -256q-29 -36 -31 -45q0 -7 6 -8.5t25 -1.5h270 q156 0 232 69l8 8t7 6.5t5.5 4.5t5.5 4t4.5 2.5t4.5 2t4.5 1t5.5 0.5q16 0 16 -20q0 -15 -12 -37l-82 -156h-631z" />
<glyph unicode="3" d="M-10 4l14 47q91 -14 141 -14q187 0 297.5 97.5t110.5 238.5q0 251 -307 319v33q19 9 67 26.5t94 34t100.5 45t94.5 60.5t67 79.5t27 102.5q0 81 -58 135t-142 54q-44 0 -101.5 -12.5t-91.5 -28.5l-4 32q143 62 279 62q124 0 188.5 -63.5t64.5 -166.5q0 -53 -22 -99 t-53 -78t-81 -62t-90.5 -48t-95.5 -38q-6 -3 -13.5 -5.5t-11.5 -4t-9 -3.5t-7.5 -3.5t-5.5 -3t-4 -2.5t-2 -3t-1.5 -4t-0.5 -4q0 -6 19.5 -13.5t48.5 -17.5t63 -32.5t63 -52.5t48.5 -83.5t19.5 -121.5q0 -185 -145 -303.5t-395 -118.5q-108 0 -166 20z" />
<glyph unicode="4" d="M41 479v109l743 727h74l-199 -737h199l-18 -99h-209l-135 -479h-123l135 479h-467zM106 578h431l159 571l-4 4z" />
<glyph unicode="5" d="M-16 -16v53q276 27 437 148t161 290q0 65 -21 117t-54.5 83.5t-74 55.5t-80.5 37t-73.5 22.5t-54.5 18t-21 18.5q0 17 26 95l129 360h355q22 0 42 9t31 19.5t22.5 19.5t18.5 9q17 0 17 -20q0 -5 -15 -49l-43 -131h-405l-78 -207q107 -15 190 -55.5t132.5 -97.5t74.5 -122 t25 -135q0 -156 -98 -279.5t-266.5 -191t-376.5 -67.5z" />
<glyph unicode="6" d="M57 401q0 186 73 359t204 313q225 242 549 242v-41q-79 -1 -153 -26.5t-131 -65t-107.5 -90.5t-85 -101.5t-62 -99.5t-41 -82t-18.5 -51l16 -6q100 67 211 67q80 0 142.5 -30.5t99 -81t55 -109t18.5 -119.5q0 -86 -34.5 -174.5t-91.5 -159.5t-138.5 -116t-169.5 -45 q-68 0 -126.5 24t-106.5 72.5t-75.5 131t-27.5 189.5zM193 272q0 -122 46.5 -184.5t133.5 -62.5q79 0 154 77t120 194.5t45 235.5q0 238 -178 238q-39 0 -81.5 -18t-85.5 -58t-77 -96.5t-55.5 -141.5t-21.5 -184z" />
<glyph unicode="7" d="M133 0l375 614q283 465 283 506q0 19 -72 19h-340q-63 0 -101.5 -32t-76.5 -124h-56l162 381h51q0 -2 -1 -14t-1 -23q0 -45 78 -45h492v-61l-635 -1221h-158z" />
<glyph unicode="8" d="M33 276q0 130 91.5 236t278.5 168q-145 157 -145 305q0 74 29.5 137.5t77.5 105t106.5 64.5t118.5 23q122 0 196 -75t74 -177q0 -63 -21 -114t-63.5 -92.5t-84 -70t-105.5 -63.5q39 -41 63.5 -70.5t54 -75t44 -97t14.5 -109.5q0 -158 -121 -272.5t-297 -114.5 q-131 0 -221 82t-90 210zM143 258q0 -92 58 -156.5t149 -64.5q103 0 181.5 81.5t78.5 211.5q0 51 -10.5 92t-37 80t-47 62t-66.5 68l-19 19q-33 -17 -51.5 -28t-53 -33.5t-55.5 -42.5t-48 -52t-42 -65t-26 -77.5t-11 -94.5zM381 1051q0 -31 7 -61t20.5 -57t26.5 -48.5 t33 -44t31.5 -35t30 -29.5t21.5 -20q199 138 199 342q0 83 -49.5 129.5t-116.5 46.5q-81 0 -142 -61t-61 -162z" />
<glyph unicode="9" d="M55 -16v41q79 1 153 26.5t131 65t107.5 90.5t85 101.5t62 99.5t41 82t18.5 51l-16 6q-101 -68 -211 -68q-80 0 -142.5 30.5t-99 81t-55 109t-18.5 119.5q0 116 57 230t159 190t218 76q67 0 126 -24t107 -73t75.5 -131.5t27.5 -189.5q0 -186 -73 -359t-204 -313 q-224 -241 -549 -241zM246 766q0 -238 178 -238q39 0 81.5 18t85.5 58t77 96.5t55.5 141.5t21.5 184q0 122 -46.5 185t-133.5 63q-79 0 -154 -77t-120 -195t-45 -236z" />
<glyph unicode=":" horiz-adv-x="454" d="M25 76q0 39 27.5 67.5t68.5 28.5t70.5 -28.5t29.5 -67.5q0 -38 -29.5 -65t-70.5 -27t-68.5 26.5t-27.5 65.5zM176 743q0 39 28 68t68 29q41 0 71 -29t30 -68q0 -38 -30 -65t-71 -27t-68.5 26.5t-27.5 65.5z" />
<glyph unicode=";" horiz-adv-x="454" d="M-117 -207q25 14 34.5 20t36 25.5t39 35.5t24.5 42t12 53q0 31 -18.5 70t-18.5 72q0 47 26 68.5t68 21.5q46 0 72 -30t26 -81q0 -109 -84.5 -205t-216.5 -139v47zM143 743q0 39 28 68t69 29t70.5 -29t29.5 -68q0 -38 -29.5 -65t-70.5 -27t-69 27t-28 65z" />
<glyph unicode="&#x3c;" horiz-adv-x="1228" d="M172 350v90l791 363v-98l-680 -310l680 -309v-98z" />
<glyph unicode="=" horiz-adv-x="1228" d="M172 197v90h791v-90h-791zM172 504v90h791v-90h-791z" />
<glyph unicode="&#x3e;" horiz-adv-x="1228" d="M172 -12v98l680 309l-680 310v98l791 -363v-90z" />
<glyph unicode="?" d="M94 979q0 32 17 76.5t53 95t84.5 93.5t120.5 71t153 28q153 0 242.5 -89.5t89.5 -206.5q0 -72 -21.5 -137t-52 -111t-79 -87.5t-87 -66.5t-93 -49.5t-79.5 -33.5t-63 -21l-78 -314q-34 3 -46.5 10t-12.5 21q0 7 3.5 21.5t4.5 17.5l76 317q64 16 128.5 52.5t119.5 88.5 t89.5 125.5t34.5 153.5q0 120 -63.5 180t-149.5 60q-100 0 -167.5 -79.5t-67.5 -186.5q0 -52 -24.5 -79.5t-61.5 -27.5q-30 0 -50 19.5t-20 58.5zM135 76q0 39 27.5 67.5t68.5 28.5t71 -29t30 -67t-30 -65t-71 -27t-68.5 26.5t-27.5 65.5z" />
<glyph unicode="@" horiz-adv-x="1638" d="M158 618q0 153 56.5 284.5t152 221t224 140.5t269.5 51q176 0 321 -73.5t228.5 -204.5t83.5 -292q0 -76 -24 -155t-67.5 -147.5t-113 -112t-151.5 -43.5q-45 0 -81.5 17.5t-55.5 41.5t-28.5 45t-8.5 31h-7q-9 -17 -24 -35t-41.5 -42t-67 -40t-86.5 -18q-78 -3 -133 55.5 t-55 183.5q0 78 29 159.5t78.5 148.5t122.5 110t153 43q30 0 52 -6.5t38 -23.5t22.5 -27t19.5 -34q3 -6 5 -9l21 78h135l-131 -492q-9 -36 -9 -55q0 -29 20 -49.5t60 -20.5q60 0 111.5 38t83 97t49.5 127t18 133q0 68 -23.5 140.5t-72 141t-115 122.5t-159 86.5t-197.5 32.5 q-115 0 -215 -44t-175 -125.5t-118 -205t-43 -273.5q0 -111 40.5 -213t113 -180t181 -125t235.5 -47q184 0 383 88l24 -49q-78 -34 -129.5 -53.5t-128 -37t-147.5 -17.5q-145 0 -268 41.5t-205 107.5t-140 150.5t-84 169.5t-26 165zM684 526q0 -81 33.5 -119t85.5 -38 q57 0 112.5 64t90 161t34.5 190q0 121 -84 121q-37 0 -83 -26.5t-88.5 -73t-71.5 -121t-29 -158.5z" />
<glyph unicode="A" horiz-adv-x="1214" d="M-131 -4v41q54 3 105 38t116 130l768 1110h64v-1139q0 -85 29 -112t124 -27v-41q-176 4 -260 4q-134 0 -260 -4v41q126 0 164.5 38t38.5 154v281q-181 0 -393 8l-113 -164q-129 -192 -129 -243q0 -63 115 -74v-41q-126 4 -193 4q-31 -1 -70.5 -1.5t-64 -1t-41.5 -1.5z M397 571h361v488q0 14 -4 14q-8 0 -17 -14z" />
<glyph unicode="B" horiz-adv-x="1251" d="M-49 0v41q82 3 121 36.5t65 129.5l223 844q25 103 25 145q0 35 -35 50.5t-123 15.5v41q200 -5 250 -5h309q67 0 127.5 -14t111 -42.5t80.5 -78t30 -114.5q0 -59 -25.5 -112.5t-64.5 -90t-83.5 -67.5t-83.5 -49.5t-64.5 -31t-25.5 -16.5q0 -2 13.5 -7t35 -14t47.5 -22.5 t52 -36t47.5 -50t35 -69t13.5 -90.5q0 -82 -28 -148t-77 -111t-118.5 -75.5t-150.5 -44.5t-175 -14h-532zM270 49q98 -8 213 -8q188 0 291 93.5t103 285.5q0 102 -71 168.5t-196 66.5h-182zM446 707q96 -11 134 -11q189 0 300 103.5t111 265.5q0 192 -250 192 q-61 0 -88.5 -1t-46 -7t-23 -13.5t-8.5 -25.5z" />
<glyph unicode="C" horiz-adv-x="1290" d="M70 459q0 160 70.5 317t185 275t271 191t318.5 73q137 0 214 -18t77 -50q0 -54 -12 -104l-20 -99q-13 -67 -27 -67q-9 0 -41 18q-3 35 -9 67t-22 71t-38.5 67t-61.5 47t-88 19q-105 0 -217.5 -76t-199.5 -193.5t-143.5 -269.5t-56.5 -295q0 -61 9.5 -116.5t32 -108 t56 -90.5t84.5 -61t115 -23q81 0 152 29t117.5 70t83 82t63 70t41.5 29q18 0 18 -26q0 -23 -39 -120.5t-67 -115.5q-35 -23 -138 -45t-220 -22q-226 0 -367 130.5t-141 344.5z" />
<glyph unicode="D" horiz-adv-x="1478" d="M-84 0v41q95 1 135.5 27.5t59.5 93.5l256 864q30 102 30 150q0 30 -10.5 46.5t-49 28t-110.5 11.5v41q225 -5 291 -5q37 0 130 2.5t159 2.5q92 0 176.5 -18t161 -58t132.5 -99t89 -147.5t33 -196.5q0 -68 -18.5 -144t-56 -153.5t-89.5 -150.5t-124.5 -137t-156 -112 t-188.5 -75.5t-217 -27.5q-60 0 -174 8q-118 8 -189 8h-270zM281 104q0 -23 11.5 -36t55.5 -22t127 -9q124 0 228.5 30t177.5 79.5t131 117t92.5 138.5t57.5 148.5t31.5 142t8.5 124.5q0 115 -33 202t-92.5 139t-136.5 78t-170 26q-60 0 -96.5 -8.5t-62 -35t-39 -58.5 t-31.5 -95l-199 -705q-61 -217 -61 -256z" />
<glyph unicode="E" horiz-adv-x="1251" d="M-57 -4v41q38 2 57.5 4.5t42 10.5t33.5 19.5t25 35t23.5 54t22.5 79.5l203 764q35 136 35 178q0 39 -46 59.5t-167 20.5v41q333 -5 508 -5q132 0 247 1t176.5 2.5t63.5 1.5q41 0 41 -21q0 -24 -13.5 -115.5t-18.5 -113.5q-9 -36 -17 -49t-20 -13q-21 0 -29 49q-1 6 -2 9 q-9 51 -21 83t-33.5 58.5t-56.5 40.5t-86.5 22t-128.5 9h-25q-67 0 -109 -9q-48 -11 -61 -24.5t-18 -36.5l-92 -369q-14 -58 -14 -67q0 -22 20 -31.5t78 -9.5q238 0 311 86q12 14 25 39t23 39t20 14q18 0 18 -23q0 -5 -2 -15t-8 -33t-14 -51.5t-22.5 -84t-30.5 -117.5 q-13 -57 -22 -85.5t-23 -28.5q-15 0 -20 7t-5 25q0 61 -6 93t-28.5 52t-57.5 25t-103 5q-84 0 -123.5 -3.5t-52 -10.5t-16.5 -23l-100 -371q-5 -20 -17.5 -65t-18 -68.5t-5.5 -34.5q0 -19 14.5 -28.5t67.5 -15t163 -5.5q145 0 238 26.5t153 79t121 150.5h45 q-42 -172 -84 -283q-3 -8 -22 -11t-82 -3q-34 0 -172.5 2t-249.5 2q-384 0 -532 -4z" />
<glyph unicode="F" horiz-adv-x="1175" d="M-27 -4v41q90 13 120.5 36t45.5 85l209 817q5 19 14 53t12.5 48.5t8.5 36.5t6.5 38t1.5 31q0 40 -36 55.5t-146 24.5v41q260 -5 315 -5q58 0 625 5l-31 -306q-10 -2 -39 -2q-14 0 -22 35q-14 58 -26.5 91t-32 59.5t-51.5 38t-76 17t-115 5.5q-99 0 -130.5 -10.5 t-43.5 -46.5q-22 -69 -65.5 -256.5t-51.5 -216.5h160q119 0 183.5 35t92.5 110h64l-105 -407h-53q-9 116 -41 154t-107 38h-210l-89 -319q-43 -157 -43 -216q0 -52 156 -69v-41q-140 4 -264 4q-72 0 -236 -4z" />
<glyph unicode="G" horiz-adv-x="1441" d="M72 489q0 133 50.5 260.5t137 228t197 177.5t236.5 118.5t249 41.5q154 0 273.5 -29t119.5 -67q0 -16 -5 -38t-14 -51.5t-13 -48.5q-20 -72 -29 -95t-19 -23q-16 0 -20.5 6.5t-9.5 29.5q-17 74 -33.5 116.5t-47.5 80.5t-81 54t-125 16q-93 0 -182 -35.5t-161 -95.5 t-133.5 -139.5t-102.5 -168t-64 -181t-23 -177.5q0 -86 26.5 -164t75.5 -139t124.5 -97t167.5 -36q80 0 154 33.5t91 66.5l47 172q10 35 20.5 90t10.5 74q0 25 -30.5 36t-133.5 15v41h330q43 0 99.5 2t76.5 2v-28q0 -6 -3.5 -9t-16.5 -5.5t-37 -2.5q-45 0 -72.5 -44.5 t-64.5 -174.5l-60 -205q-50 -24 -88.5 -40t-97 -34.5t-126 -28t-142.5 -9.5q-109 0 -201.5 30.5t-156 81t-108 116.5t-65 136.5t-20.5 140.5z" />
<glyph unicode="H" horiz-adv-x="1593" d="M-45 -4v41q79 6 117 40.5t67 143.5l230 852q2 8 8.5 32t10.5 39t7.5 33.5t3.5 30.5q0 31 -28 42.5t-121 11.5v41q103 -5 237 -5q51 0 246 5v-41q-93 0 -128.5 -35t-65.5 -148l-103 -387h723l103 381q2 8 8.5 32t10.5 39t7.5 33.5t3.5 30.5q0 31 -28 42.5t-121 11.5v41 q102 -5 237 -5q51 0 246 5v-41q-93 0 -128.5 -35t-65.5 -148l-211 -803q-41 -157 -41 -182q0 -50 127 -57v-41q-118 4 -242 4q-77 0 -217 -4v41q79 6 117 40.5t67 143.5l109 402h-723l-90 -347q-41 -157 -41 -182q0 -50 127 -57v-41q-118 4 -242 4q-77 0 -217 -4z" />
<glyph unicode="I" horiz-adv-x="720" d="M-25 -4v41q79 6 117.5 40.5t67.5 143.5l229 852q2 7 11.5 41t14.5 56.5t5 37.5q0 31 -28.5 42.5t-121.5 11.5v41q103 -5 238 -5q51 0 246 5v-41q-93 0 -129 -35t-66 -148l-211 -803q-41 -157 -41 -182q0 -50 127 -57v-41q-118 4 -241 4q-78 0 -218 -4z" />
<glyph unicode="J" horiz-adv-x="720" d="M-225 -369q132 31 202 102t113 218q20 70 58 210.5t55 200.5l186 711q2 7 11.5 41t14.5 56.5t5 37.5q0 21 -11 31.5t-48 16.5t-111 6v41q152 -5 258 -5q76 0 229 5v-41q-82 0 -115 -35.5t-63 -147.5l-237 -919q-44 -167 -87 -268t-108 -165.5t-145 -91t-207 -36.5v32z " />
<glyph unicode="K" horiz-adv-x="1441" d="M-45 -4v41q85 0 126.5 33.5t57.5 101.5l203 780q51 203 51 240q0 41 -34.5 55.5t-120.5 14.5v41q113 -5 258 -5q80 0 245 5v-41q-107 0 -143.5 -36.5t-67.5 -168.5l-59 -248q-22 -99 -22 -100q0 -21 14 -21q13 0 57.5 27.5t166.5 108t228 147.5q149 94 202.5 146t53.5 87 q0 29 -27 43.5t-69 14.5v41q170 -5 232 -5q77 0 209 5v-41q-80 0 -131.5 -24t-186.5 -128q-147 -111 -292 -210.5t-209 -141.5t-64 -47t13 -21.5t51.5 -61.5t89.5 -103.5t146.5 -171t201.5 -240.5q64 -76 188 -76v-41q-114 4 -270 4q-131 0 -271 -4v41q84 3 111 11.5 t27 33.5q0 31 -41.5 90.5t-157.5 194.5l-98 114q-77 89 -120.5 127.5t-74.5 38.5l-82 -295q-43 -164 -43 -225q0 -53 26 -71.5t105 -18.5v-41q-164 4 -250 4q-77 0 -229 -4z" />
<glyph unicode="L" horiz-adv-x="1290" d="M-41 0v41q83 6 121 40t61 124l174 669q11 41 35 120t36.5 129t12.5 77q0 28 -38.5 45t-110.5 17v41q103 -5 237 -5q16 0 271 5v-41q-107 0 -146 -22.5t-59 -100.5l-207 -803q-4 -17 -15.5 -62.5t-18 -70.5t-12 -56.5t-5.5 -48.5q0 -20 18 -30.5t74 -10.5h180 q150 0 279 37t186 94q23 23 43 47t31.5 40.5t21 30t16 20t11.5 6.5q21 0 21 -25q0 -13 -16.5 -71.5t-43 -146.5t-26.5 -89h-1131z" />
<glyph unicode="M" horiz-adv-x="1705" d="M-49 -4v41q92 12 127.5 52.5t66.5 154.5q220 807 220 903q0 52 -45.5 83.5t-120.5 31.5v41q138 -5 168 -5q34 0 186 5l164 -949q16 -90 26 -90q12 0 105 142l442 651q80 120 104 175q16 38 23 71q142 -5 170 -5q25 0 137 5v-41q-36 0 -56.5 -4.5t-42.5 -20t-38.5 -50 t-34.5 -89.5t-41 -144l-143 -540q-65 -233 -65 -295q0 -44 43.5 -63t99.5 -19v-41q-102 4 -250 4q-160 0 -242 -4v41q91 3 129.5 43.5t67.5 148.5l186 711q1 7 4.5 21.5t6 25t2.5 14.5q0 19 -7 19t-32 -37l-631 -915q-5 -7 -10.5 -15t-9 -13t-7.5 -11t-6.5 -9t-5.5 -6.5 t-4.5 -5.5t-4 -3.5t-4 -2.5t-3.5 -1.5t-4 -0.5q-11 0 -17 31l-160 985q-6 43 -14 43t-22 -55l-170 -646q-41 -169 -41 -217q0 -30 13 -50.5t38 -31t47.5 -15t54.5 -7.5v-41q-140 4 -207 4q-66 0 -192 -4z" />
<glyph unicode="N" horiz-adv-x="1517" d="M-41 0v41q86 9 129 64t88 217l205 731q16 62 16 98q0 40 -16 62t-63 35t-134 14v41l346 -5q59 0 74 -38q84 -219 238.5 -569t214.5 -441h12q4 7 10.5 26.5t17.5 56.5t21 71t27.5 96t30.5 106q135 456 135 551q0 56 -34.5 79t-137.5 26v41q175 -5 207 -5q52 0 247 5v-41 q-76 -1 -118 -25.5t-74.5 -88t-69.5 -196.5l-262 -952h-86q-87 159 -276.5 590t-239.5 534h-4q-5 -24 -129.5 -460.5t-124.5 -505.5q0 -46 35.5 -77.5t134.5 -39.5v-41h-420z" />
<glyph unicode="O" horiz-adv-x="1327" d="M57 537q0 140 54 279.5t146.5 250t227.5 179.5t285 69q79 0 151 -21.5t134.5 -67t108.5 -110t72 -155.5t26 -199q0 -140 -54 -279.5t-146.5 -250t-227.5 -179.5t-285 -69q-79 0 -151 21.5t-134.5 67t-108.5 110t-72 155.5t-26 199zM221 348q0 -143 88 -233t240 -90 q148 0 276.5 136.5t200.5 349t72 439.5q0 143 -88 233.5t-240 90.5q-112 0 -215 -81t-175.5 -211t-115.5 -297.5t-43 -336.5z" />
<glyph unicode="P" horiz-adv-x="1138" d="M-37 -4v41q87 12 125.5 54.5t67.5 162.5l184 735q35 152 35 189q0 46 -32.5 61.5t-117.5 17.5v41h566q133 0 226 -76t93 -218q0 -198 -151.5 -300t-405.5 -102q-73 0 -135 10l-60 -225q-55 -203 -55 -258q0 -46 38.5 -67.5t119.5 -24.5v-41q-110 4 -236 4q-130 0 -262 -4 zM434 674q54 -15 135 -15q82 0 146.5 21t114.5 65t77 120t27 179q0 99 -61.5 156t-180.5 57q-75 0 -105 -32.5t-55 -137.5z" />
<glyph unicode="Q" horiz-adv-x="1366" d="M39 -328q0 19 18 38t36 29.5t50 27.5q83 42 215.5 118.5t147.5 98.5l4 4q-89 11 -165.5 51t-135.5 107t-93 167.5t-34 223.5q0 140 54 279.5t146.5 250t227.5 179.5t285 69q99 0 186.5 -35t156 -102t108.5 -174.5t40 -241.5q0 -140 -54 -279.5t-146 -250t-227 -179.5 t-284 -69q-42 -30 -108 -71.5t-111 -70t-53 -39.5q13 -13 223.5 -76t235.5 -63q40 0 71.5 16.5t65.5 67.5l29 -20q-52 -90 -126.5 -126t-189.5 -36q-77 0 -157.5 21t-133 45.5t-94.5 45.5t-51 21q-26 0 -51 -36t-47 -36q-14 0 -26.5 13.5t-12.5 31.5zM246 348 q0 -143 87.5 -233t239.5 -90q148 0 276.5 136.5t200.5 349t72 439.5q0 143 -87.5 233.5t-239.5 90.5q-112 0 -215 -81t-175.5 -211t-115.5 -297.5t-43 -336.5z" />
<glyph unicode="R" horiz-adv-x="1327" d="M-20 0v41q89 9 122 51t70 191l176 694q43 173 45 204v15q0 32 -36 49t-134 17v36h541q246 0 351.5 -55.5t105.5 -202.5q0 -273 -494 -417q16 -18 35 -45t41.5 -65t40 -67t44.5 -77.5t38.5 -69.5t37 -69t27.5 -52q45 -80 83.5 -110.5t125.5 -38.5v-29h-299l-323 592 l-170 -33l-86 -350q-15 -67 -15 -84q0 -37 37 -60.5t107 -23.5v-41h-471zM420 612q321 52 479 150t158 260q0 127 -74 181t-260 54q-77 0 -113 -24t-57 -103z" />
<glyph unicode="S" horiz-adv-x="985" d="M0 131q0 48 5.5 122.5t12.5 106.5q4 19 11 26t20 7q12 0 18 -15.5t17 -66.5q9 -46 19.5 -80t31.5 -72t48.5 -62t72 -40t100.5 -16q130 0 212.5 65t82.5 164q0 60 -23 117t-60 104.5t-81.5 94.5t-89 94.5t-81.5 95t-60 106t-23 119.5q0 102 53 174.5t137.5 106t188.5 33.5 q56 0 109.5 -8.5t86 -16.5t36.5 -8q8 0 26 10.5t25 10.5q14 0 14 -27q0 -18 -16 -150q-11 -96 -16 -120.5t-15 -24.5q-9 0 -16 13t-19 55q-32 108 -86.5 162.5t-142.5 54.5q-113 0 -171 -59t-58 -138q0 -48 23 -96.5t60 -91.5t81.5 -88t88.5 -95t81 -104t60 -123t23 -143 q0 -90 -39 -159t-104 -108t-139.5 -58t-155.5 -19q-93 0 -183 19.5t-149 49.5q-12 6 -14 18t-2 60z" />
<glyph unicode="T" horiz-adv-x="1327" d="M111 1042q8 19 27 66.5t34.5 82.5t34 73.5t35.5 60t30 21.5q19 0 36.5 -10.5t32.5 -23.5t57 -23.5t104 -10.5h563q94 0 141 9.5t88 37.5q24 18 41 18q21 0 21 -28q0 -52 -49 -305q-3 -24 -9 -29.5t-26 -5.5q-19 0 -26 7t-7 30q0 118 -54.5 162.5t-187.5 46.5 q-64 0 -91 -26.5t-50 -115.5l-186 -710q-56 -210 -56 -267q0 -34 43 -48t138 -17v-41q-246 4 -306 4q-26 0 -268 -4v41q122 9 162.5 36t67.5 126l221 819q26 102 26 147q0 24 -10 35t-42.5 16t-102.5 5q-63 0 -104.5 -6t-86.5 -25t-87.5 -56t-96.5 -98z" />
<glyph unicode="U" horiz-adv-x="1441" d="M164 313q0 76 35 189l153 522q35 108 35 164q0 64 -170 69v41h541v-41q-51 -1 -83.5 -7.5t-56.5 -18.5t-40.5 -38.5t-28 -57t-25.5 -84.5l-139 -531q-45 -164 -45 -209q0 -50 14.5 -91t48 -77t97 -56.5t151.5 -20.5q82 0 146 20.5t109 55.5t80.5 94.5t59.5 124.5t48 157 l125 479q3 12 13 47.5t14.5 60.5t4.5 50q0 55 -32.5 78.5t-122.5 23.5v41h389v-41q-75 -3 -117.5 -43t-62.5 -116l-158 -623q-35 -140 -77 -228t-109.5 -150t-163 -87.5t-236.5 -25.5q-49 0 -99 9t-105 32.5t-97 59t-69 95t-27 133.5z" />
<glyph unicode="V" horiz-adv-x="1251" d="M115 1262v41q118 -5 270 -5q92 0 287 5v-41q-74 -1 -115.5 -6.5t-65 -23t-30 -41.5t-6.5 -69q0 -5 -14.5 -351t-14.5 -529q0 -21 1.5 -31.5t3.5 -13t7 -2.5q17 0 161.5 195.5t242.5 340.5q111 164 183.5 292t72.5 169q0 35 -40.5 51.5t-86.5 18.5v41q82 -5 192 -5 q75 0 197 5v-41q-68 -6 -123.5 -63t-167.5 -232q-113 -177 -346 -497t-358 -478l-84 -8q0 132 5 532.5t5 601.5q0 47 -5 71.5t-23.5 43t-52.5 24t-95 5.5z" />
<glyph unicode="W" horiz-adv-x="1781" d="M139 1262v41q123 -5 269 -5q38 0 223 5v-41q-100 -7 -134 -41t-40 -129l-45 -762q-4 -50 -4 -56q0 -10 8 -10q4 0 88.5 120.5t214.5 306.5t201 284l12 194v7q0 36 -30 60q-32 26 -95 26v41q57 -5 217 -5q66 0 213 5v-41q-63 -2 -93.5 -17.5t-46 -58t-20.5 -131.5 l-33 -525q-3 -48 -9.5 -115.5t-10.5 -113t-4 -55.5q0 -21 10 -21q6 0 100.5 134t205.5 301.5t202.5 327.5t91.5 204q0 38 -29 56q-23 15 -59 15q-10 0 -20 -1v41q67 -5 170 -5q86 0 184 5v-41q-64 -3 -102 -34.5t-91 -123.5q-41 -72 -87.5 -148t-87.5 -141.5t-91.5 -141 t-87 -130.5t-86.5 -126.5t-78.5 -111.5t-75 -104t-63 -86.5t-55.5 -75.5t-41 -55h-78l59 880l-4 4l-422 -616q-138 -202 -170 -268h-77q5 217 33 648.5t28 479.5q0 99 -27.5 124.5t-132.5 25.5z" />
<glyph unicode="X" horiz-adv-x="1402" d="M-49 -4v41q50 10 76 28.5t84 79.5q19 19 234 242.5t273 276.5q-24 48 -49.5 106t-67 157.5t-69.5 164.5q-42 98 -84.5 134t-118.5 36v41q200 -5 238 -5q40 0 225 5v-41q-55 0 -84.5 -15t-29.5 -55q0 -37 65.5 -188.5t106.5 -231.5q38 34 86.5 80.5t120 118.5t118.5 133.5 t47 89.5q0 68 -118 68v41q175 -5 202 -5q39 0 219 5v-41q-75 0 -145 -70l-496 -496l222 -458q50 -103 98 -146t121 -55v-41q-144 4 -226 4q-81 0 -249 -4v41q112 7 118 59q0 35 -80.5 216t-136.5 272q-25 -21 -85.5 -77t-143.5 -138t-144 -158.5t-61 -110.5q0 -29 25.5 -46 t68.5 -17v-41q-118 4 -184 4q-58 0 -176 -4z" />
<glyph unicode="Y" horiz-adv-x="1175" d="M49 1262v41q142 -5 283 -5q68 0 205 5v-41q-79 -3 -109.5 -25t-30.5 -63q0 -49 99.5 -248.5t165.5 -313.5q50 65 118 161t143.5 224t75.5 174q0 45 -33.5 68t-93.5 23v41q158 -5 193 -5q38 0 213 5v-41q-68 0 -115 -44t-135 -182q-66 -104 -197 -289.5t-165 -244.5 l-26 -96q-25 -96 -45 -184.5t-20 -119.5q0 -33 35.5 -49t124.5 -16v-41q-176 4 -262 4q-88 0 -268 -4v41q114 3 149 28.5t58 124.5q15 64 39 154.5t37.5 143t13.5 63.5t-34 74t-101 193t-125 263q-45 103 -87.5 142t-105.5 39z" />
<glyph unicode="Z" horiz-adv-x="1214" d="M-12 0v33q167 224 504.5 630.5t420.5 510.5q4 5 10 12l9 10.5t5.5 8.5t2.5 9q0 31 -285 31q-58 0 -99 -3t-87.5 -14.5t-81.5 -32.5t-70.5 -58t-64.5 -90q-8 -14 -13.5 -18.5t-17.5 -4.5q-24 0 -24 20q0 18 10 68l37 186h948v-32q-109 -130 -312.5 -377.5t-367.5 -444 t-305 -358.5q-12 -16 -12 -18q0 -6 8 -9q53 -18 213 -18q196 0 308.5 25t177.5 79.5t118 161.5h53l-98 -307h-987z" />
<glyph unicode="[" horiz-adv-x="681" d="M-45 -328l440 1684h387l-8 -41h-260l-420 -1602h271l-9 -41h-401z" />
<glyph unicode="\" horiz-adv-x="569" d="M-47 1315h90l575 -1331h-90z" />
<glyph unicode="]" horiz-adv-x="681" d="M-201 -328l8 41h261l419 1602h-270l8 41h402l-441 -1684h-387z" />
<glyph unicode="^" horiz-adv-x="1228" d="M287 729l286 569h82l287 -569h-98l-230 461l-229 -461h-98z" />
<glyph unicode="_" horiz-adv-x="1024" d="M0 -154h1024v-102h-1024v102z" />
<glyph unicode="`" horiz-adv-x="530" d="M143 1192q0 27 16 44t42 17q43 0 114 -92l185 -252h-47l-197 152q-65 52 -89 78.5t-24 52.5z" />
<glyph unicode="a" horiz-adv-x="872" d="M-70 141q0 42 16 104.5t45 136t77 145.5t106 131.5t137.5 96t165.5 36.5q31 0 66.5 -7.5t46.5 -7.5q15 1 30.5 24t26.5 23q14 0 42 -14.5t28 -34.5q0 -14 -112.5 -310t-112.5 -335q0 -21 5.5 -28t18.5 -7q20 0 57 39t69.5 78t43.5 39q19 0 19 -17q0 -4 -17 -29.5 t-47 -62.5t-65.5 -72t-78.5 -60t-79 -25q-62 0 -62 73q0 36 19 89.5t38 94.5t19 46q0 14 -10 14q-8 0 -66 -82q-89 -131 -162 -183t-141 -52q-53 0 -88 40.5t-35 116.5zM66 180q0 -47 14.5 -64.5t44.5 -17.5q55 0 131 71.5t137 164.5t104.5 182.5t43.5 126.5q0 45 -25 76 t-74 31q-68 0 -138 -57.5t-121 -143t-84 -186t-33 -183.5z" />
<glyph unicode="b" horiz-adv-x="948" d="M-6 123q0 58 18.5 123.5t71.5 191.5l96 238q24 58 65.5 160t58.5 145t39 101t30 86.5t8 43.5q0 32 -22 48t-85 26l9 41h262q12 0 12 -16q0 -21 -160 -430q-15 -39 -43.5 -103t-47.5 -107t-19 -50t10 -7q6 0 26.5 20t52.5 48t71.5 56.5t92 48.5t103.5 20q86 0 134 -52 t48 -143q0 -84 -60 -193.5t-151 -205.5t-213 -162.5t-233 -66.5q-77 0 -125.5 36t-48.5 103zM129 162q0 -48 26 -78.5t81 -30.5q58 0 124.5 41t123.5 105t104.5 137t74.5 143t27 117q0 60 -31.5 94.5t-85.5 34.5q-56 0 -134.5 -62t-146 -148.5t-115.5 -185.5t-48 -167z" />
<glyph unicode="c" horiz-adv-x="757" d="M-41 213q0 93 42 185t109 164t147.5 128.5t161.5 86.5t146 30q75 0 111.5 -38t36.5 -85q0 -24 -17 -40.5t-37 -16.5q-22 0 -41.5 20.5t-33 45t-37.5 45t-53 20.5q-45 0 -113.5 -59t-129.5 -142t-105 -179.5t-44 -164.5q0 -73 40.5 -110t95.5 -37q75 0 182 81 q11 8 25.5 21t24 21t15.5 8q17 0 17 -19q0 -7 -17 -28t-48.5 -49t-71 -54.5t-91.5 -44.5t-102 -18q-59 0 -102 20.5t-66.5 55t-34 72.5t-10.5 81z" />
<glyph unicode="d" d="M-53 168q0 84 35 177.5t94 174t130 146t149 103.5t145 38q58 0 110 -35h8l111 328q33 101 33 123q0 25 -17.5 38t-60.5 13q-47 0 -58.5 5t-11.5 21q0 27 25 27q135 0 223 -10q24 -3 33.5 -9t9.5 -20q0 -13 -16 -67l-303 -961q-29 -96 -29 -115q0 -22 21 -22q20 0 61 34.5 t76 69.5t41 35q18 0 18 -16q0 -17 -55 -80t-130.5 -122.5t-119.5 -59.5q-30 0 -49 17t-19 46q0 56 48 164q2 6 7 16.5t8 18t3 10.5q0 6 -6 6q-5 0 -10 -4t-13 -20q-72 -117 -151.5 -185.5t-182.5 -68.5q-157 0 -157 184zM98 156q0 -74 66 -74q71 0 148.5 66.5t134.5 159.5 t94 190.5t37 160.5q0 95 -76 95q-58 0 -119.5 -49.5t-111 -124t-89.5 -157.5t-62 -155t-22 -112z" />
<glyph unicode="e" horiz-adv-x="757" d="M-37 203q0 105 55.5 217t138.5 195.5t181.5 137.5t181.5 54q73 0 116.5 -38.5t43.5 -90.5q0 -55 -41 -98t-103.5 -66.5t-123.5 -35t-113 -11.5q-38 0 -92 4q-88 -136 -88 -250q0 -63 36 -101t99 -38q39 0 84.5 19t77 41.5t57 41.5t29.5 19q14 0 14 -17q0 -6 -19 -28 t-53 -51t-75.5 -57t-94 -47t-100.5 -19q-94 0 -152.5 60t-58.5 159zM233 516q148 2 240 46.5t92 125.5q0 32 -20 55t-51 23q-38 0 -82 -31.5t-81 -77t-61 -81t-37 -60.5z" />
<glyph unicode="f" horiz-adv-x="569" d="M-414 -399q0 32 17.5 51.5t46.5 19.5q32 0 95 -36.5t91 -36.5q19 0 35 13t38 53t49.5 125t61.5 218l170 668q3 14 7 26.5t6 18.5t2 8q0 8 -10 8h-164q-23 0 -23 13q0 57 27 57h164q17 0 26 16.5t37 98.5q19 56 39.5 103t58.5 106t82 99.5t110.5 68.5t143.5 28 q79 0 127.5 -27t48.5 -67q0 -30 -18 -50t-45 -20q-37 0 -101 47t-100 47q-60 0 -113 -79.5t-112 -274.5q-23 -77 -23 -88q0 -8 7 -8h182q14 0 14 -23q0 -16 -5.5 -31.5t-16.5 -15.5h-176q-15 0 -21 -5.5t-12 -24.5l-158 -603q-154 -587 -450 -587q-66 0 -102 23.5t-36 60.5z " />
<glyph unicode="g" horiz-adv-x="872" d="M-190 -276q0 68 72 125t249 118q-3 2 -21 13t-27.5 18t-27.5 20.5t-29 25.5t-23 27.5t-17.5 32.5t-5.5 35q0 22 8 40t26 32t34 24t43.5 25t43.5 25q-38 41 -56 92.5t-18 95.5q0 135 100.5 234.5t237.5 99.5q50 0 91.5 -14t62 -31t36.5 -31t21 -14q1 0 61 26.5t95 26.5 q33 0 51.5 -16.5t18.5 -46.5q0 -24 -17 -38t-43 -14q-22 0 -63 10.5t-49 10.5q-19 0 -19 -14q0 -6 7 -44.5t7 -93.5q0 -38 -12 -80.5t-38 -86t-63.5 -78t-93 -56.5t-120.5 -22q-40 0 -75 9.5t-48 16.5t-37 23q-41 -25 -55.5 -40.5t-14.5 -31.5q0 -28 53 -64t128.5 -72.5 t151 -76.5t128.5 -89t53 -97q0 -47 -27.5 -91.5t-81.5 -83.5t-147.5 -63t-212.5 -24q-150 0 -243.5 63.5t-93.5 143.5zM-47 -264q0 -69 75 -117.5t185 -48.5q125 0 203 41t78 100q0 41 -36 75.5t-81 55t-106 48t-91 47.5q-120 -49 -173.5 -93.5t-53.5 -107.5zM176 418 q0 -74 36 -119t103 -45q56 0 104.5 37t77 91t44.5 109t16 97q0 70 -35.5 118t-99.5 48q-74 0 -132 -52t-86 -127.5t-28 -156.5z" />
<glyph unicode="h" horiz-adv-x="948" d="M-53 25q0 14 48 140.5t118.5 310t105.5 284.5q15 44 44 124.5t44.5 125.5t34 99.5t27 86t8.5 43.5q0 36 -53 41q-58 7 -58 29q0 18 33 18h215q15 0 21 -4t6 -14q0 -8 -23.5 -78.5t-70.5 -201.5t-101 -271q-28 -73 -69 -174t-41 -115q0 -4 4 -4q5 0 31.5 35t67 85.5 t88 101t104 85.5t104.5 35q54 0 84.5 -36t30.5 -109q0 -71 -41 -192.5t-82 -219t-41 -109.5q0 -22 28 -22q10 0 25.5 10t34.5 27t34 32t32.5 33.5t21.5 22.5l24 -29q-39 -47 -69.5 -79t-74.5 -71.5t-88.5 -60t-86.5 -20.5q-32 0 -44.5 14.5t-12.5 42.5q0 41 51 157t102 237 t51 175q0 32 -13 47t-44 15q-63 0 -159 -94.5t-187.5 -247t-136.5 -303.5q-5 -15 -20 -21t-50 -6t-46 5.5t-11 19.5z" />
<glyph unicode="i" horiz-adv-x="530" d="M0 25q0 53 53 188.5t106.5 263t53.5 162.5q0 29 -27 29q-12 0 -27 -8t-34.5 -24.5t-30.5 -27t-31 -30.5l-20 -21l-23 21l11 10q182 203 274 203q26 0 40.5 -16t14.5 -38q0 -67 -53 -211.5t-106.5 -271t-53.5 -148.5q0 -24 25 -24q48 0 174 133l25 -18q-12 -12 -47 -50 t-58 -59.5t-58.5 -49t-73 -41t-77.5 -13.5q-33 0 -45 10t-12 31zM315 1221q0 34 24 58t58 24t58 -24t24 -58t-24 -58t-58 -24t-58 24t-24 58z" />
<glyph unicode="j" horiz-adv-x="530" d="M-385 -410q0 25 21.5 47.5t54.5 22.5q34 0 87 -30.5t79 -30.5q33 0 56 51.5t77 218.5q12 36 18 55q209 654 209 688q0 35 -29 35q-23 0 -64.5 -38.5t-77.5 -76.5t-46 -38t-10 16q0 23 57 90t142.5 129t148.5 62q47 0 47 -43q0 -18 -10 -58t-31.5 -111t-45.5 -146 t-63 -199.5t-73 -233.5q-77 -249 -182 -366t-246 -117q-58 0 -88.5 21.5t-30.5 51.5zM336 1221q0 34 24 58t58 24t58 -24t24 -58t-24 -58t-58 -24t-58 24t-24 58z" />
<glyph unicode="k" d="M-35 20q0 29 213 635q179 511 188 540q11 38 11 52q0 22 -29 30.5t-106 8.5v41h284q21 0 21 -14q0 -18 -33 -107l-168 -454q-29 -80 -29 -84q0 -9 5 -9q7 0 42 27t78 59t105 59t115 27q61 0 105 -37.5t44 -101.5q0 -43 -24 -84.5t-58 -71.5t-81.5 -58.5t-84 -45 t-76.5 -31.5q5 -41 15 -101.5t29.5 -164t46.5 -198.5t59 -183.5t74 -142t86 -53.5q21 0 32 8.5t11 19.5q0 8 -11 25q12 4 21 4q10 0 18.5 -8.5t8.5 -26.5q0 -23 -26 -43t-67 -20q-62 0 -127 63.5t-122 172.5t-102.5 265.5t-67.5 333.5q-74 -25 -170 -53q-90 -269 -97 -283 q-6 -16 -28 -16h-74q-31 0 -31 20zM213 360q62 16 137.5 45.5t154 70.5t131 95t52.5 107q0 32 -20 52t-58 20q-55 0 -167.5 -71t-159.5 -118z" />
<glyph unicode="l" horiz-adv-x="530" d="M4 90q0 62 90.5 335.5t181.5 531t91 280.5q0 33 -29.5 45t-108.5 12v33h285q14 0 14 -12q0 -13 -114 -342q-89 -260 -173.5 -527.5t-84.5 -312.5q0 -17 6.5 -24t21.5 -7q27 0 63.5 36t117.5 132l28 -26q-8 -10 -39 -51.5t-55.5 -70.5t-58.5 -64.5t-69 -54.5t-67 -19 q-100 0 -100 106z" />
<glyph unicode="m" horiz-adv-x="1478" d="M-37 543q0 15 63.5 79.5t146.5 124.5t126 60q66 0 66 -57q0 -25 -33 -109q-32 -83 -61 -153q-24 -58 -24 -68q0 -2 1 -2q8 0 23 24t46 73.5t64 90.5q163 201 289 201q58 0 87 -37t29 -100q0 -41 -21 -118t-38 -131t-12 -54q2 0 26 45.5t66 110t95 129t124 110t141 45.5 q58 0 90.5 -41t32.5 -115q0 -63 -46.5 -185t-93 -222.5t-46.5 -112.5q0 -20 16 -20q30 0 90.5 46.5t92.5 78.5l24 -25q-97 -106 -202 -166.5t-167 -60.5q-16 0 -27 9t-11 27t123.5 291t123.5 316q0 82 -57 82q-53 0 -111 -43t-110 -112.5t-99.5 -147t-86 -158t-62 -132.5 t-36.5 -83q-2 -6 -3 -8q-11 -25 -29 -25h-67q-25 0 -25 23q0 9 45.5 121.5t91.5 255.5t46 225t-58 82h-1q-64 -1 -153 -89q-90 -90 -183.5 -246.5t-164.5 -340.5q-6 -19 -14 -25t-31 -6h-57q-18 3 -18 20q0 4 102 297.5t102 346.5q0 14 -10 14q-14 0 -103 -77t-95 -77 q-17 0 -17 19z" />
<glyph unicode="n" horiz-adv-x="985" d="M-20 555q0 16 63.5 77.5t145 118t120.5 56.5q29 0 44.5 -15t15.5 -40q0 -36 -35 -133t-35 -99q0 -8 6 -8q12 0 35 31q91 121 156 178q99 86 180 86q57 0 94 -38.5t37 -98.5q0 -64 -48.5 -185t-96.5 -223t-48 -121q0 -26 21 -26q24 0 77.5 39.5t90.5 76.5l22 -24 q-82 -91 -186 -157t-164 -66q-49 0 -49 47q0 12 61.5 141t123 273t61.5 194q0 37 -19 53.5t-47 16.5q-64 0 -153 -85.5t-171.5 -219.5t-131.5 -273q-41 -116 -50 -129q0 -2 -55 -2q-53 0 -53 8q0 25 53 164t106.5 288t53.5 197q0 25 -21 25q-24 0 -104.5 -72.5t-85.5 -72.5 q-14 0 -14 18z" />
<glyph unicode="o" horiz-adv-x="872" d="M-33 291q0 89 36.5 180.5t100 166t158.5 122t201 47.5q114 0 196 -81t82 -226q0 -89 -36.5 -180.5t-99.5 -166t-158 -122t-201 -47.5q-114 0 -196.5 81t-82.5 226zM102 223q0 -97 38.5 -147.5t105.5 -50.5q39 0 87.5 31.5t96 86.5t87.5 122.5t64.5 147.5t24.5 154 q0 97 -38.5 148t-104.5 51q-48 0 -111.5 -49.5t-118.5 -125t-93 -176t-38 -192.5z" />
<glyph unicode="p" d="M-217 -434q70 3 96.5 19t38.5 59l277 962l-199 -114l-19 34l240 156l76 264h117l-48 -196q114 57 261 57q85 0 130.5 -41t45.5 -123q0 -109 -49 -219.5t-134 -202t-209.5 -155t-265.5 -78.5l-63 -228q-35 -140 -35 -153q0 -20 29 -30.5t104 -10.5v-41h-393v41zM154 25 q127 27 225.5 87t155 137t84.5 158t28 162t-38.5 118.5t-98.5 37.5q-53 0 -101 -18t-71 -41z" />
<glyph unicode="q" horiz-adv-x="948" d="M-57 160q0 93 57.5 208t144 211t196 162t204.5 66q52 0 90 -15t53.5 -30t40.5 -45q57 90 78 90q18 0 24 -12l-337 -1043q-37 -118 -37 -137q0 -27 19.5 -39t84.5 -18v-33h-385v33q44 3 66.5 7.5t40.5 9.5t28.5 22t18 33t20.5 55l201 612l-4 4q-43 -52 -70 -82.5t-79 -81 t-94.5 -79.5t-99 -51.5t-110.5 -22.5q-77 0 -114 42.5t-37 133.5zM78 184q0 -46 27 -74t71 -28q72 0 181.5 90.5t193.5 219t84 224.5q0 65 -38.5 103.5t-96.5 38.5q-67 0 -144.5 -65.5t-137.5 -157t-100 -189.5t-40 -162z" />
<glyph unicode="r" horiz-adv-x="681" d="M-12 555q0 19 48 80t113.5 116.5t104.5 55.5q57 0 57 -59q0 -27 -33.5 -166t-33.5 -146q0 -14 10 -14q5 0 25 33q120 210 192 288q59 63 100 64q29 0 46.5 -25.5t17.5 -68.5q0 -99 -55 -99q-23 0 -36.5 12t-17.5 27t-12.5 27t-21.5 12q-12 0 -30 -15.5t-46.5 -54.5 t-63 -98t-82 -154t-100.5 -214l-55 -125q-8 -18 -13.5 -24.5t-15.5 -6.5h-72q-18 0 -18 23q0 11 48 142.5t96 279t48 198.5q0 49 -28 49q-7 0 -16 -4.5t-20 -13.5t-20 -18t-21 -23t-19.5 -22.5t-18.5 -22t-14 -17.5t-7.5 -9.5t-7 -8.5t-6 -6t-6 -4.5t-4.5 -1.5q-12 0 -12 14 z" />
<glyph unicode="s" horiz-adv-x="569" d="M-111 76q0 27 8.5 57.5t28.5 30.5q16 0 39.5 -17.5t45 -38t55 -38t67.5 -17.5q45 0 79 29t34 70q0 35 -24.5 76t-53.5 74t-53.5 81.5t-24.5 95.5q0 72 45.5 149t117.5 128t142 51q51 0 78 -24.5t27 -55.5q0 -25 -19 -46.5t-47 -21.5t-82 25t-82 25q-38 0 -64 -31.5 t-26 -67.5q0 -35 17.5 -72.5t42 -71t49 -68t42 -75.5t17.5 -81q0 -99 -94 -178.5t-201 -79.5q-63 0 -113.5 31.5t-50.5 60.5z" />
<glyph unicode="t" horiz-adv-x="569" d="M-25 37q0 26 43 147l170 451q13 35 13 41q0 16 -31 16h-84q-18 0 -18 10q0 1 8 21l22 68h127q23 0 33 22l61 135q3 10 60 17q50 8 57 8q5 0 9 -4t4 -8q0 -3 -2.5 -9.5t-7 -18t-7.5 -20.5l-39 -98q-4 -16 -4 -18q0 -6 12 -6h74q25 0 25 -50q0 -23 -9.5 -36t-19.5 -13h-96 q-32 0 -45 -39l-162 -426q-27 -78 -27 -86q0 -26 37 -26q20 0 75 38.5t104 77.5t55 39q16 0 16 -16q0 -18 -139 -141q-61 -55 -132 -92t-116 -37q-33 0 -49.5 16t-16.5 37z" />
<glyph unicode="u" horiz-adv-x="1024" d="M20 96q0 77 54.5 206.5t109 231.5t54.5 113q0 25 -27 25t-95 -59.5t-77 -59.5q-19 0 -19 16q0 14 57.5 71t140.5 112t138 55q27 0 42.5 -13.5t15.5 -37.5q0 -29 -64.5 -151.5t-129 -251.5t-64.5 -173q0 -28 14.5 -44.5t36.5 -16.5q23 0 47.5 9t52.5 30.5t53 43t57.5 60.5 t57 68t60.5 80.5t58 83.5t60.5 92t58 90t58.5 92q15 24 26 31.5t31 7.5h37q23 0 23 -12q0 -22 -105.5 -304.5t-105.5 -330.5q0 -29 29 -29q22 0 55.5 31.5t61 63.5t36.5 32q27 0 27 -20q0 -15 -52.5 -76t-126 -119.5t-118.5 -58.5q-31 0 -49.5 16.5t-18.5 42.5q0 57 29 145 t58.5 155t29.5 71q0 12 -10 12q-4 0 -63 -69t-133.5 -152t-167 -152t-154.5 -69q-89 0 -89 112z" />
<glyph unicode="v" horiz-adv-x="872" d="M23 549q0 12 33.5 53.5t81.5 87t109 81.5t107 36q27 0 43.5 -13.5t16.5 -37.5q0 -40 -38 -121.5t-83 -159t-83 -159.5t-38 -123q0 -87 86 -87q53 0 124.5 51t134.5 128.5t107 181t44 197.5q0 86 17 110.5t65 24.5q53 0 53 -54q0 -61 -39 -157.5t-106.5 -199.5 t-147.5 -194.5t-172 -150.5t-170 -59q-67 0 -103 35t-36 98q0 55 31.5 140t68.5 155.5t68.5 132.5t31.5 76q0 17 -6.5 23.5t-23.5 6.5q-19 0 -54 -30.5t-65 -60.5t-37 -30q-20 0 -20 19z" />
<glyph unicode="w" horiz-adv-x="1402" d="M12 104q0 68 51 181t101.5 201.5t50.5 97.5q0 22 -20 22t-48.5 -22.5t-53 -45t-36.5 -22.5q-14 0 -14 16q0 26 76.5 91.5t168.5 120.5t130 55q33 0 33 -29q0 -16 -68.5 -145t-137.5 -270.5t-69 -188.5q0 -43 47 -43q63 0 169 94.5t211 244t163 294.5q8 19 21.5 27t46.5 8 q51 0 51 -33q0 -37 -92.5 -284.5t-92.5 -295.5q0 -80 86 -80q40 0 93.5 30.5t110 88.5t105 132.5t79 174t30.5 201.5q0 43 13 62.5t51 19.5q32 0 45.5 -19t13.5 -63q0 -98 -68.5 -229t-166.5 -243t-214.5 -190.5t-205.5 -78.5q-119 0 -119 100q0 49 20 111t40 107.5t20 53.5 q0 21 -21 21q-10 0 -47.5 -40.5t-90 -98.5t-111.5 -115.5t-126.5 -98t-121.5 -40.5q-44 0 -73.5 32.5t-29.5 87.5z" />
<glyph unicode="x" horiz-adv-x="833" d="M-78 61q0 61 35 148l43 -10q-4 -32 -4 -45q0 -48 27 -48t137 116t110 143q0 17 -3.5 61t-11.5 106t-26 107t-41 45q-24 0 -44 -18t-40 -47t-28 -37l-37 30q63 91 119.5 143t115.5 52q107 0 107 -197v-61q0 -29 12 -29q4 0 35 45t70.5 98.5t96.5 98.5t107 45q42 0 59 -29 t17 -65q0 -43 -10 -111h-51q0 82 -53 82q-18 0 -40 -11.5t-47.5 -36t-46 -47t-49.5 -61t-44.5 -59.5t-43.5 -61q29 -74 37 -132q5 -34 7 -48.5t7.5 -41.5t11 -39t13.5 -27t19.5 -20.5t25.5 -5.5q19 0 43 22.5t43 45t27 22.5q9 0 14.5 -5t5.5 -11q0 -11 -32.5 -54.5 t-84 -86.5t-92.5 -43q-45 0 -77.5 35.5t-46 84.5t-13.5 103v45q0 20 -8 20q-7 0 -17 -11.5t-31.5 -39.5t-43.5 -51q-13 -14 -37 -40t-36.5 -39.5t-32.5 -33.5t-34 -30.5t-31 -22t-33 -16t-32 -4.5q-21 0 -32 23.5t-11 53.5z" />
<glyph unicode="y" horiz-adv-x="833" d="M-84 -414q0 29 14 49.5t35 20.5q8 0 30.5 -2t41.5 -2q45 0 99 64t89 144t35 130q0 6 -7.5 57t-22 138t-29.5 165q-8 44 -17 100t-14 90t-12 66.5t-14 47t-17 14.5q-11 0 -25.5 -12t-30.5 -34t-26.5 -39t-25 -41t-15.5 -26l-27 23q11 25 30.5 60.5t51.5 87t71 86t73 34.5 q36 0 53 -32.5t29 -115.5l47 -305q46 -291 55 -291t62.5 97.5t107 234t53.5 217.5q0 17 -6 58t-6 61q0 30 14.5 53t40.5 23q60 0 60 -84q0 -117 -89.5 -323.5t-230.5 -417.5q-312 -465 -416 -465q-29 0 -45 21t-16 48z" />
<glyph unicode="z" horiz-adv-x="833" d="M-55 29q0 17 10.5 43.5t34 65.5t72 88.5t114.5 97.5q56 41 193 130.5t186 131.5q-75 9 -141 36.5t-102 55t-68 50t-49 22.5q-20 0 -38 -18t-18 -40q0 -20 23.5 -54t23.5 -60t-15 -45t-44 -19q-36 0 -56 28.5t-20 65.5q0 78 59.5 138.5t155.5 60.5q58 0 118 -20.5 t99.5 -45t78 -45t59.5 -20.5q30 0 43.5 19t14 42.5t9.5 42.5t31 19q14 0 23.5 -10.5t9.5 -28.5q0 -51 -78 -130t-197 -163q-60 -42 -132 -89t-115 -76.5t-74 -57.5q50 -31 123 -85t117.5 -80t78.5 -26q33 0 54.5 18.5t21.5 45.5q0 22 -24.5 57t-24.5 55q0 30 18.5 48 t44.5 18q36 0 54 -25t18 -59q0 -95 -65.5 -161t-168.5 -66q-57 0 -114 27t-93 59t-70.5 59t-53.5 27q-21 0 -32 -27t-13.5 -59t-13.5 -59t-31 -27q-16 0 -26.5 11.5t-10.5 33.5z" />
<glyph unicode="{" horiz-adv-x="681" d="M98 -213q-3 59 13 131l88 361q14 57 14 106q-2 47 -26.5 77t-80.5 48q93 27 136 77.5t69 153.5l86 361q21 88 56 145.5t84 86.5t100 39.5t121 10.5l-6 -24q-92 -21 -141 -80t-76 -168l-82 -342q-14 -59 -29.5 -97t-42 -72t-67 -55t-99.5 -34v-4q64 -17 94 -46.5t35 -76.5 q3 -52 -16 -135l-84 -342q-15 -69 -15 -98q-6 -121 111 -150l-6 -25q-112 0 -171 31.5t-65 120.5z" />
<glyph unicode="|" horiz-adv-x="454" d="M182 0v1327h90v-1327h-90z" />
<glyph unicode="}" horiz-adv-x="681" d="M-166 -365l6 25q91 21 140 80.5t75 167.5l84 342q27 116 75.5 174.5t160.5 83.5v4q-64 17 -94 47.5t-33 79.5q-5 42 16 131l82 342q14 57 14 107q0 58 -25.5 92t-82.5 49l6 24q55 0 94.5 -6.5t73 -23t51.5 -49t19 -80.5q0 -54 -17 -123l-86 -361q-19 -85 -14 -129 q11 -68 104 -102q-92 -27 -135 -78t-67 -153l-88 -361q-17 -71 -43.5 -122.5t-58 -82t-74.5 -48.5t-85.5 -24t-97.5 -6z" />
<glyph unicode="~" horiz-adv-x="1228" d="M207 358q72 136 194 136q65 0 174 -50q120 -57 160 -57q28 0 55.5 19t42 38t39.5 56l56 -66q-28 -41 -50 -66t-61 -47t-84 -22q-67 0 -160 53q-98 54 -178 54q-47 0 -77 -30.5t-56 -82.5z" />
<glyph unicode="&#xa1;" horiz-adv-x="530" d="M-37 -475q0 13 1.5 26t6.5 32.5t8.5 32t13 45.5t15.5 52l142 484q17 57 45.5 165t42.5 158h53l-148 -917q-15 -93 -36.5 -124.5t-65.5 -31.5q-78 0 -78 78zM193 715q0 38 29.5 65t70.5 27t68.5 -26.5t27.5 -65.5t-28 -68t-68 -29q-41 0 -70.5 29t-29.5 68z" />
<glyph unicode="&#xa2;" d="M94 213q0 87 37 173.5t97.5 155.5t134.5 125.5t150 90.5t142 43l121 254h68l-117 -250q61 -7 91 -43t30 -78q0 -24 -16.5 -40.5t-36.5 -16.5t-37 15.5t-36.5 45t-31.5 41.5l-315 -663q73 0 180 81q11 8 25.5 21t24.5 21t16 8q16 0 16 -19q0 -6 -15 -25t-43.5 -45.5 t-64 -51.5t-83 -44.5t-93.5 -23.5l-135 -283h-68l135 283q-93 11 -134.5 75.5t-41.5 149.5zM238 213q0 -100 75 -133l322 676q0 2 -6 2q-61 0 -154.5 -95.5t-165 -227t-71.5 -222.5z" />
<glyph unicode="&#xa3;" d="M-55 57q0 41 48.5 66.5t117.5 28.5q31 87 71 259t54 224h-164l14 61h164l41 162q111 449 375 449q95 0 173.5 -55.5t78.5 -149.5q0 -54 -22.5 -81.5t-61.5 -27.5q-31 0 -49.5 23.5t-18.5 54.5q0 25 8 66t8 59q0 32 -29 51t-67 19q-96 0 -145 -80t-99 -289l-47 -201h211 l-16 -61h-211q-30 -110 -85.5 -254t-105.5 -225q15 1 39 4.5t37 3.5q86 0 191 -23q121 -22 139 -22q30 0 56 9t40 17.5t28.5 26t17 22t9.5 17.5q9 18 19 18q14 0 14 -20q0 -14 -7.5 -38.5t-25 -57.5t-42.5 -61.5t-65 -48t-87 -19.5q-95 0 -207 65q-5 3 -27 15t-30 16t-27 13 t-30.5 12.5t-28.5 6.5t-33 3q-3 -4 -11 -20t-16.5 -29.5t-17.5 -22.5q-63 -59 -117 -59q-61 0 -61 73z" />
<glyph unicode="&#xa4;" d="M57 319l88 89q-84 108 -84 241q0 134 84 242l-88 88l68 68l88 -89q108 84 242 84q137 0 241 -84l88 89l68 -68l-88 -88q84 -108 84 -242q0 -133 -84 -241l88 -89l-68 -67l-88 88q-108 -84 -241 -84q-134 0 -242 84l-88 -88zM164 649q0 -127 83 -215t208 -88t207.5 88 t82.5 215t-82.5 215t-207.5 88t-208 -88t-83 -215z" />
<glyph unicode="&#xa5;" d="M-86 1262v41q143 -5 283 -5q66 0 204 5v-41q-79 -3 -109 -25t-30 -63q0 -49 99.5 -249.5t164.5 -312.5q50 66 118 161t144 223.5t76 174.5q0 45 -33.5 68t-93.5 23v41q157 -5 193 -5q38 0 213 5v-41q-68 0 -115 -44t-135 -182q-69 -109 -162 -237h176v-62h-217 q-54 -76 -98 -143h315v-62h-356q-20 -28 -21 -30q-1 -6 -17 -66.5t-31.5 -121t-28.5 -124.5t-13 -88q0 -33 35.5 -49t124.5 -16v-41q-176 4 -262 4q-88 0 -268 -4v41q113 3 148 28.5t58 124.5q14 58 36.5 142.5t35 135t14.5 64.5h-344v62h330q-4 10 -14.5 30t-27.5 52 t-32 61h-256v62h226q-64 119 -138 282q-45 103 -87.5 142t-104.5 39z" />
<glyph unicode="&#xa6;" horiz-adv-x="454" d="M182 0v516h90v-516h-90zM182 811v516h90v-516h-90z" />
<glyph unicode="&#xa7;" horiz-adv-x="1024" d="M104 -172q0 67 32.5 98t68.5 31q34 0 59 -23t25 -61q0 -32 -20.5 -57t-41 -41.5t-20.5 -28.5q0 -22 47.5 -48t114.5 -26q106 0 159.5 53.5t53.5 143.5q0 49 -42 112.5t-101.5 129t-119 135.5t-101.5 152.5t-42 158.5q0 115 68.5 180.5t167.5 65.5q44 0 90 -17l4 5 q-26 28 -44.5 51t-43 61.5t-38 83t-13.5 90.5q0 41 17.5 82.5t51.5 80t93.5 63t134.5 24.5q114 0 184 -57.5t70 -141.5q0 -49 -29 -78.5t-70 -29.5q-34 0 -60 24.5t-26 57.5q0 31 15.5 49.5t31 33t15.5 34.5q0 32 -39.5 49.5t-96.5 17.5q-82 0 -140 -53.5t-58 -128.5 q0 -53 30 -110t74.5 -105t97 -105t97 -109.5t74.5 -119t30 -133.5q0 -117 -61.5 -183.5t-179.5 -66.5q-51 0 -76 10l-4 -4q69 -79 101 -137.5t32 -132.5q0 -50 -19.5 -98t-57 -88.5t-101 -65.5t-142.5 -25q-110 0 -181 63t-71 134zM270 610q0 -59 57 -154t138 -169t139 -74 q66 0 116 43.5t50 108.5q0 40 -31 106t-78 131t-112 112.5t-125 47.5q-66 0 -110 -43.5t-44 -108.5z" />
<glyph unicode="&#xa8;" horiz-adv-x="530" d="M78 1067q0 43 28 69.5t66 26.5t66 -27t28 -69q0 -38 -27 -65t-67 -27q-42 0 -68 27t-26 65zM438 1067q0 41 27 68.5t67 27.5q39 0 67 -28.5t28 -65.5q0 -40 -27.5 -67t-67.5 -27q-42 0 -68 26.5t-26 65.5z" />
<glyph unicode="&#xa9;" horiz-adv-x="1638" d="M170 649q0 182 86 335t235.5 242t327.5 89t327.5 -89t235.5 -242t86 -335q0 -136 -51 -259t-137.5 -212t-207 -141.5t-253.5 -52.5t-253.5 52.5t-207 141.5t-137.5 212t-51 259zM268 649q0 -151 73.5 -285t201.5 -216t276 -82t276 82t201.5 216t73.5 285q0 113 -44 220 t-117.5 187t-176 128.5t-213.5 48.5t-213.5 -48.5t-176 -128.5t-117.5 -187t-44 -220zM455 668q0 49 15 99.5t48.5 99t81 86t117.5 60.5t153 23q101 0 199 -32q43 -15 43 -41v-136h-33q-5 74 -56.5 125.5t-158.5 51.5q-136 0 -206 -90t-72 -238q-2 -163 71.5 -260t221.5 -97 q165 0 233 168h31l-31 -133q-3 -14 -14 -21.5t-37 -15.5q-93 -30 -201 -30q-85 0 -156 22t-128 66t-89 119t-32 174z" />
<glyph unicode="&#xaa;" horiz-adv-x="524" d="M90 918q0 26 13.5 71t42.5 100.5t69 103.5t100.5 81t128.5 33q23 0 43 -4q20 -5 31 -5q8 0 21 13q8 16 16 16q9 0 28 -9.5t19 -21.5q0 -9 -73.5 -186.5t-73.5 -200.5q0 -13 3.5 -16.5t12.5 -3.5q17 0 60.5 46t50.5 46q12 0 12 -10q0 -6 -28 -41.5t-74 -73t-84 -37.5 q-43 0 -43 47q0 29 25 84l26 54q0 8 -6 8q-4 0 -43 -49q-106 -144 -197 -144q-34 0 -57 26t-23 73zM180 940q0 -28 9 -39.5t28 -11.5q47 0 113.5 70.5t111.5 149t45 108.5q0 57 -65 57q-58 0 -115.5 -55.5t-92 -133.5t-34.5 -145z" />
<glyph unicode="&#xab;" horiz-adv-x="1024" d="M193 395l249 207q108 90 129 90q11 0 11 -12q0 -18 -92.5 -121t-167.5 -170q1 -2 42 -77.5t63 -125t24 -75.5q0 -13 -15 -13q-9 0 -54 56.5t-104.5 134.5t-84.5 106zM467 395l250 207q108 90 129 90q10 0 10 -12q0 -18 -92.5 -121t-167.5 -170q1 -2 42 -77.5t63 -125 t24 -75.5q0 -13 -14 -13q-9 0 -54.5 56.5t-105 134.5t-84.5 106z" />
<glyph unicode="&#xac;" horiz-adv-x="1228" d="M172 504v90h791v-426h-91v336h-700z" />
<glyph unicode="&#xad;" horiz-adv-x="681" d="M90 332v82l508 45v-82z" />
<glyph unicode="&#xae;" horiz-adv-x="1638" d="M170 649q0 182 86 335t235.5 242t327.5 89t327.5 -89t235.5 -242t86 -335q0 -136 -51 -259t-137.5 -212t-207 -141.5t-253.5 -52.5t-253.5 52.5t-207 141.5t-137.5 212t-51 259zM268 649q0 -151 73.5 -285t201.5 -216t276 -82t276 82t201.5 216t73.5 285q0 113 -44 220 t-117.5 187t-176 128.5t-213.5 48.5t-213.5 -48.5t-176 -128.5t-117.5 -187t-44 -220zM510 301v33q69 8 80 16q14 10 14 51v29v453v10q0 57 -10.5 68t-72.5 17q-7 1 -11 1v33h334q93 0 158 -44.5t65 -129.5q0 -74 -42.5 -127t-111.5 -76l111 -154q96 -127 154 -164v-16h-115 q-19 0 -37 13t-40 43.5t-41.5 63t-55 90t-68.5 105.5h-102v-186v-10q0 -54 8 -64q10 -13 63 -19q4 -1 12 -2q7 -1 11 -1v-33h-303zM719 649h92q69 0 105 47.5t36 132.5q0 79 -41 114.5t-106 35.5h-86v-330z" />
<glyph unicode="&#xaf;" horiz-adv-x="530" d="M88 1010l16 114h525l-17 -114h-524z" />
<glyph unicode="&#xb0;" horiz-adv-x="819" d="M176 1022q0 123 86 208t209 85t209 -85t86 -208t-86 -208t-209 -85t-209 85t-86 208zM258 1022q0 -92 61.5 -157.5t151.5 -65.5t151.5 65.5t61.5 157.5t-61.5 157.5t-151.5 65.5t-151.5 -65.5t-61.5 -157.5z" />
<glyph unicode="&#xb1;" horiz-adv-x="1228" d="M172 0v90h791v-90h-791zM172 426v90h350v275h90v-275h351v-90h-351v-274h-90v274h-350z" />
<glyph unicode="&#xb2;" horiz-adv-x="544" d="M41 526v29l201 207q130 134 184.5 213t54.5 145q0 59 -38.5 96t-108.5 37q-100 0 -201 -86l-8 21q75 70 133 98.5t127 28.5q81 0 133.5 -47t52.5 -115q0 -83 -57 -160.5t-201 -210.5l-166 -153q-20 -17 -20 -29q0 -4 20 -4h175q103 0 151 41q21 16 29 16q10 0 10 -12 q0 -11 -6 -23l-53 -92h-412z" />
<glyph unicode="&#xb3;" horiz-adv-x="544" d="M29 528l10 29q50 -8 92 -8q122 0 192 58t70 143q0 151 -196 192v19q13 7 53.5 20t77 27.5t75 35.5t61.5 53.5t23 71.5q0 49 -37 81t-92 32q-65 0 -125 -25l-2 21q85 37 181 37q82 0 124 -38t42 -99q0 -39 -19.5 -71.5t-56.5 -56.5t-69 -38.5t-79 -30.5q-4 -1 -9 -3 t-7.5 -2.5t-5.5 -2t-4.5 -2t-3.5 -1.5t-2.5 -1.5t-1.5 -2t-1 -2.5v-3t17.5 -6.5t42 -16t49 -29.5t42 -54.5t17.5 -84.5q0 -112 -93.5 -183t-256.5 -71q-71 0 -108 12z" />
<glyph unicode="&#xb4;" horiz-adv-x="530" d="M184 909l248 256q88 88 119 88q29 0 46 -15.5t17 -39.5q0 -29 -23.5 -52.5t-76.5 -58.5l-276 -178h-54z" />
<glyph unicode="&#xb5;" horiz-adv-x="1024" d="M-252 -410q0 22 52.5 116t123.5 220.5t101 202.5q8 79 61.5 201t102.5 214t49 103q0 25 -27 25t-95 -59.5t-77 -59.5q-19 0 -19 16q0 14 57.5 71t140.5 112t138 55q27 0 42.5 -13.5t15.5 -37.5q0 -29 -64.5 -151.5t-129 -251.5t-64.5 -173q0 -28 14.5 -44.5t36.5 -16.5 q23 0 47.5 9t52.5 30.5t53 43t57.5 60.5t57 68t60.5 80.5t58 83.5t60.5 92t58 90t58.5 92q15 24 26 31.5t31 7.5h37q23 0 23 -12q0 -22 -105.5 -304.5t-105.5 -330.5q0 -29 29 -29q22 0 55.5 31.5t61 63.5t36.5 32q27 0 27 -20q0 -15 -52.5 -76t-126 -119.5t-118.5 -58.5 q-31 0 -49.5 16.5t-18.5 42.5q0 57 29 145t58.5 155t29.5 71q0 12 -10 12q-4 0 -63 -69t-133.5 -152t-167 -152t-154.5 -69q-23 0 -39 8q-40 -68 -87 -179.5t-67 -174.5q-19 -58 -47 -89.5t-59 -31.5q-62 0 -62 73z" />
<glyph unicode="&#xb6;" horiz-adv-x="1228" d="M94 -475l12 49q61 4 94.5 11.5t57.5 28.5t35.5 49t25.5 83l185 711q-168 13 -237.5 81.5t-69.5 194.5q0 565 555 565h526l-12 -49q-61 -2 -92.5 -7t-56.5 -26t-37 -52t-29 -95l-332 -1282q-6 -24 -16 -55.5t-14.5 -51t-4.5 -42.5q0 -50 150 -64l-13 -49h-303l440 1712 h-118l-441 -1712h-305z" />
<glyph unicode="&#xb7;" horiz-adv-x="454" d="M74 395q0 44 32 76.5t76 32.5t76.5 -32.5t32.5 -76.5t-32.5 -76t-76.5 -32t-76 32t-32 76z" />
<glyph unicode="&#xb8;" horiz-adv-x="530" d="M-303 -301l14 53q100 -47 189 -47q110 0 110 82q0 33 -25.5 57.5t-78.5 24.5q-43 0 -70 -8l58 168h51l-33 -103q15 0 29.5 -1t40.5 -4.5t47.5 -12.5t42.5 -22.5t33 -37t12 -53.5q0 -79 -56.5 -113t-140.5 -34q-50 0 -97 9.5t-64.5 16.5t-61.5 25z" />
<glyph unicode="&#xb9;" horiz-adv-x="544" d="M61 524v25q35 1 53.5 3t36 8t27.5 20.5t19.5 35t19.5 56.5l121 403q22 71 22 105q0 21 -14 30t-63 9q-12 0 -52 -5v25q126 11 234 64q21 12 27 12t6 -6q0 -11 -4 -31l-164 -541q-41 -138 -41 -149q0 -21 21.5 -29.5t88.5 -9.5v-25q-27 0 -84 1t-84 1q-29 0 -85 -1t-85 -1 z" />
<glyph unicode="&#xba;" horiz-adv-x="524" d="M98 1006q0 72 39 142t115 118.5t168 48.5q74 0 127 -49t53 -136q0 -72 -39 -142.5t-114.5 -119.5t-167.5 -49q-74 0 -127.5 49.5t-53.5 137.5zM188 969q0 -117 91 -117q48 0 103 50t91.5 124.5t36.5 140.5q0 115 -90 115q-75 0 -153.5 -105.5t-78.5 -207.5z" />
<glyph unicode="&#xbb;" horiz-adv-x="1024" d="M180 111q0 18 92.5 120.5t167.5 169.5l-42 77q-41 77 -63 126.5t-24 75.5q0 12 15 12q9 0 54 -56.5t104.5 -134.5t84.5 -106l-250 -207q-108 -90 -129 -90q-10 0 -10 13zM455 111q0 18 92.5 120.5t167.5 169.5l-41 77q-42 77 -64 126.5t-24 75.5q0 12 14 12 q9 0 54.5 -56.5t105 -134.5t84.5 -106l-250 -207q-108 -90 -129 -90q-10 0 -10 13z" />
<glyph unicode="&#xbc;" horiz-adv-x="1363" d="M61 524v25q35 1 53.5 3t36 8t27.5 20.5t19.5 35t19.5 56.5l121 403q22 71 22 105q0 21 -14 30t-63 9q-12 0 -52 -5v25q126 11 234 64q21 12 27 12t6 -6q0 -11 -4 -31l-164 -541q-41 -138 -41 -149q0 -21 21.5 -29.5t88.5 -9.5v-25q-27 0 -84 1t-84 1q-29 0 -85 -1t-85 -1 zM201 -16l942 1331h84l-942 -1331h-84zM745 287v65l484 436h47l-129 -440h129l-10 -61h-138l-88 -287h-79l88 287h-304zM791 348h276l104 342l-2 -2l-4 4z" />
<glyph unicode="&#xbd;" horiz-adv-x="1363" d="M61 524v25q35 1 53.5 3t36 8t27.5 20.5t19.5 35t19.5 56.5l121 403q22 71 22 105q0 21 -14 30t-63 9q-12 0 -52 -5v25q126 11 234 64q21 12 27 12t6 -6q0 -11 -4 -31l-164 -541q-41 -138 -41 -149q0 -21 21.5 -29.5t88.5 -9.5v-25q-27 0 -84 1t-84 1q-29 0 -85 -1t-85 -1 zM150 -16l942 1331h84l-943 -1331h-83zM748 0v29l200 207q131 134 185.5 213t54.5 145q0 59 -39 96t-109 37q-99 0 -200 -86l-9 21q74 70 132.5 98t128.5 28q81 0 133.5 -46.5t52.5 -114.5q0 -83 -57 -160.5t-201 -210.5l-166 -154q-20 -18 -20 -28q0 -4 20 -4h174 q104 0 152 41q21 16 28 16q11 0 11 -12q0 -9 -7 -23l-53 -92h-411z" />
<glyph unicode="&#xbe;" horiz-adv-x="1363" d="M29 528l10 29q50 -8 92 -8q122 0 192 58t70 143q0 151 -196 192v19q13 7 53.5 20t77 27.5t75 35.5t61.5 53.5t23 71.5q0 49 -37 81t-92 32q-65 0 -125 -25l-2 21q85 37 181 37q82 0 124 -38t42 -99q0 -39 -19.5 -71.5t-56.5 -56.5t-69 -38.5t-79 -30.5q-4 -1 -9 -3 t-7.5 -2.5t-5.5 -2t-4.5 -2t-3.5 -1.5t-2.5 -1.5t-1.5 -2t-1 -2.5v-3t17.5 -6.5t42 -16t49 -29.5t42 -54.5t17.5 -84.5q0 -112 -93.5 -183t-256.5 -71q-71 0 -108 12zM201 -16l942 1331h84l-942 -1331h-84zM745 287v65l484 436h47l-129 -440h129l-10 -61h-138l-88 -287h-79 l88 287h-304zM791 348h276l104 342l-2 -2l-4 4z" />
<glyph unicode="&#xbf;" d="M-96 -256q0 72 21.5 137t52 111t79 87.5t87 66.5t93 49.5t79.5 33.5t63 21l78 313q34 -3 46.5 -10t12.5 -21q0 -7 -3.5 -20.5t-4.5 -17.5l-76 -318q-65 -16 -129 -52.5t-119.5 -88.5t-90 -125.5t-34.5 -153.5q0 -120 63.5 -179.5t149.5 -59.5q100 0 168 79.5t68 186.5 q0 52 24.5 79t61.5 27q30 0 50 -19t20 -58q0 -32 -17 -76.5t-53 -95t-84.5 -93.5t-120.5 -71.5t-153 -28.5q-153 0 -242.5 90t-89.5 207zM426 715q0 38 29.5 65t70.5 27t69 -27t28 -65q0 -39 -28 -68t-69 -29t-70.5 29t-29.5 68z" />
<glyph unicode="&#xc0;" horiz-adv-x="1214" d="M-131 -4v41q54 3 105 38t116 130l768 1110h64v-1139q0 -85 29 -112t124 -27v-41q-176 4 -260 4q-134 0 -260 -4v41q126 0 164.5 38t38.5 154v281q-181 0 -393 8l-113 -164q-129 -192 -129 -243q0 -63 115 -74v-41q-126 4 -193 4q-31 -1 -70.5 -1.5t-64 -1t-41.5 -1.5z M397 571h361v488q0 14 -4 14q-8 0 -17 -14zM711 1647q0 27 15.5 44t41.5 17q44 0 115 -92l184 -252h-47l-197 152q-64 52 -88 78.5t-24 52.5z" />
<glyph unicode="&#xc1;" horiz-adv-x="1214" d="M-131 -4v41q54 3 105 38t116 130l768 1110h64v-1139q0 -85 29 -112t124 -27v-41q-176 4 -260 4q-134 0 -260 -4v41q126 0 164.5 38t38.5 154v281q-181 0 -393 8l-113 -164q-129 -192 -129 -243q0 -63 115 -74v-41q-126 4 -193 4q-31 -1 -70.5 -1.5t-64 -1t-41.5 -1.5z M397 571h361v488q0 14 -4 14q-8 0 -17 -14zM752 1364l247 256q88 88 119 88q29 0 46.5 -15.5t17.5 -39.5q0 -28 -23.5 -52t-77.5 -59l-276 -178h-53z" />
<glyph unicode="&#xc2;" horiz-adv-x="1214" d="M-131 -4v41q54 3 105 38t116 130l768 1110h64v-1139q0 -85 29 -112t124 -27v-41q-176 4 -260 4q-134 0 -260 -4v41q126 0 164.5 38t38.5 154v281q-181 0 -393 8l-113 -164q-129 -192 -129 -243q0 -63 115 -74v-41q-126 4 -193 4q-31 -1 -70.5 -1.5t-64 -1t-41.5 -1.5z M397 571h361v488q0 14 -4 14q-8 0 -17 -14zM600 1364l307 344h107l155 -344h-45l-176 225l-291 -225h-57z" />
<glyph unicode="&#xc3;" horiz-adv-x="1214" d="M-131 -4v41q54 3 105 38t116 130l768 1110h64v-1139q0 -85 29 -112t124 -27v-41q-176 4 -260 4q-134 0 -260 -4v41q126 0 164.5 38t38.5 154v281q-181 0 -393 8l-113 -164q-129 -192 -129 -243q0 -63 115 -74v-41q-126 4 -193 4q-31 -1 -70.5 -1.5t-64 -1t-41.5 -1.5z M397 571h361v488q0 14 -4 14q-8 0 -17 -14zM633 1413q16 76 61.5 128t110.5 52q49 0 143 -24.5t115 -24.5q59 0 78 90h41q-3 -84 -47 -140t-109 -56q-45 0 -139 28q-93 29 -121 29q-23 0 -40 -7t-27 -21.5t-15 -25.5t-10 -28h-41z" />
<glyph unicode="&#xc4;" horiz-adv-x="1214" d="M-131 -4v41q54 3 105 38t116 130l768 1110h64v-1139q0 -85 29 -112t124 -27v-41q-176 4 -260 4q-134 0 -260 -4v41q126 0 164.5 38t38.5 154v281q-181 0 -393 8l-113 -164q-129 -192 -129 -243q0 -63 115 -74v-41q-126 4 -193 4q-31 -1 -70.5 -1.5t-64 -1t-41.5 -1.5z M397 571h361v488q0 14 -4 14q-8 0 -17 -14zM645 1522q0 43 28 69.5t66 26.5t66.5 -27.5t28.5 -68.5q0 -38 -27 -65t-68 -27q-42 0 -68 27t-26 65zM1006 1522q0 41 27 68.5t67 27.5q39 0 66.5 -28.5t27.5 -65.5q0 -40 -27 -67t-67 -27q-42 0 -68 26.5t-26 65.5z" />
<glyph unicode="&#xc5;" horiz-adv-x="1214" d="M-131 -4v41q54 3 105 38t116 130l768 1110h64v-1139q0 -85 29 -112t124 -27v-41q-176 4 -260 4q-134 0 -260 -4v41q126 0 164.5 38t38.5 154v281q-181 0 -393 8l-113 -164q-129 -192 -129 -243q0 -63 115 -74v-41q-126 4 -193 4q-31 -1 -70.5 -1.5t-64 -1t-41.5 -1.5z M397 571h361v488q0 14 -4 14q-8 0 -17 -14zM715 1542q0 77 55 132t131 55t131 -55t55 -132q0 -76 -54.5 -131t-131.5 -55t-131.5 55t-54.5 131zM780 1542q0 -53 34.5 -89t86.5 -36t86.5 36t34.5 89t-34.5 89t-86.5 36t-86.5 -36t-34.5 -89z" />
<glyph unicode="&#xc6;" horiz-adv-x="1820" d="M-131 0v41q56 4 83.5 20.5t63.5 63.5q135 179 361.5 443.5t369 432.5t142.5 195q0 34 -38.5 49t-127.5 12v41h1006q23 0 31.5 -6.5t8.5 -25.5q0 -24 -13 -108.5t-19 -108.5q-9 -36 -17 -49t-20 -13q-21 0 -29 49q-1 5 -2 8q-22 121 -73 161t-191 40q-88 0 -134.5 -7 t-60 -17.5t-18.5 -30.5l-92 -369q-15 -62 -15 -67q0 -22 20.5 -31.5t78.5 -9.5q197 0 270 86q12 14 25 39t23 39t20 14q18 0 18 -23q0 -8 -6 -30t-27 -99.5t-45 -171.5q-13 -57 -22.5 -85.5t-22.5 -28.5q-14 0 -19 7t-5 25q0 79 -12.5 114.5t-42.5 47.5t-99 12 q-122 0 -154 -6.5t-38 -29.5l-101 -369q-5 -20 -17.5 -65t-18 -68.5t-5.5 -34.5q0 -19 14.5 -28.5t68 -15t163.5 -5.5q170 3 267 59t184 197h45q-42 -172 -84 -283q-3 -8 -22.5 -11t-82.5 -3q-34 0 -141.5 2t-218.5 2h-547v41q50 9 70 13t48 14t37 18.5t23.5 29t22 44 t18.5 63.5l102 369q5 15 5 18q0 4 -15 4h-356q-8 0 -17.5 -6.5t-41.5 -42.5t-95 -112q-35 -40 -78 -93t-91 -127t-48 -106q0 -38 28.5 -59t94.5 -27v-41h-389zM545 684q0 -8 16 -8h332q11 37 28 97t28 97.5t24.5 86.5t22 81l17 64t12 52t3.5 30t-6 17t-14 7q-14 0 -55.5 -44 t-112 -130t-90.5 -108q-20 -25 -74.5 -87.5t-92.5 -107t-38 -47.5z" />
<glyph unicode="&#xc7;" horiz-adv-x="1290" d="M70 459q0 160 70.5 317t185 275t271 191t318.5 73q137 0 214 -18t77 -50q0 -54 -12 -104l-20 -99q-13 -67 -27 -67q-9 0 -41 18q-3 35 -9 67t-22 71t-38.5 67t-61.5 47t-88 19q-105 0 -217.5 -76t-199.5 -193.5t-143.5 -269.5t-56.5 -295q0 -61 9.5 -116.5t32 -108 t56 -90.5t84.5 -61t115 -23q81 0 152 29t117.5 70t83 82t63 70t41.5 29q18 0 18 -26q0 -23 -39 -120.5t-67 -115.5q-35 -23 -138 -45t-220 -22q-29 0 -39 4l-21 -62q15 0 29.5 -1t40.5 -4.5t47.5 -12.5t42.5 -22.5t33 -37t12 -53.5q0 -79 -56.5 -113t-140.5 -34 q-50 0 -97 9.5t-64.5 16.5t-61.5 25l14 53q100 -47 189 -47q110 0 110 82q0 33 -25.5 57.5t-78.5 24.5q-43 0 -70 -8l45 133q-190 23 -303.5 148.5t-113.5 316.5z" />
<glyph unicode="&#xc8;" horiz-adv-x="1251" d="M-57 -4v41q38 2 57.5 4.5t42 10.5t33.5 19.5t25 35t23.5 54t22.5 79.5l203 764q35 136 35 178q0 39 -46 59.5t-167 20.5v41q333 -5 508 -5q132 0 247 1t176.5 2.5t63.5 1.5q41 0 41 -21q0 -24 -13.5 -115.5t-18.5 -113.5q-9 -36 -17 -49t-20 -13q-21 0 -29 49q-1 6 -2 9 q-9 51 -21 83t-33.5 58.5t-56.5 40.5t-86.5 22t-128.5 9q-85 2 -133.5 -9t-61.5 -24.5t-18 -36.5l-92 -369q-14 -58 -14 -67q0 -22 20 -31.5t78 -9.5q238 0 311 86q12 14 25 39t23 39t20 14q18 0 18 -23q0 -5 -2 -15t-8 -33t-14 -51.5t-22.5 -84t-30.5 -117.5 q-13 -57 -22.5 -85.5t-22.5 -28.5q-15 0 -20 7t-5 25q0 61 -6 93t-28.5 52t-57.5 25t-103 5q-84 0 -123.5 -3.5t-52 -10.5t-16.5 -23l-100 -371q-5 -20 -17.5 -65t-18 -68.5t-5.5 -34.5q0 -19 14.5 -28.5t67.5 -15t163 -5.5q145 0 238 26.5t153 79t121 150.5h45 q-42 -172 -84 -283q-3 -8 -22 -11t-82 -3q-34 0 -172.5 2t-249.5 2q-384 0 -532 -4zM623 1647q0 27 15.5 44t41.5 17q44 0 115 -92l184 -252h-47l-197 152q-64 52 -88 78.5t-24 52.5z" />
<glyph unicode="&#xc9;" horiz-adv-x="1251" d="M-57 -4v41q38 2 57.5 4.5t42 10.5t33.5 19.5t25 35t23.5 54t22.5 79.5l203 764q35 136 35 178q0 39 -46 59.5t-167 20.5v41q333 -5 508 -5q132 0 247 1t176.5 2.5t63.5 1.5q41 0 41 -21q0 -24 -13.5 -115.5t-18.5 -113.5q-9 -36 -17 -49t-20 -13q-21 0 -29 49q-1 6 -2 9 q-9 51 -21 83t-33.5 58.5t-56.5 40.5t-86.5 22t-128.5 9q-85 2 -133.5 -9t-61.5 -24.5t-18 -36.5l-92 -369q-14 -58 -14 -67q0 -22 20 -31.5t78 -9.5q238 0 311 86q12 14 25 39t23 39t20 14q18 0 18 -23q0 -5 -2 -15t-8 -33t-14 -51.5t-22.5 -84t-30.5 -117.5 q-13 -57 -22.5 -85.5t-22.5 -28.5q-15 0 -20 7t-5 25q0 61 -6 93t-28.5 52t-57.5 25t-103 5q-84 0 -123.5 -3.5t-52 -10.5t-16.5 -23l-100 -371q-5 -20 -17.5 -65t-18 -68.5t-5.5 -34.5q0 -19 14.5 -28.5t67.5 -15t163 -5.5q145 0 238 26.5t153 79t121 150.5h45 q-42 -172 -84 -283q-3 -8 -22 -11t-82 -3q-34 0 -172.5 2t-249.5 2q-384 0 -532 -4zM664 1364l247 256q88 88 119 88q29 0 46.5 -15.5t17.5 -39.5q0 -28 -23.5 -52t-77.5 -59l-276 -178h-53z" />
<glyph unicode="&#xca;" horiz-adv-x="1251" d="M-57 -4v41q38 2 57.5 4.5t42 10.5t33.5 19.5t25 35t23.5 54t22.5 79.5l203 764q35 136 35 178q0 39 -46 59.5t-167 20.5v41q333 -5 508 -5q132 0 247 1t176.5 2.5t63.5 1.5q41 0 41 -21q0 -24 -13.5 -115.5t-18.5 -113.5q-9 -36 -17 -49t-20 -13q-21 0 -29 49q-1 6 -2 9 q-9 51 -21 83t-33.5 58.5t-56.5 40.5t-86.5 22t-128.5 9q-85 2 -133.5 -9t-61.5 -24.5t-18 -36.5l-92 -369q-14 -58 -14 -67q0 -22 20 -31.5t78 -9.5q238 0 311 86q12 14 25 39t23 39t20 14q18 0 18 -23q0 -5 -2 -15t-8 -33t-14 -51.5t-22.5 -84t-30.5 -117.5 q-13 -57 -22.5 -85.5t-22.5 -28.5q-15 0 -20 7t-5 25q0 61 -6 93t-28.5 52t-57.5 25t-103 5q-84 0 -123.5 -3.5t-52 -10.5t-16.5 -23l-100 -371q-5 -20 -17.5 -65t-18 -68.5t-5.5 -34.5q0 -19 14.5 -28.5t67.5 -15t163 -5.5q145 0 238 26.5t153 79t121 150.5h45 q-42 -172 -84 -283q-3 -8 -22 -11t-82 -3q-34 0 -172.5 2t-249.5 2q-384 0 -532 -4zM512 1364l307 344h107l155 -344h-45l-176 225l-291 -225h-57z" />
<glyph unicode="&#xcb;" horiz-adv-x="1251" d="M-57 -4v41q38 2 57.5 4.5t42 10.5t33.5 19.5t25 35t23.5 54t22.5 79.5l203 764q35 136 35 178q0 39 -46 59.5t-167 20.5v41q333 -5 508 -5q132 0 247 1t176.5 2.5t63.5 1.5q41 0 41 -21q0 -24 -13.5 -115.5t-18.5 -113.5q-9 -36 -17 -49t-20 -13q-21 0 -29 49q-1 6 -2 9 q-9 51 -21 83t-33.5 58.5t-56.5 40.5t-86.5 22t-128.5 9q-85 2 -133.5 -9t-61.5 -24.5t-18 -36.5l-92 -369q-14 -58 -14 -67q0 -22 20 -31.5t78 -9.5q238 0 311 86q12 14 25 39t23 39t20 14q18 0 18 -23q0 -5 -2 -15t-8 -33t-14 -51.5t-22.5 -84t-30.5 -117.5 q-13 -57 -22.5 -85.5t-22.5 -28.5q-15 0 -20 7t-5 25q0 61 -6 93t-28.5 52t-57.5 25t-103 5q-84 0 -123.5 -3.5t-52 -10.5t-16.5 -23l-100 -371q-5 -20 -17.5 -65t-18 -68.5t-5.5 -34.5q0 -19 14.5 -28.5t67.5 -15t163 -5.5q145 0 238 26.5t153 79t121 150.5h45 q-42 -172 -84 -283q-3 -8 -22 -11t-82 -3q-34 0 -172.5 2t-249.5 2q-384 0 -532 -4zM557 1522q0 43 28 69.5t66 26.5t66 -27t28 -69q0 -38 -27 -65t-67 -27q-42 0 -68 27t-26 65zM918 1522q0 41 27 68.5t67 27.5q39 0 66.5 -28.5t27.5 -65.5q0 -40 -27 -67t-67 -27 q-42 0 -68 26.5t-26 65.5z" />
<glyph unicode="&#xcc;" horiz-adv-x="720" d="M-25 -4v41q79 6 117.5 40.5t67.5 143.5l229 852q2 7 11.5 41t14.5 56.5t5 37.5q0 31 -28.5 42.5t-121.5 11.5v41q103 -5 238 -5q51 0 246 5v-41q-93 0 -129 -35t-66 -148l-211 -803q-41 -157 -41 -182q0 -50 127 -57v-41q-118 4 -241 4q-78 0 -218 -4zM358 1647 q0 27 16 44t42 17q43 0 114 -92l185 -252h-47l-197 152q-65 52 -89 78.5t-24 52.5z" />
<glyph unicode="&#xcd;" horiz-adv-x="720" d="M-25 -4v41q79 6 117.5 40.5t67.5 143.5l229 852q2 7 11.5 41t14.5 56.5t5 37.5q0 31 -28.5 42.5t-121.5 11.5v41q103 -5 238 -5q51 0 246 5v-41q-93 0 -129 -35t-66 -148l-211 -803q-41 -157 -41 -182q0 -50 127 -57v-41q-118 4 -241 4q-78 0 -218 -4zM399 1364l248 256 q88 88 119 88q29 0 46 -15.5t17 -39.5q0 -29 -23.5 -52.5t-76.5 -58.5l-276 -178h-54z" />
<glyph unicode="&#xce;" horiz-adv-x="720" d="M-25 -4v41q79 6 117.5 40.5t67.5 143.5l229 852q2 7 11.5 41t14.5 56.5t5 37.5q0 31 -28.5 42.5t-121.5 11.5v41q103 -5 238 -5q51 0 246 5v-41q-93 0 -129 -35t-66 -148l-211 -803q-41 -157 -41 -182q0 -50 127 -57v-41q-118 4 -241 4q-78 0 -218 -4zM248 1364l307 344 h107l155 -344h-45l-176 225l-291 -225h-57z" />
<glyph unicode="&#xcf;" horiz-adv-x="720" d="M-25 -4v41q79 6 117.5 40.5t67.5 143.5l229 852q2 7 11.5 41t14.5 56.5t5 37.5q0 31 -28.5 42.5t-121.5 11.5v41q103 -5 238 -5q51 0 246 5v-41q-93 0 -129 -35t-66 -148l-211 -803q-41 -157 -41 -182q0 -50 127 -57v-41q-118 4 -241 4q-78 0 -218 -4zM293 1522 q0 43 28 69.5t66 26.5t66 -27t28 -69q0 -38 -27 -65t-67 -27q-42 0 -68 27t-26 65zM653 1522q0 41 27.5 68.5t67.5 27.5q39 0 66.5 -28.5t27.5 -65.5q0 -40 -27 -67t-67 -27q-42 0 -68.5 26.5t-26.5 65.5z" />
<glyph unicode="&#xd0;" horiz-adv-x="1478" d="M-84 0v41q95 1 135.5 27.5t59.5 93.5l137 461h-170l12 69h178l99 334q30 102 30 150q0 30 -10.5 46.5t-49 28t-110.5 11.5v41q225 -5 291 -5q37 0 130 2.5t159 2.5q92 0 176.5 -18t161 -58t132.5 -99t89 -147.5t33 -196.5q0 -68 -18.5 -144t-56 -153.5t-89.5 -150.5 t-124.5 -137t-156 -112t-188.5 -75.5t-217 -27.5q-60 0 -174 8q-118 8 -189 8h-270zM281 104q0 -23 11.5 -36t55.5 -22t127 -9q124 0 228.5 30t177.5 79.5t131 117t92.5 138.5t57.5 148.5t31.5 142t8.5 124.5q0 115 -33 202t-92.5 139t-136.5 78t-170 26q-60 0 -96.5 -8.5 t-62 -35t-39 -58.5t-31.5 -95l-105 -373h441l-13 -69h-448l-74 -263q-61 -217 -61 -256z" />
<glyph unicode="&#xd1;" horiz-adv-x="1517" d="M-41 0v41q86 9 129 64t88 217l205 731q16 62 16 98q0 40 -16 62t-63 35t-134 14v41l346 -5q59 0 74 -38q84 -219 238.5 -569t214.5 -441h12q4 7 10.5 26.5t17.5 56.5t21 71t27.5 96t30.5 106q135 456 135 551q0 56 -34.5 79t-137.5 26v41q175 -5 207 -5q52 0 247 5v-41 q-76 -1 -118 -25.5t-74.5 -88t-69.5 -196.5l-262 -952h-86q-87 159 -276.5 590t-239.5 534h-4q-5 -24 -129.5 -460.5t-124.5 -505.5q0 -46 35.5 -77.5t134.5 -39.5v-41h-420zM700 1413q16 76 61.5 128t110.5 52q49 0 143 -24.5t115 -24.5q59 0 78 90h41q-3 -84 -46.5 -140 t-108.5 -56q-46 0 -140 28q-93 29 -120 29q-31 0 -51.5 -14.5t-27.5 -29.5t-14 -38h-41z" />
<glyph unicode="&#xd2;" horiz-adv-x="1327" d="M57 537q0 140 54 279.5t146.5 250t227.5 179.5t285 69q79 0 151 -21.5t134.5 -67t108.5 -110t72 -155.5t26 -199q0 -140 -54 -279.5t-146.5 -250t-227.5 -179.5t-285 -69q-79 0 -151 21.5t-134.5 67t-108.5 110t-72 155.5t-26 199zM221 348q0 -143 88 -233t240 -90 q148 0 276.5 136.5t200.5 349t72 439.5q0 143 -88 233.5t-240 90.5q-112 0 -215 -81t-175.5 -211t-115.5 -297.5t-43 -336.5zM662 1647q0 27 15.5 44t41.5 17q44 0 115 -92l184 -252h-47l-197 152q-64 52 -88 78.5t-24 52.5z" />
<glyph unicode="&#xd3;" horiz-adv-x="1327" d="M57 537q0 140 54 279.5t146.5 250t227.5 179.5t285 69q79 0 151 -21.5t134.5 -67t108.5 -110t72 -155.5t26 -199q0 -140 -54 -279.5t-146.5 -250t-227.5 -179.5t-285 -69q-79 0 -151 21.5t-134.5 67t-108.5 110t-72 155.5t-26 199zM221 348q0 -143 88 -233t240 -90 q148 0 276.5 136.5t200.5 349t72 439.5q0 143 -88 233.5t-240 90.5q-112 0 -215 -81t-175.5 -211t-115.5 -297.5t-43 -336.5zM702 1364l248 256q88 88 119 88q29 0 46.5 -15.5t17.5 -39.5q0 -28 -23.5 -52t-77.5 -59l-276 -178h-54z" />
<glyph unicode="&#xd4;" horiz-adv-x="1327" d="M57 537q0 140 54 279.5t146.5 250t227.5 179.5t285 69q79 0 151 -21.5t134.5 -67t108.5 -110t72 -155.5t26 -199q0 -140 -54 -279.5t-146.5 -250t-227.5 -179.5t-285 -69q-79 0 -151 21.5t-134.5 67t-108.5 110t-72 155.5t-26 199zM221 348q0 -143 88 -233t240 -90 q148 0 276.5 136.5t200.5 349t72 439.5q0 143 -88 233.5t-240 90.5q-112 0 -215 -81t-175.5 -211t-115.5 -297.5t-43 -336.5zM551 1364l307 344h107l155 -344h-45l-176 225l-291 -225h-57z" />
<glyph unicode="&#xd5;" horiz-adv-x="1327" d="M57 537q0 140 54 279.5t146.5 250t227.5 179.5t285 69q79 0 151 -21.5t134.5 -67t108.5 -110t72 -155.5t26 -199q0 -140 -54 -279.5t-146.5 -250t-227.5 -179.5t-285 -69q-79 0 -151 21.5t-134.5 67t-108.5 110t-72 155.5t-26 199zM221 348q0 -143 88 -233t240 -90 q148 0 276.5 136.5t200.5 349t72 439.5q0 143 -88 233.5t-240 90.5q-112 0 -215 -81t-175.5 -211t-115.5 -297.5t-43 -336.5zM584 1413q16 76 61.5 128t110.5 52q49 0 143 -24.5t115 -24.5q59 0 78 90h41q-3 -84 -47 -140t-109 -56q-45 0 -139 28q-93 29 -121 29 q-23 0 -40 -7t-27 -21.5t-15 -25.5t-10 -28h-41z" />
<glyph unicode="&#xd6;" horiz-adv-x="1327" d="M57 537q0 140 54 279.5t146.5 250t227.5 179.5t285 69q79 0 151 -21.5t134.5 -67t108.5 -110t72 -155.5t26 -199q0 -140 -54 -279.5t-146.5 -250t-227.5 -179.5t-285 -69q-79 0 -151 21.5t-134.5 67t-108.5 110t-72 155.5t-26 199zM221 348q0 -143 88 -233t240 -90 q148 0 276.5 136.5t200.5 349t72 439.5q0 143 -88 233.5t-240 90.5q-112 0 -215 -81t-175.5 -211t-115.5 -297.5t-43 -336.5zM596 1522q0 43 28 69.5t66 26.5t66 -27t28 -69q0 -38 -27 -65t-67 -27q-42 0 -68 27t-26 65zM956 1522q0 41 27.5 68.5t67.5 27.5q39 0 66.5 -28.5 t27.5 -65.5q0 -40 -27 -67t-67 -27q-42 0 -68.5 26.5t-26.5 65.5z" />
<glyph unicode="&#xd7;" horiz-adv-x="1228" d="M172 66l332 329l-332 330l64 66l331 -332l332 332l64 -66l-332 -330l332 -329l-64 -66l-332 332l-331 -332z" />
<glyph unicode="&#xd8;" horiz-adv-x="1327" d="M57 537q0 140 54 279.5t146.5 250t227.5 179.5t285 69q110 0 195 -39l137 246h76l-154 -277q110 -65 174 -187.5t64 -295.5q0 -140 -54 -279.5t-146.5 -250t-227.5 -179.5t-285 -69q-116 0 -207 45l-160 -285h-76l177 315q-105 67 -165.5 188.5t-60.5 289.5zM221 348 q0 -149 92 -235l627 1120q-71 41 -170 41q-112 0 -215 -81t-175.5 -211t-115.5 -297.5t-43 -336.5zM367 72q74 -47 182 -47q148 0 276.5 136.5t200.5 349t72 439.5q0 160 -103 246z" />
<glyph unicode="&#xd9;" horiz-adv-x="1441" d="M164 313q0 76 35 189l153 522q35 108 35 164q0 64 -170 69v41h541v-41q-51 -1 -83.5 -7.5t-56.5 -18.5t-40.5 -38.5t-28 -57t-25.5 -84.5l-139 -531q-45 -164 -45 -209q0 -50 14.5 -91t48 -77t97 -56.5t151.5 -20.5q82 0 146 20.5t109 55.5t80.5 94.5t59.5 124.5t48 157 l125 479q3 12 13 47.5t14.5 60.5t4.5 50q0 55 -32.5 78.5t-122.5 23.5v41h389v-41q-75 -3 -117.5 -43t-62.5 -116l-158 -623q-35 -140 -77 -228t-109.5 -150t-163 -87.5t-236.5 -25.5q-49 0 -99 9t-105 32.5t-97 59t-69 95t-27 133.5zM719 1647q0 27 15.5 44t41.5 17 q44 0 115 -92l184 -252h-47l-197 152q-64 52 -88 78.5t-24 52.5z" />
<glyph unicode="&#xda;" horiz-adv-x="1441" d="M164 313q0 76 35 189l153 522q35 108 35 164q0 64 -170 69v41h541v-41q-51 -1 -83.5 -7.5t-56.5 -18.5t-40.5 -38.5t-28 -57t-25.5 -84.5l-139 -531q-45 -164 -45 -209q0 -50 14.5 -91t48 -77t97 -56.5t151.5 -20.5q82 0 146 20.5t109 55.5t80.5 94.5t59.5 124.5t48 157 l125 479q3 12 13 47.5t14.5 60.5t4.5 50q0 55 -32.5 78.5t-122.5 23.5v41h389v-41q-75 -3 -117.5 -43t-62.5 -116l-158 -623q-35 -140 -77 -228t-109.5 -150t-163 -87.5t-236.5 -25.5q-49 0 -99 9t-105 32.5t-97 59t-69 95t-27 133.5zM760 1364l248 256q88 88 118 88 q29 0 46.5 -15.5t17.5 -39.5q0 -29 -23.5 -52.5t-76.5 -58.5l-277 -178h-53z" />
<glyph unicode="&#xdb;" horiz-adv-x="1441" d="M164 313q0 76 35 189l153 522q35 108 35 164q0 64 -170 69v41h541v-41q-51 -1 -83.5 -7.5t-56.5 -18.5t-40.5 -38.5t-28 -57t-25.5 -84.5l-139 -531q-45 -164 -45 -209q0 -50 14.5 -91t48 -77t97 -56.5t151.5 -20.5q82 0 146 20.5t109 55.5t80.5 94.5t59.5 124.5t48 157 l125 479q3 12 13 47.5t14.5 60.5t4.5 50q0 55 -32.5 78.5t-122.5 23.5v41h389v-41q-75 -3 -117.5 -43t-62.5 -116l-158 -623q-35 -140 -77 -228t-109.5 -150t-163 -87.5t-236.5 -25.5q-49 0 -99 9t-105 32.5t-97 59t-69 95t-27 133.5zM608 1364l307 344h107l156 -344h-45 l-177 225l-290 -225h-58z" />
<glyph unicode="&#xdc;" horiz-adv-x="1441" d="M164 313q0 76 35 189l153 522q35 108 35 164q0 64 -170 69v41h541v-41q-51 -1 -83.5 -7.5t-56.5 -18.5t-40.5 -38.5t-28 -57t-25.5 -84.5l-139 -531q-45 -164 -45 -209q0 -50 14.5 -91t48 -77t97 -56.5t151.5 -20.5q82 0 146 20.5t109 55.5t80.5 94.5t59.5 124.5t48 157 l125 479q3 12 13 47.5t14.5 60.5t4.5 50q0 55 -32.5 78.5t-122.5 23.5v41h389v-41q-75 -3 -117.5 -43t-62.5 -116l-158 -623q-35 -140 -77 -228t-109.5 -150t-163 -87.5t-236.5 -25.5q-49 0 -99 9t-105 32.5t-97 59t-69 95t-27 133.5zM653 1522q0 43 28.5 69.5t66.5 26.5 t66 -27t28 -69q0 -38 -27 -65t-67 -27q-42 0 -68.5 27t-26.5 65zM1014 1522q0 41 27 68.5t67 27.5q39 0 66.5 -28.5t27.5 -65.5q0 -40 -27 -67t-67 -27q-42 0 -68 26.5t-26 65.5z" />
<glyph unicode="&#xdd;" horiz-adv-x="1175" d="M49 1262v41q142 -5 283 -5q68 0 205 5v-41q-79 -3 -109.5 -25t-30.5 -63q0 -49 99.5 -248.5t165.5 -313.5q50 65 118 161t143.5 224t75.5 174q0 45 -33.5 68t-93.5 23v41q158 -5 193 -5q38 0 213 5v-41q-68 0 -115 -44t-135 -182q-66 -104 -197 -289.5t-165 -244.5 l-26 -96q-25 -96 -45 -184.5t-20 -119.5q0 -33 35.5 -49t124.5 -16v-41q-176 4 -262 4q-88 0 -268 -4v41q114 3 149 28.5t58 124.5q15 64 39 154.5t37.5 143t13.5 63.5t-34 74t-101 193t-125 263q-45 103 -87.5 142t-105.5 39zM508 1364l248 256q88 88 118 88 q29 0 46.5 -15.5t17.5 -39.5q0 -29 -23.5 -52.5t-76.5 -58.5l-277 -178h-53z" />
<glyph unicode="&#xde;" horiz-adv-x="1138" d="M-25 -4v41q79 6 117.5 40.5t67.5 143.5l229 852q2 7 11.5 41t14.5 56.5t5 37.5q0 31 -28.5 42.5t-121.5 11.5v41q103 -5 238 -5q51 0 246 5v-41q-93 0 -129 -35t-66 -148l-12 -47h203q83 0 153.5 -30.5t118 -99.5t47.5 -165q0 -101 -41 -178t-116 -125.5t-176 -73 t-224 -24.5q-72 0 -145 8l-19 -68q-41 -157 -41 -182q0 -50 127 -57v-41q-118 4 -241 4q-78 0 -218 -4zM383 406q93 -13 145 -13q82 0 146.5 21t114.5 65t77 120t27 179q0 99 -61.5 156t-180.5 57q-61 0 -92.5 -15.5t-42.5 -62.5z" />
<glyph unicode="&#xdf;" horiz-adv-x="948" d="M-348 -311q0 59 59 59q27 0 74 -23.5t68 -23.5q24 0 41 21.5t40 92.5t58 218l209 872q22 94 49.5 162.5t69.5 127.5t104 89.5t143 30.5q72 0 136 -29.5t106.5 -89t42.5 -137.5q0 -55 -19 -103.5t-44.5 -80t-67 -61.5t-69.5 -45t-70 -34q-7 -3 -7 -8q0 -3 7 -6 q33 -20 43.5 -26.5t40.5 -27t42 -33t33 -37t30 -46.5t16.5 -53t7.5 -66q0 -70 -27.5 -147.5t-75 -145t-122 -111.5t-158.5 -44q-83 0 -134 42.5t-51 96.5q0 29 16 44t42 15q29 0 48 -24.5t27.5 -54t26.5 -54t45 -24.5q48 0 92.5 51t72.5 121.5t45 137.5t17 107 q0 99 -20.5 150t-69.5 84q-20 13 -42.5 22t-36 12.5t-22.5 10.5t-9 18t14.5 18t41.5 12.5t38 10.5q35 15 62.5 35t55.5 54t43 88t15 124q0 95 -35 144t-119 49q-37 0 -66 -12t-58 -41.5t-53.5 -86.5t-45.5 -141l-164 -653q-31 -123 -54.5 -205.5t-54 -173t-61.5 -146.5 t-70.5 -104t-86.5 -70t-103 -22q-44 0 -75 18.5t-31 51.5z" />
<glyph unicode="&#xe0;" horiz-adv-x="872" d="M-70 141q0 42 16 104.5t45 136t77 145.5t106 131.5t137.5 96t165.5 36.5q31 0 66.5 -7.5t46.5 -7.5q15 1 30.5 24t26.5 23q14 0 42 -14.5t28 -34.5q0 -14 -112.5 -310t-112.5 -335q0 -21 5.5 -28t18.5 -7q20 0 57 39t69.5 78t43.5 39q19 0 19 -17q0 -4 -17 -29.5 t-47 -62.5t-65.5 -72t-78.5 -60t-79 -25q-62 0 -62 73q0 36 19 89.5t38 94.5t19 46q0 14 -10 14q-8 0 -66 -82q-89 -131 -162 -183t-141 -52q-53 0 -88 40.5t-35 116.5zM66 180q0 -47 14.5 -64.5t44.5 -17.5q55 0 131 71.5t137 164.5t104.5 182.5t43.5 126.5q0 45 -25 76 t-74 31q-68 0 -138 -57.5t-121 -143t-84 -186t-33 -183.5zM362 1192q0 27 16 44t42 17q44 0 115 -92l184 -252h-47l-197 152q-65 52 -89 78.5t-24 52.5z" />
<glyph unicode="&#xe1;" horiz-adv-x="872" d="M-70 141q0 42 16 104.5t45 136t77 145.5t106 131.5t137.5 96t165.5 36.5q31 0 66.5 -7.5t46.5 -7.5q15 1 30.5 24t26.5 23q14 0 42 -14.5t28 -34.5q0 -14 -112.5 -310t-112.5 -335q0 -21 5.5 -28t18.5 -7q20 0 57 39t69.5 78t43.5 39q19 0 19 -17q0 -4 -17 -29.5 t-47 -62.5t-65.5 -72t-78.5 -60t-79 -25q-62 0 -62 73q0 36 19 89.5t38 94.5t19 46q0 14 -10 14q-8 0 -66 -82q-89 -131 -162 -183t-141 -52q-53 0 -88 40.5t-35 116.5zM66 180q0 -47 14.5 -64.5t44.5 -17.5q55 0 131 71.5t137 164.5t104.5 182.5t43.5 126.5q0 45 -25 76 t-74 31q-68 0 -138 -57.5t-121 -143t-84 -186t-33 -183.5zM403 909l248 256q88 88 119 88q29 0 46.5 -15.5t17.5 -39.5q0 -28 -23.5 -52t-77.5 -59l-276 -178h-54z" />
<glyph unicode="&#xe2;" horiz-adv-x="872" d="M-70 141q0 42 16 104.5t45 136t77 145.5t106 131.5t137.5 96t165.5 36.5q31 0 66.5 -7.5t46.5 -7.5q15 1 30.5 24t26.5 23q14 0 42 -14.5t28 -34.5q0 -14 -112.5 -310t-112.5 -335q0 -21 5.5 -28t18.5 -7q20 0 57 39t69.5 78t43.5 39q19 0 19 -17q0 -4 -17 -29.5 t-47 -62.5t-65.5 -72t-78.5 -60t-79 -25q-62 0 -62 73q0 36 19 89.5t38 94.5t19 46q0 14 -10 14q-8 0 -66 -82q-89 -131 -162 -183t-141 -52q-53 0 -88 40.5t-35 116.5zM66 180q0 -47 14.5 -64.5t44.5 -17.5q55 0 131 71.5t137 164.5t104.5 182.5t43.5 126.5q0 45 -25 76 t-74 31q-68 0 -138 -57.5t-121 -143t-84 -186t-33 -183.5zM252 909l307 344h107l155 -344h-45l-176 226l-291 -226h-57z" />
<glyph unicode="&#xe3;" horiz-adv-x="872" d="M-70 141q0 42 16 104.5t45 136t77 145.5t106 131.5t137.5 96t165.5 36.5q31 0 66.5 -7.5t46.5 -7.5q15 1 30.5 24t26.5 23q14 0 42 -14.5t28 -34.5q0 -14 -112.5 -310t-112.5 -335q0 -21 5.5 -28t18.5 -7q20 0 57 39t69.5 78t43.5 39q19 0 19 -17q0 -4 -17 -29.5 t-47 -62.5t-65.5 -72t-78.5 -60t-79 -25q-62 0 -62 73q0 36 19 89.5t38 94.5t19 46q0 14 -10 14q-8 0 -66 -82q-89 -131 -162 -183t-141 -52q-53 0 -88 40.5t-35 116.5zM66 180q0 -47 14.5 -64.5t44.5 -17.5q55 0 131 71.5t137 164.5t104.5 182.5t43.5 126.5q0 45 -25 76 t-74 31q-68 0 -138 -57.5t-121 -143t-84 -186t-33 -183.5zM285 958q16 76 61.5 128.5t110.5 52.5q49 0 143 -24.5t115 -24.5q59 0 78 90h41q-3 -84 -47 -140.5t-109 -56.5q-42 0 -139 29q-90 28 -121 28q-23 0 -40 -7t-27 -21.5t-15 -25.5t-10 -28h-41z" />
<glyph unicode="&#xe4;" horiz-adv-x="872" d="M-70 141q0 42 16 104.5t45 136t77 145.5t106 131.5t137.5 96t165.5 36.5q31 0 66.5 -7.5t46.5 -7.5q15 1 30.5 24t26.5 23q14 0 42 -14.5t28 -34.5q0 -14 -112.5 -310t-112.5 -335q0 -21 5.5 -28t18.5 -7q20 0 57 39t69.5 78t43.5 39q19 0 19 -17q0 -4 -17 -29.5 t-47 -62.5t-65.5 -72t-78.5 -60t-79 -25q-62 0 -62 73q0 36 19 89.5t38 94.5t19 46q0 14 -10 14q-8 0 -66 -82q-89 -131 -162 -183t-141 -52q-53 0 -88 40.5t-35 116.5zM66 180q0 -47 14.5 -64.5t44.5 -17.5q55 0 131 71.5t137 164.5t104.5 182.5t43.5 126.5q0 45 -25 76 t-74 31q-68 0 -138 -57.5t-121 -143t-84 -186t-33 -183.5zM297 1067q0 43 28 69.5t66 26.5t66 -27t28 -69q0 -38 -27 -65t-67 -27q-42 0 -68 27t-26 65zM657 1067q0 41 27.5 68.5t67.5 27.5q39 0 66.5 -28.5t27.5 -65.5q0 -40 -27 -67t-67 -27q-42 0 -68.5 26.5t-26.5 65.5z " />
<glyph unicode="&#xe5;" horiz-adv-x="872" d="M-70 141q0 42 16 104.5t45 136t77 145.5t106 131.5t137.5 96t165.5 36.5q31 0 66.5 -7.5t46.5 -7.5q15 1 30.5 24t26.5 23q14 0 42 -14.5t28 -34.5q0 -14 -112.5 -310t-112.5 -335q0 -21 5.5 -28t18.5 -7q20 0 57 39t69.5 78t43.5 39q19 0 19 -17q0 -4 -17 -29.5 t-47 -62.5t-65.5 -72t-78.5 -60t-79 -25q-62 0 -62 73q0 36 19 89.5t38 94.5t19 46q0 14 -10 14q-8 0 -66 -82q-89 -131 -162 -183t-141 -52q-53 0 -88 40.5t-35 116.5zM66 180q0 -47 14.5 -64.5t44.5 -17.5q55 0 131 71.5t137 164.5t104.5 182.5t43.5 126.5q0 45 -25 76 t-74 31q-68 0 -138 -57.5t-121 -143t-84 -186t-33 -183.5zM449 1087q0 77 55 132t131 55t131 -55t55 -132t-54.5 -131.5t-131.5 -54.5t-131.5 54.5t-54.5 131.5zM514 1087q0 -53 34.5 -88.5t86.5 -35.5t86.5 35.5t34.5 88.5t-34.5 89t-86.5 36t-86.5 -36t-34.5 -89z" />
<glyph unicode="&#xe6;" horiz-adv-x="1138" d="M-59 139q0 113 50 217t139 185t206.5 141.5t259 92.5t289.5 32q73 0 119.5 -36.5t44.5 -92.5q-1 -54 -39.5 -96.5t-99.5 -66.5t-128 -36t-133 -12q-35 0 -59 4q-26 -60 -36.5 -85.5t-24 -74.5t-13.5 -88q0 -71 30 -106t75 -35q39 0 85 19t78 41.5t57 41.5t29 19 q15 0 15 -17q0 -7 -19 -29t-53 -51t-75.5 -56.5t-94 -46.5t-100.5 -19q-78 0 -126 57t-48 133q-61 -68 -149.5 -130.5t-160.5 -59.5q-62 2 -90 38t-28 117zM76 205q0 -45 27 -74t63 -29q58 0 122.5 51t80.5 83q5 85 60 198.5t169 227.5q6 5 15.5 20.5t9.5 22.5q0 16 -19 16 q-66 0 -156 -43t-173 -111.5t-141 -166.5t-58 -195zM608 516q47 1 90 6.5t87 18t76 31t52.5 48.5t20.5 68q0 34 -20 56t-52 22q-43 0 -88.5 -32t-79.5 -79t-55 -81.5t-31 -57.5z" />
<glyph unicode="&#xe7;" horiz-adv-x="757" d="M-49 -301l14 53q100 -47 189 -47q110 0 110 82q0 33 -25.5 57.5t-78.5 24.5q-43 0 -70 -8l43 127q-63 8 -103.5 45.5t-55.5 82t-15 97.5q0 93 42 185t109 164t147.5 128.5t161.5 86.5t146 30q75 0 111.5 -38t36.5 -85q0 -24 -17 -40.5t-37 -16.5q-22 0 -41.5 20.5t-33 45 t-37.5 45t-53 20.5q-45 0 -113.5 -59t-129.5 -142t-105 -179.5t-44 -164.5q0 -73 40.5 -110t95.5 -37q75 0 182 81q11 8 25.5 21t24 21t15.5 8q17 0 17 -19q0 -7 -16.5 -27.5t-47 -48t-69 -53t-89 -44t-98.5 -19.5l-16 -60q15 0 29.5 -1t40.5 -4.5t47.5 -12.5t42.5 -22.5 t33 -37t12 -53.5q0 -79 -56.5 -113t-140.5 -34q-50 0 -97 9.5t-64.5 16.5t-61.5 25z" />
<glyph unicode="&#xe8;" horiz-adv-x="757" d="M-37 203q0 105 55.5 217t138.5 195.5t181.5 137.5t181.5 54q73 0 116.5 -38.5t43.5 -90.5q0 -55 -41 -98t-103.5 -66.5t-123.5 -35t-113 -11.5q-38 0 -92 4q-88 -136 -88 -250q0 -63 36 -101t99 -38q39 0 84.5 19t77 41.5t57 41.5t29.5 19q14 0 14 -17q0 -6 -19 -28 t-53 -51t-75.5 -57t-94 -47t-100.5 -19q-94 0 -152.5 60t-58.5 159zM233 516q148 2 240 46.5t92 125.5q0 32 -20 55t-51 23q-38 0 -82 -31.5t-81 -77t-61 -81t-37 -60.5zM330 1192q0 27 15.5 44t41.5 17q44 0 115 -92l184 -252h-47l-197 152q-64 52 -88 78.5t-24 52.5z" />
<glyph unicode="&#xe9;" horiz-adv-x="757" d="M-37 203q0 105 55.5 217t138.5 195.5t181.5 137.5t181.5 54q73 0 116.5 -38.5t43.5 -90.5q0 -55 -41 -98t-103.5 -66.5t-123.5 -35t-113 -11.5q-38 0 -92 4q-88 -136 -88 -250q0 -63 36 -101t99 -38q39 0 84.5 19t77 41.5t57 41.5t29.5 19q14 0 14 -17q0 -6 -19 -28 t-53 -51t-75.5 -57t-94 -47t-100.5 -19q-94 0 -152.5 60t-58.5 159zM233 516q148 2 240 46.5t92 125.5q0 32 -20 55t-51 23q-38 0 -82 -31.5t-81 -77t-61 -81t-37 -60.5zM371 909l247 256q88 88 119 88q29 0 46.5 -15.5t17.5 -39.5q0 -28 -23.5 -52t-77.5 -59l-276 -178h-53 z" />
<glyph unicode="&#xea;" horiz-adv-x="757" d="M-37 203q0 105 55.5 217t138.5 195.5t181.5 137.5t181.5 54q73 0 116.5 -38.5t43.5 -90.5q0 -55 -41 -98t-103.5 -66.5t-123.5 -35t-113 -11.5q-38 0 -92 4q-88 -136 -88 -250q0 -63 36 -101t99 -38q39 0 84.5 19t77 41.5t57 41.5t29.5 19q14 0 14 -17q0 -6 -19 -28 t-53 -51t-75.5 -57t-94 -47t-100.5 -19q-94 0 -152.5 60t-58.5 159zM219 909l307 344h107l155 -344h-45l-176 226l-291 -226h-57zM233 516q148 2 240 46.5t92 125.5q0 32 -20 55t-51 23q-38 0 -82 -31.5t-81 -77t-61 -81t-37 -60.5z" />
<glyph unicode="&#xeb;" horiz-adv-x="757" d="M-37 203q0 105 55.5 217t138.5 195.5t181.5 137.5t181.5 54q73 0 116.5 -38.5t43.5 -90.5q0 -55 -41 -98t-103.5 -66.5t-123.5 -35t-113 -11.5q-38 0 -92 4q-88 -136 -88 -250q0 -63 36 -101t99 -38q39 0 84.5 19t77 41.5t57 41.5t29.5 19q14 0 14 -17q0 -6 -19 -28 t-53 -51t-75.5 -57t-94 -47t-100.5 -19q-94 0 -152.5 60t-58.5 159zM233 516q148 2 240 46.5t92 125.5q0 32 -20 55t-51 23q-38 0 -82 -31.5t-81 -77t-61 -81t-37 -60.5zM264 1067q0 43 28 69.5t66 26.5t66.5 -27.5t28.5 -68.5q0 -37 -27.5 -64.5t-67.5 -27.5q-42 0 -68 27 t-26 65zM625 1067q0 41 27 68.5t67 27.5q39 0 66.5 -28.5t27.5 -65.5q0 -40 -27 -67t-67 -27q-42 0 -68 26.5t-26 65.5z" />
<glyph unicode="&#xec;" horiz-adv-x="530" d="M0 25q0 53 53 188.5t106.5 263t53.5 162.5q0 29 -27 29q-12 0 -27 -8t-34.5 -24.5t-30.5 -27t-31 -30.5l-20 -21l-23 21l11 10q182 203 274 203q26 0 40.5 -16t14.5 -38q0 -67 -53 -211.5t-106.5 -271t-53.5 -148.5q0 -24 25 -24q48 0 174 133l25 -18q-12 -12 -47 -50 t-58 -59.5t-58.5 -49t-73 -41t-77.5 -13.5q-33 0 -45 10t-12 31zM143 1192q0 27 16 44t42 17q43 0 114 -92l185 -252h-47l-197 152q-65 52 -89 78.5t-24 52.5z" />
<glyph unicode="&#xed;" horiz-adv-x="530" d="M0 25q0 53 53 188.5t106.5 263t53.5 162.5q0 29 -27 29q-12 0 -27 -8t-34.5 -24.5t-30.5 -27t-31 -30.5l-20 -21l-23 21l11 10q182 203 274 203q26 0 40.5 -16t14.5 -38q0 -67 -53 -211.5t-106.5 -271t-53.5 -148.5q0 -24 25 -24q48 0 174 133l25 -18q-12 -12 -47 -50 t-58 -59.5t-58.5 -49t-73 -41t-77.5 -13.5q-33 0 -45 10t-12 31zM184 909l248 256q88 88 119 88q29 0 46 -15.5t17 -39.5q0 -29 -23.5 -52.5t-76.5 -58.5l-276 -178h-54z" />
<glyph unicode="&#xee;" horiz-adv-x="530" d="M0 25q0 53 53 188.5t106.5 263t53.5 162.5q0 29 -27 29q-12 0 -27 -8t-34.5 -24.5t-30.5 -27t-31 -30.5l-20 -21l-23 21l11 10q182 203 274 203q26 0 40.5 -16t14.5 -38q0 -67 -53 -211.5t-106.5 -271t-53.5 -148.5q0 -24 25 -24q48 0 174 133l25 -18q-12 -12 -47 -50 t-58 -59.5t-58.5 -49t-73 -41t-77.5 -13.5q-33 0 -45 10t-12 31zM33 909l307 344h106l156 -344h-45l-176 226l-291 -226h-57z" />
<glyph unicode="&#xef;" horiz-adv-x="530" d="M0 25q0 53 53 188.5t106.5 263t53.5 162.5q0 29 -27 29q-12 0 -27 -8t-34.5 -24.5t-30.5 -27t-31 -30.5l-20 -21l-23 21l11 10q182 203 274 203q26 0 40.5 -16t14.5 -38q0 -67 -53 -211.5t-106.5 -271t-53.5 -148.5q0 -24 25 -24q48 0 174 133l25 -18q-12 -12 -47 -50 t-58 -59.5t-58.5 -49t-73 -41t-77.5 -13.5q-33 0 -45 10t-12 31zM78 1067q0 43 28 69.5t66 26.5t66 -27t28 -69q0 -38 -27 -65t-67 -27q-42 0 -68 27t-26 65zM438 1067q0 41 27 68.5t67 27.5q39 0 67 -28.5t28 -65.5q0 -40 -27.5 -67t-67.5 -27q-42 0 -68 26.5t-26 65.5z " />
<glyph unicode="&#xf0;" horiz-adv-x="872" d="M-33 291q0 89 36.5 180.5t100 166t158.5 122t201 47.5q72 0 131 -27q-6 138 -94 279l-246 -146l-37 45l250 148q-79 107 -193 184l21 37q139 -66 240 -180l227 133l37 -45l-226 -133q168 -219 168 -516q0 -68 -14.5 -138.5t-41.5 -137.5t-70 -126t-96.5 -103.5 t-124 -70.5t-150.5 -26q-113 0 -195 81t-82 226zM102 229q0 -86 35 -145t109 -59q71 0 133 46.5t102.5 116t69.5 152.5t42 155t13 123q0 59 -35.5 103.5t-91.5 44.5q-83 0 -172.5 -86.5t-147 -213t-57.5 -237.5z" />
<glyph unicode="&#xf1;" horiz-adv-x="985" d="M-20 555q0 16 63.5 77.5t145 118t120.5 56.5q29 0 44.5 -15t15.5 -40q0 -36 -35 -133t-35 -99q0 -8 6 -8q12 0 35 31q91 121 156 178q99 86 180 86q57 0 94 -38.5t37 -98.5q0 -64 -48.5 -185t-96.5 -223t-48 -121q0 -26 21 -26q24 0 77.5 39.5t90.5 76.5l22 -24 q-82 -91 -186 -157t-164 -66q-49 0 -49 47q0 12 61.5 141t123 273t61.5 194q0 37 -19 53.5t-47 16.5q-64 0 -153 -85.5t-171.5 -219.5t-131.5 -273q-41 -116 -50 -129q0 -2 -55 -2q-53 0 -53 8q0 25 53 164t106.5 288t53.5 197q0 25 -21 25q-24 0 -104.5 -72.5t-85.5 -72.5 q-14 0 -14 18zM293 958q16 76 61.5 128.5t110.5 52.5q49 0 143 -24.5t115 -24.5q59 0 78 90h41q-3 -84 -47 -140.5t-109 -56.5q-42 0 -139 29q-90 28 -121 28q-23 0 -40 -7t-27 -21.5t-15 -25.5t-10 -28h-41z" />
<glyph unicode="&#xf2;" horiz-adv-x="872" d="M-33 291q0 89 36.5 180.5t100 166t158.5 122t201 47.5q114 0 196 -81t82 -226q0 -89 -36.5 -180.5t-99.5 -166t-158 -122t-201 -47.5q-114 0 -196.5 81t-82.5 226zM102 223q0 -97 38.5 -147.5t105.5 -50.5q39 0 87.5 31.5t96 86.5t87.5 122.5t64.5 147.5t24.5 154 q0 97 -38.5 148t-104.5 51q-48 0 -111.5 -49.5t-118.5 -125t-93 -176t-38 -192.5zM315 1192q0 27 16 44t42 17q43 0 114 -92l185 -252h-47l-197 152q-65 52 -89 78.5t-24 52.5z" />
<glyph unicode="&#xf3;" horiz-adv-x="872" d="M-33 291q0 89 36.5 180.5t100 166t158.5 122t201 47.5q114 0 196 -81t82 -226q0 -89 -36.5 -180.5t-99.5 -166t-158 -122t-201 -47.5q-114 0 -196.5 81t-82.5 226zM102 223q0 -97 38.5 -147.5t105.5 -50.5q39 0 87.5 31.5t96 86.5t87.5 122.5t64.5 147.5t24.5 154 q0 97 -38.5 148t-104.5 51q-48 0 -111.5 -49.5t-118.5 -125t-93 -176t-38 -192.5zM356 909l248 256q88 88 119 88q29 0 46 -15.5t17 -39.5q0 -29 -23.5 -52.5t-76.5 -58.5l-276 -178h-54z" />
<glyph unicode="&#xf4;" horiz-adv-x="872" d="M-33 291q0 89 36.5 180.5t100 166t158.5 122t201 47.5q114 0 196 -81t82 -226q0 -89 -36.5 -180.5t-99.5 -166t-158 -122t-201 -47.5q-114 0 -196.5 81t-82.5 226zM102 223q0 -97 38.5 -147.5t105.5 -50.5q39 0 87.5 31.5t96 86.5t87.5 122.5t64.5 147.5t24.5 154 q0 97 -38.5 148t-104.5 51q-48 0 -111.5 -49.5t-118.5 -125t-93 -176t-38 -192.5zM205 909l307 344h106l156 -344h-45l-176 226l-291 -226h-57z" />
<glyph unicode="&#xf5;" horiz-adv-x="872" d="M-33 291q0 89 36.5 180.5t100 166t158.5 122t201 47.5q114 0 196 -81t82 -226q0 -89 -36.5 -180.5t-99.5 -166t-158 -122t-201 -47.5q-114 0 -196.5 81t-82.5 226zM102 223q0 -97 38.5 -147.5t105.5 -50.5q39 0 87.5 31.5t96 86.5t87.5 122.5t64.5 147.5t24.5 154 q0 97 -38.5 148t-104.5 51q-48 0 -111.5 -49.5t-118.5 -125t-93 -176t-38 -192.5zM238 958q16 76 61.5 128.5t110.5 52.5q49 0 143 -24.5t115 -24.5q58 0 77 90h41q-3 -84 -46.5 -140.5t-108.5 -56.5q-42 0 -139 29q-90 28 -121 28q-23 0 -40 -7t-27 -21.5t-15 -25.5 t-10 -28h-41z" />
<glyph unicode="&#xf6;" horiz-adv-x="872" d="M-33 291q0 89 36.5 180.5t100 166t158.5 122t201 47.5q114 0 196 -81t82 -226q0 -89 -36.5 -180.5t-99.5 -166t-158 -122t-201 -47.5q-114 0 -196.5 81t-82.5 226zM102 223q0 -97 38.5 -147.5t105.5 -50.5q39 0 87.5 31.5t96 86.5t87.5 122.5t64.5 147.5t24.5 154 q0 97 -38.5 148t-104.5 51q-48 0 -111.5 -49.5t-118.5 -125t-93 -176t-38 -192.5zM250 1067q0 43 28 69.5t66 26.5t66 -27t28 -69q0 -38 -27 -65t-67 -27q-42 0 -68 27t-26 65zM610 1067q0 41 27.5 68.5t67.5 27.5q39 0 66.5 -28.5t27.5 -65.5q0 -40 -27 -67t-67 -27 q-42 0 -68.5 26.5t-26.5 65.5z" />
<glyph unicode="&#xf7;" horiz-adv-x="1228" d="M172 350v90h791v-90h-791zM473 72q0 38 28 66t66 28t66.5 -28t28.5 -66t-28.5 -66.5t-66.5 -28.5t-66 28.5t-28 66.5zM473 719q0 38 28 66t66 28t66.5 -28t28.5 -66t-28.5 -66t-66.5 -28t-66 28t-28 66z" />
<glyph unicode="&#xf8;" horiz-adv-x="872" d="M-72 -174l144 219q-105 88 -105 246q0 89 36.5 180.5t100 166t158.5 122t201 47.5q44 0 96 -19l111 170h67l-127 -192q131 -86 131 -266q0 -89 -36.5 -180.5t-99.5 -166t-158 -122t-201 -47.5q-68 0 -127 30l-123 -188h-68zM102 223q0 -55 17 -104l413 629q-27 18 -69 18 q-48 0 -111.5 -49.5t-118.5 -125t-93 -176t-38 -192.5zM152 66q35 -41 94 -41q39 0 87.5 31.5t96 86.5t87.5 122.5t64.5 147.5t24.5 154q0 92 -35 142z" />
<glyph unicode="&#xf9;" horiz-adv-x="1024" d="M20 96q0 77 54.5 206.5t109 231.5t54.5 113q0 25 -27 25t-95 -59.5t-77 -59.5q-19 0 -19 16q0 14 57.5 71t140.5 112t138 55q27 0 42.5 -13.5t15.5 -37.5q0 -29 -64.5 -151.5t-129 -251.5t-64.5 -173q0 -28 14.5 -44.5t36.5 -16.5q23 0 47.5 9t52.5 30.5t53 43t57.5 60.5 t57 68t60.5 80.5t58 83.5t60.5 92t58 90t58.5 92q15 24 26 31.5t31 7.5h37q23 0 23 -12q0 -22 -105.5 -304.5t-105.5 -330.5q0 -29 29 -29q22 0 55.5 31.5t61 63.5t36.5 32q27 0 27 -20q0 -15 -52.5 -76t-126 -119.5t-118.5 -58.5q-31 0 -49.5 16.5t-18.5 42.5q0 57 29 145 t58.5 155t29.5 71q0 12 -10 12q-4 0 -63 -69t-133.5 -152t-167 -152t-154.5 -69q-89 0 -89 112zM438 1192q0 27 16 44t42 17q43 0 114 -92l185 -252h-47l-197 152q-65 52 -89 78.5t-24 52.5z" />
<glyph unicode="&#xfa;" horiz-adv-x="1024" d="M20 96q0 77 54.5 206.5t109 231.5t54.5 113q0 25 -27 25t-95 -59.5t-77 -59.5q-19 0 -19 16q0 14 57.5 71t140.5 112t138 55q27 0 42.5 -13.5t15.5 -37.5q0 -29 -64.5 -151.5t-129 -251.5t-64.5 -173q0 -28 14.5 -44.5t36.5 -16.5q23 0 47.5 9t52.5 30.5t53 43t57.5 60.5 t57 68t60.5 80.5t58 83.5t60.5 92t58 90t58.5 92q15 24 26 31.5t31 7.5h37q23 0 23 -12q0 -22 -105.5 -304.5t-105.5 -330.5q0 -29 29 -29q22 0 55.5 31.5t61 63.5t36.5 32q27 0 27 -20q0 -15 -52.5 -76t-126 -119.5t-118.5 -58.5q-31 0 -49.5 16.5t-18.5 42.5q0 57 29 145 t58.5 155t29.5 71q0 12 -10 12q-4 0 -63 -69t-133.5 -152t-167 -152t-154.5 -69q-89 0 -89 112zM479 909l248 256q88 88 119 88q29 0 46 -15.5t17 -39.5q0 -29 -23.5 -52.5t-76.5 -58.5l-277 -178h-53z" />
<glyph unicode="&#xfb;" horiz-adv-x="1024" d="M20 96q0 77 54.5 206.5t109 231.5t54.5 113q0 25 -27 25t-95 -59.5t-77 -59.5q-19 0 -19 16q0 14 57.5 71t140.5 112t138 55q27 0 42.5 -13.5t15.5 -37.5q0 -29 -64.5 -151.5t-129 -251.5t-64.5 -173q0 -28 14.5 -44.5t36.5 -16.5q23 0 47.5 9t52.5 30.5t53 43t57.5 60.5 t57 68t60.5 80.5t58 83.5t60.5 92t58 90t58.5 92q15 24 26 31.5t31 7.5h37q23 0 23 -12q0 -22 -105.5 -304.5t-105.5 -330.5q0 -29 29 -29q22 0 55.5 31.5t61 63.5t36.5 32q27 0 27 -20q0 -15 -52.5 -76t-126 -119.5t-118.5 -58.5q-31 0 -49.5 16.5t-18.5 42.5q0 57 29 145 t58.5 155t29.5 71q0 12 -10 12q-4 0 -63 -69t-133.5 -152t-167 -152t-154.5 -69q-89 0 -89 112zM328 909l307 344h106l156 -344h-45l-176 226l-291 -226h-57z" />
<glyph unicode="&#xfc;" horiz-adv-x="1024" d="M20 96q0 77 54.5 206.5t109 231.5t54.5 113q0 25 -27 25t-95 -59.5t-77 -59.5q-19 0 -19 16q0 14 57.5 71t140.5 112t138 55q27 0 42.5 -13.5t15.5 -37.5q0 -29 -64.5 -151.5t-129 -251.5t-64.5 -173q0 -28 14.5 -44.5t36.5 -16.5q23 0 47.5 9t52.5 30.5t53 43t57.5 60.5 t57 68t60.5 80.5t58 83.5t60.5 92t58 90t58.5 92q15 24 26 31.5t31 7.5h37q23 0 23 -12q0 -22 -105.5 -304.5t-105.5 -330.5q0 -29 29 -29q22 0 55.5 31.5t61 63.5t36.5 32q27 0 27 -20q0 -15 -52.5 -76t-126 -119.5t-118.5 -58.5q-31 0 -49.5 16.5t-18.5 42.5q0 57 29 145 t58.5 155t29.5 71q0 12 -10 12q-4 0 -63 -69t-133.5 -152t-167 -152t-154.5 -69q-89 0 -89 112zM373 1067q0 43 28 69.5t66 26.5t66 -27t28 -69q0 -38 -27 -65t-67 -27q-42 0 -68 27t-26 65zM733 1067q0 41 27 68.5t67 27.5q39 0 67 -28.5t28 -65.5q0 -40 -27.5 -67 t-67.5 -27q-42 0 -68 26.5t-26 65.5z" />
<glyph unicode="&#xfd;" horiz-adv-x="833" d="M-84 -414q0 29 14 49.5t35 20.5q8 0 30.5 -2t41.5 -2q45 0 99 64t89 144t35 130q0 6 -7.5 57t-22 138t-29.5 165q-8 44 -17 100t-14 90t-12 66.5t-14 47t-17 14.5q-11 0 -25.5 -12t-30.5 -34t-26.5 -39t-25 -41t-15.5 -26l-27 23q11 25 30.5 60.5t51.5 87t71 86t73 34.5 q36 0 53 -32.5t29 -115.5l47 -305q46 -291 55 -291t62.5 97.5t107 234t53.5 217.5q0 17 -6 58t-6 61q0 30 14.5 53t40.5 23q60 0 60 -84q0 -117 -89.5 -323.5t-230.5 -417.5q-312 -465 -416 -465q-29 0 -45 21t-16 48zM336 909l248 256q88 88 118 88q29 0 46.5 -15.5 t17.5 -39.5q0 -29 -23.5 -52.5t-76.5 -58.5l-277 -178h-53z" />
<glyph unicode="&#xfe;" d="M-217 -434q70 3 96.5 19t38.5 59l277 962l-199 -114l-19 34l240 156l180 645h127l-162 -577q114 57 261 57q85 0 130.5 -41t45.5 -123q0 -109 -49 -219.5t-134 -202t-209.5 -155t-265.5 -78.5l-63 -228q-35 -140 -35 -153q0 -20 29 -30.5t104 -10.5v-41h-393v41zM154 25 q127 27 225.5 87t155 137t84.5 158t28 162t-38.5 118.5t-98.5 37.5q-53 0 -101 -18t-71 -41z" />
<glyph unicode="&#xff;" horiz-adv-x="833" d="M-84 -414q0 29 14 49.5t35 20.5q8 0 30.5 -2t41.5 -2q45 0 99 64t89 144t35 130q0 6 -7.5 57t-22 138t-29.5 165q-8 44 -17 100t-14 90t-12 66.5t-14 47t-17 14.5q-11 0 -25.5 -12t-30.5 -34t-26.5 -39t-25 -41t-15.5 -26l-27 23q11 25 30.5 60.5t51.5 87t71 86t73 34.5 q36 0 53 -32.5t29 -115.5l47 -305q46 -291 55 -291t62.5 97.5t107 234t53.5 217.5q0 17 -6 58t-6 61q0 30 14.5 53t40.5 23q60 0 60 -84q0 -117 -89.5 -323.5t-230.5 -417.5q-312 -465 -416 -465q-29 0 -45 21t-16 48zM229 1067q0 43 28.5 69.5t66.5 26.5t66 -27t28 -69 q0 -38 -27 -65t-67 -27q-42 0 -68.5 27t-26.5 65zM590 1067q0 41 27 68.5t67 27.5q39 0 66.5 -28.5t27.5 -65.5q0 -40 -27 -67t-67 -27q-42 0 -68 26.5t-26 65.5z" />
<glyph unicode="&#x152;" horiz-adv-x="1972" d="M55 463q0 104 35 210.5t93.5 197t137 170.5t163.5 136t175.5 88.5t171.5 32.5h1045q41 0 41 -16q0 -23 -13.5 -109t-19.5 -110q-9 -36 -17 -49t-20 -13q-4 0 -7 1t-5.5 3t-4 4t-3.5 5.5t-3 6.5t-2 8.5t-1.5 9t-1.5 10t-2 10.5q-15 84 -43 123t-90.5 56t-192.5 19 q-88 2 -134.5 -4.5t-60 -17t-18.5 -31.5l-92 -373q-15 -62 -15 -69q0 -22 20.5 -31.5t78.5 -9.5q239 0 311 88q12 14 25 39t23 39t20 14q7 0 12.5 -7t5.5 -15q0 -5 -2 -15t-8.5 -33.5t-14.5 -52.5t-22.5 -84.5t-30.5 -118.5q-3 -11 -6 -24.5t-5.5 -22t-5 -18.5l-4 -16 t-4 -12.5t-4.5 -10t-4.5 -6.5t-5.5 -4.5t-6 -1.5q-14 0 -19 7.5t-5 25.5q0 62 -6 94t-28.5 52t-57.5 25t-103 5q-84 0 -123.5 -3.5t-52 -10.5t-16.5 -23l-101 -375q-5 -19 -17.5 -64.5t-18 -69.5t-5.5 -36q0 -19 14.5 -28.5t68 -15t163.5 -5.5q146 2 238 28t153 79t121 151 h45q-42 -171 -84 -285q-6 -14 -47 -14q-89 0 -229 4h-592q-94 0 -183 -6q-183 -6 -184 -6q-79 0 -155 36t-134.5 98t-94.5 151.5t-36 189.5zM231 436q0 -76 16.5 -142.5t51.5 -125.5t99 -93t151 -34q268 0 356 338l144 547q34 133 34 192q0 54 -48.5 96.5t-157.5 42.5 q-104 0 -198 -41.5t-163 -110.5t-124.5 -155.5t-90 -179t-52.5 -178t-18 -156.5z" />
<glyph unicode="&#x153;" horiz-adv-x="1290" d="M-33 291q0 89 35 180.5t94.5 166t150 122t191.5 47.5q80 0 149.5 -44.5t98.5 -117.5q134 162 338 162q88 0 134 -35.5t46 -93.5q0 -53 -38.5 -95.5t-99.5 -66.5t-128 -36.5t-133 -12.5q-12 0 -44 1t-52 1q-66 -150 -66 -242q0 -70 35 -107.5t98 -37.5q51 0 109.5 30 t98 60.5t42.5 30.5q14 0 14 -17q0 -7 -19 -29t-53 -51t-75.5 -56.5t-94 -46.5t-100.5 -19q-63 0 -112 40.5t-72 116.5q-110 -157 -281 -157q-109 0 -187.5 80.5t-78.5 226.5zM98 229q0 -101 36.5 -152.5t98.5 -51.5q71 0 151.5 86t134.5 213t54 237q0 101 -36.5 153 t-98.5 52q-71 0 -151.5 -86t-134.5 -213.5t-54 -237.5zM731 516q102 1 180 18t128.5 57t50.5 99q0 34 -21 55t-51 21q-35 0 -75 -21t-73.5 -51.5t-63.5 -66.5t-48.5 -64.5t-26.5 -46.5z" />
<glyph unicode="&#x178;" horiz-adv-x="1175" d="M49 1262v41q142 -5 283 -5q68 0 205 5v-41q-79 -3 -109.5 -25t-30.5 -63q0 -49 99.5 -248.5t165.5 -313.5q50 65 118 161t143.5 224t75.5 174q0 45 -33.5 68t-93.5 23v41q158 -5 193 -5q38 0 213 5v-41q-68 0 -115 -44t-135 -182q-66 -104 -197 -289.5t-165 -244.5 l-26 -96q-25 -96 -45 -184.5t-20 -119.5q0 -33 35.5 -49t124.5 -16v-41q-176 4 -262 4q-88 0 -268 -4v41q114 3 149 28.5t58 124.5q15 64 39 154.5t37.5 143t13.5 63.5t-34 74t-101 193t-125 263q-45 103 -87.5 142t-105.5 39zM401 1522q0 43 28.5 69.5t66.5 26.5t66 -27 t28 -69q0 -38 -27 -65t-67 -27q-42 0 -68.5 27t-26.5 65zM762 1522q0 41 27 68.5t67 27.5q39 0 66.5 -28.5t27.5 -65.5q0 -40 -27 -67t-67 -27q-42 0 -68 26.5t-26 65.5z" />
<glyph unicode="&#x2c6;" horiz-adv-x="530" d="M33 909l307 344h106l156 -344h-45l-176 226l-291 -226h-57z" />
<glyph unicode="&#x2dc;" horiz-adv-x="530" d="M66 958q16 76 61.5 128.5t110.5 52.5q49 0 143 -24.5t115 -24.5q58 0 77 90h41q-3 -84 -46.5 -140.5t-108.5 -56.5q-43 0 -140 29q-90 28 -120 28q-31 0 -51.5 -14.5t-27.5 -29.5t-14 -38h-40z" />
<glyph unicode="&#x2000;" horiz-adv-x="864" />
<glyph unicode="&#x2001;" horiz-adv-x="1729" />
<glyph unicode="&#x2002;" horiz-adv-x="864" />
<glyph unicode="&#x2003;" horiz-adv-x="1729" />
<glyph unicode="&#x2004;" horiz-adv-x="576" />
<glyph unicode="&#x2005;" horiz-adv-x="432" />
<glyph unicode="&#x2006;" horiz-adv-x="288" />
<glyph unicode="&#x2007;" horiz-adv-x="288" />
<glyph unicode="&#x2008;" horiz-adv-x="216" />
<glyph unicode="&#x2009;" horiz-adv-x="345" />
<glyph unicode="&#x200a;" horiz-adv-x="96" />
<glyph unicode="&#x2010;" horiz-adv-x="681" d="M90 332v82l508 45v-82z" />
<glyph unicode="&#x2011;" horiz-adv-x="681" d="M90 332v82l508 45v-82z" />
<glyph unicode="&#x2012;" horiz-adv-x="681" d="M90 332v82l508 45v-82z" />
<glyph unicode="&#x2013;" horiz-adv-x="1024" d="M-92 354l20 82h1024l-20 -82h-1024z" />
<glyph unicode="&#x2014;" horiz-adv-x="2048" d="M-92 354l20 82h2048l-20 -82h-2048z" />
<glyph unicode="&#x2018;" horiz-adv-x="454" d="M250 1020q0 110 85 205.5t218 138.5v-47q-28 -16 -45 -27t-45 -34t-42.5 -52t-14.5 -63q0 -31 18 -70t18 -72q0 -47 -26 -68.5t-68 -21.5q-46 0 -72 30t-26 81z" />
<glyph unicode="&#x2019;" horiz-adv-x="454" d="M70 889v47q28 16 45 27t45 34t42.5 52t14.5 63q0 31 -18.5 69.5t-18.5 71.5q0 47 26 68.5t68 21.5q46 0 72.5 -29.5t26.5 -80.5q0 -110 -85 -205.5t-218 -138.5z" />
<glyph unicode="&#x201a;" horiz-adv-x="454" d="M-117 -207q25 14 34.5 20t36 25.5t39 35.5t24.5 42t12 53q0 31 -18.5 70t-18.5 72q0 47 26 68.5t68 21.5q46 0 72 -30t26 -81q0 -109 -84.5 -205t-216.5 -139v47z" />
<glyph unicode="&#x201c;" horiz-adv-x="833" d="M164 1020q0 110 85 205.5t218 138.5v-47q-29 -16 -45.5 -27t-45 -34t-43 -52t-14.5 -63q0 -31 18.5 -70t18.5 -72q0 -47 -26 -68.5t-68 -21.5q-46 0 -72 30t-26 81zM506 1020q0 110 85 205.5t218 138.5v-47q-28 -16 -45 -27t-45 -34t-42.5 -52t-14.5 -63q0 -31 18 -70 t18 -72q0 -47 -26 -68.5t-68 -21.5q-46 0 -72 30t-26 81z" />
<glyph unicode="&#x201d;" horiz-adv-x="833" d="M131 889v47q29 16 45.5 27t45 34t43 52t14.5 63q0 31 -18.5 69.5t-18.5 71.5q0 47 26 68.5t68 21.5q46 0 72 -29.5t26 -80.5q0 -110 -85 -205.5t-218 -138.5zM473 889v47q29 16 45.5 27t45 34t43 52t14.5 63q0 31 -18.5 69.5t-18.5 71.5q0 47 26 68.5t68 21.5 q46 0 72 -29.5t26 -80.5q0 -110 -85 -205.5t-218 -138.5z" />
<glyph unicode="&#x201e;" horiz-adv-x="833" d="M29 -207q28 16 45 27t45 34t42.5 52t14.5 63q0 31 -18.5 70t-18.5 72q0 47 26 68.5t68 21.5q46 0 72.5 -30t26.5 -81q0 -110 -85 -205.5t-218 -138.5v47zM371 -207q28 16 45 27t45 34t42.5 52t14.5 63q0 31 -18.5 70t-18.5 72q0 47 26 68.5t68 21.5q46 0 72.5 -30 t26.5 -81q0 -110 -85 -205.5t-218 -138.5v47z" />
<glyph unicode="&#x2022;" horiz-adv-x="1024" d="M188 649q0 135 94.5 229.5t229.5 94.5t230.5 -94.5t95.5 -229.5t-95.5 -230t-230.5 -95t-229.5 95t-94.5 230z" />
<glyph unicode="&#x2026;" horiz-adv-x="2048" d="M0 92q0 44 32.5 76.5t76.5 32.5t76 -32.5t32 -76.5t-32 -76t-76 -32t-76.5 32t-32.5 76zM682 92q0 44 32.5 76.5t76.5 32.5t76 -32.5t32 -76.5t-32 -76t-76 -32t-76.5 32t-32.5 76zM1364 92q0 44 32.5 76.5t76.5 32.5t76 -32.5t32 -76.5t-32 -76t-76 -32t-76.5 32 t-32.5 76z" />
<glyph unicode="&#x202f;" horiz-adv-x="345" />
<glyph unicode="&#x2039;" horiz-adv-x="681" d="M164 395l250 207q108 90 129 90q10 0 10 -12q0 -18 -92.5 -121t-167.5 -170q1 -2 42 -77.5t63 -125t24 -75.5q0 -13 -14 -13q-9 0 -54.5 56.5t-105 134.5t-84.5 106z" />
<glyph unicode="&#x203a;" horiz-adv-x="681" d="M127 111q0 18 92.5 120.5t167.5 169.5l-41 77q-42 77 -64 126.5t-24 75.5q0 12 14 12q9 0 54.5 -56.5t105 -134.5t84.5 -106l-250 -207q-108 -90 -129 -90q-10 0 -10 13z" />
<glyph unicode="&#x205f;" horiz-adv-x="432" />
<glyph unicode="&#x2122;" horiz-adv-x="2027" d="M82 1137v161h623v-161h-33q-33 129 -127 129h-94v-572q0 -66 7 -78q8 -15 52 -22q8 -1 33 -4v-33h-299v33q70 9 81 21t11 83v572h-94q-54 0 -82.5 -34.5t-44.5 -94.5h-33zM786 1266v32h211l289 -577l301 577h180v-32q-56 -3 -80 -29t-24 -76v-467q0 -66 7 -78 q8 -15 52 -22q8 -1 33 -4v-33h-299v33q70 9 81 21t11 83v434h-4l-284 -577h-17l-280 571h2h-4v-413q0 -61 18.5 -86.5t75.5 -32.5v-33h-238v33q57 7 75.5 32.5t18.5 86.5v462q0 39 -41.5 67t-83.5 28z" />
<glyph unicode="&#x25fc;" horiz-adv-x="808" d="M0 0v809h809v-809h-809z" />
<glyph unicode="&#xfb01;" horiz-adv-x="1024" d="M-428 -399q0 32 17 51.5t46 19.5q32 0 95.5 -36.5t91.5 -36.5q19 0 35 13t38 53t49.5 125t61.5 218l170 668q3 14 7 26.5t5.5 18t1.5 8.5q0 8 -10 8h-164q-22 0 -22 13q0 57 26 57h158q19 0 30.5 14t27.5 64q68 209 192.5 325.5t298.5 116.5q65 0 111 -11.5t67 -30.5 t29 -35t8 -31q0 -26 -15 -45t-44 -19q-32 0 -59.5 16t-45.5 35t-52.5 35t-78.5 16q-57 0 -109 -44t-85 -105.5t-58 -127t-36 -108.5t-11 -51q0 -14 14 -14h371q8 0 62 6q27 6 43 6q22 0 22 -26q0 -20 -100.5 -317t-100.5 -349q0 -11 7.5 -18t19.5 -7q24 0 170 127l29 -20 q-208 -225 -320 -225q-61 0 -61 65q0 39 100.5 336.5t100.5 323.5q0 28 -93 28h-262q-15 0 -21 -5.5t-12 -24.5l-157 -603q-154 -587 -451 -587q-66 0 -101.5 23.5t-35.5 60.5z" />
<glyph unicode="&#xfb02;" horiz-adv-x="1024" d="M-428 -399q0 32 17 51.5t46 19.5q32 0 95.5 -36.5t91.5 -36.5q19 0 35 13t38 53t49.5 125t61.5 218l170 668q3 14 7 26.5t5.5 18t1.5 8.5q0 8 -10 8h-164q-22 0 -22 13q0 57 26 57h152q25 0 36 13.5t30 66.5q47 133 85 197q144 242 455 243q119 0 174.5 -13.5t55.5 -43.5 q0 -7 -3 -19t-10.5 -36.5t-16 -50t-24.5 -74.5t-30 -93l-224 -702q-9 -28 -19 -59.5t-14.5 -45.5t-8 -28t-3.5 -23q0 -17 9.5 -27t23.5 -10q22 0 78.5 47t91.5 82l21 -24q-49 -62 -155 -142.5t-159 -80.5q-61 0 -61 67q0 33 97 330t97 321q0 19 -21 27t-91 8h-236 q-23 0 -33 -30l-157 -603q-154 -587 -451 -587q-66 0 -101.5 23.5t-35.5 60.5zM350 823q0 -16 29 -16h305q58 0 64 24q96 298 96 357q0 86 -148 86q-58 0 -110.5 -32t-88.5 -81.5t-65.5 -105.5t-46.5 -108t-26 -85t-9 -39z" />
</font>
</defs>
</svg>
