<?xml version="1.0" standalone="no"?>
<!DOCTYPE svg PUBLIC "-//W3C//DTD SVG 1.1//EN" "http://www.w3.org/Graphics/SVG/1.1/DTD/svg11.dtd" >
<svg xmlns="http://www.w3.org/2000/svg">
<metadata></metadata>
<defs>
<font id="granjon_small_caps__old_styRg" horiz-adv-x="909" >
<font-face units-per-em="2048" ascent="1638" descent="-410" />
<missing-glyph horiz-adv-x="454" />
<glyph horiz-adv-x="2048" />
<glyph horiz-adv-x="2048" />
<glyph unicode="&#xd;" horiz-adv-x="2048" />
<glyph unicode=" "  horiz-adv-x="454" />
<glyph unicode="&#x09;" horiz-adv-x="454" />
<glyph unicode="&#xa0;" horiz-adv-x="454" />
<glyph unicode="!" horiz-adv-x="681" d="M283 1208q0 64 23.5 102t70.5 38q94 0 94 -125q0 -35 -3 -73.5t-9 -95t-8 -81.5l-70 -703h-35l-18 332q-3 50 -24 304.5t-21 301.5zM289 72q0 37 25.5 62.5t62.5 25.5t62.5 -25.5t25.5 -62.5t-25.5 -62.5t-62.5 -25.5t-62.5 25.5t-25.5 62.5z" />
<glyph unicode="&#x22;" horiz-adv-x="681" d="M125 1149q-13 166 70 166q28 0 44.5 -17t20.5 -48.5t4 -51.5t-2 -49l-35 -418l-1 -12q-1 -12 -2.5 -18t-4.5 -15t-9 -13.5t-15 -4.5q-8 0 -14 4t-9.5 8.5t-6 13.5t-3 13.5l-1.5 13.5t-1 10zM418 1198q0 20 4 51.5t20.5 48.5t44.5 17q83 0 70 -166l-35 -418q0 -1 -1 -10 l-1.5 -13.5t-3 -13.5t-6 -13.5t-9.5 -8.5t-14 -4q-9 0 -15 4.5t-9 13.5t-4.5 15t-2.5 18l-1 12l-35 418q-2 29 -2 49z" />
<glyph unicode="#" d="M0 416v90h217l39 285h-205v90h217l58 417h104l-59 -417h250l57 417h104l-59 -417h188v-90h-202l-39 -285h190v-90h-203l-57 -416h-104l59 416h-250l-57 -416h-105l60 416h-203zM317 506h252l39 285h-252z" />
<glyph unicode="$" d="M33 160q0 26 15 45.5t48 19.5q22 0 46 -12.5t41.5 -27.5t50.5 -45.5t57 -49.5v533q-225 99 -225 344q0 106 63 194t162 127v203h74v-182q41 6 69 6q32 0 66 -6v182h73v-197q102 -27 170 -72.5t68 -84.5q0 -25 -14 -38.5t-39 -13.5q-24 0 -43.5 12.5t-33 31t-43 47.5 t-65.5 53v-518q37 -14 66.5 -28t67.5 -43.5t63 -65t43 -93t18 -127.5q0 -53 -10.5 -99t-26 -78.5t-40.5 -61t-45.5 -46t-50 -34t-45.5 -23.5t-40 -16v-189h-73v179q-23 -2 -72 -2q-38 0 -63 2v-179h-74v189q-129 29 -193.5 74.5t-64.5 89.5zM156 993q0 -49 11.5 -85t36 -59 t41 -33.5t46.5 -24.5v444q-54 -32 -94.5 -92t-40.5 -150zM365 57q37 -12 77 -12q26 0 58 8v516q-12 3 -135 37v-549zM365 768q26 -7 71.5 -19.5t63.5 -17.5v526q-30 9 -64 9t-71 -9v-489zM573 76q61 28 98.5 93.5t37.5 162.5q0 82 -41.5 136t-94.5 81v-473z" />
<glyph unicode="%" horiz-adv-x="1593" d="M125 887q0 90 40.5 177t103.5 149t142 100.5t154 38.5q153 0 178 -148q48 -39 121 -39q63 0 120.5 16t96.5 37t78 55.5t58 56t45 54.5h75l-1011 -1400h-90l847 1171l-4 4q-114 -47 -223 -47q-44 0 -108 27q-26 -207 -142 -355.5t-252 -148.5q-104 0 -166.5 74.5 t-62.5 177.5zM231 827q0 -143 131 -143q79 0 158.5 76.5t128.5 192.5t49 227q-27 24 -38 43.5t-21 64.5q-31 15 -70 15q-75 0 -156.5 -87t-131.5 -198.5t-50 -190.5zM840 236q0 90 40.5 176.5t103.5 149t142 100.5t154 38q184 0 184 -208q0 -62 -29.5 -147t-79 -166.5 t-126.5 -138t-160 -56.5q-104 0 -166.5 74.5t-62.5 177.5zM946 176q0 -143 131 -143q86 0 166.5 82.5t126 193.5t45.5 205q0 63 -31.5 100t-87.5 37q-61 0 -126.5 -52.5t-113.5 -126.5t-79 -156t-31 -140z" />
<glyph unicode="&#x26;" horiz-adv-x="1175" d="M59 252q0 101 53 187.5t175 183.5q-111 96 -111 172q0 53 31 112.5t89 102.5t124 43q63 0 100 -33.5t37 -95.5q0 -63 -32 -123t-99 -133q31 -35 156 -160.5t168 -175.5q27 51 54.5 123t26.5 112q-2 29 -32 49t-92 23v41h364v-41q-64 -12 -94.5 -24.5t-54.5 -43.5 q-28 -38 -71.5 -147t-59.5 -143q1 -2 31.5 -41t51 -62.5t54 -47.5t59.5 -24q21 0 37 11.5t23.5 25.5t16.5 25.5t17 11.5q21 0 21 -18q0 -5 -10.5 -31.5t-28.5 -60t-50 -60t-67 -26.5q-89 0 -229 180q-55 -62 -100.5 -98t-110.5 -59t-146 -23q-74 0 -133 24.5t-94.5 64 t-54.5 85.5t-19 94zM162 342q0 -74 46 -135.5t108.5 -93t121.5 -31.5q70 0 134.5 39t103.5 90q-39 49 -162.5 184.5t-187.5 196.5q-84 -60 -124 -127t-40 -123zM254 862q0 -77 133 -160q58 47 80 80q29 43 29 88q0 53 -29.5 87t-75.5 34q-60 0 -98.5 -41.5t-38.5 -87.5z" />
<glyph unicode="'" horiz-adv-x="454" d="M156 1198q0 20 4 51.5t20.5 48.5t44.5 17q83 0 70 -166l-35 -418q0 -1 -1 -10l-1.5 -13.5t-3 -13.5t-6 -13.5t-9.5 -8.5t-14 -4q-9 0 -15 4.5t-9 13.5t-4.5 15t-2.5 18l-1 12l-35 418q-2 29 -2 49z" />
<glyph unicode="(" horiz-adv-x="569" d="M94 492q0 255 111 480.5t311 411.5v-45q-81 -99 -138.5 -216.5t-86 -229.5t-41 -204.5t-12.5 -176.5q0 -229 79 -462t195 -369v-46q-28 20 -71.5 63.5t-106 126.5t-114.5 178t-89 226t-37 263z" />
<glyph unicode=")" horiz-adv-x="569" d="M53 -319q81 99 139 216.5t86.5 229.5t41 204.5t12.5 176.5q0 229 -79.5 462t-195.5 369v45q28 -20 71.5 -63.5t106 -126t114.5 -177.5t89 -226t37 -263q0 -255 -111 -481t-311 -412v46z" />
<glyph unicode="*" d="M78 1067q0 21 15 36t36 15q9 0 18 -1.5t15 -3t15 -6t12.5 -6t13.5 -7.5t12 -7l180 -104l17 12l-111 181l-7 10.5t-6.5 10t-5.5 8.5t-5 8.5t-3.5 7.5t-3.5 8.5t-2 8t-1.5 8.5t-0.5 9q0 23 16.5 39.5t39.5 16.5q49 0 75 -115l43 -192h25l37 170q15 73 32.5 98.5t47.5 25.5 q25 0 40 -13.5t15 -35.5q0 -21 -8 -40.5t-33 -59.5l-102 -154l16 -12l188 107q55 32 82 32q19 0 32 -15t13 -38q0 -27 -15.5 -41t-57.5 -24l-232 -60v-18l228 -52q81 -17 81 -73q0 -47 -59 -47q-40 0 -104 43l-158 104l-16 -14l106 -178q37 -63 37 -97q0 -17 -14 -32 t-37 -15q-28 0 -48.5 26.5t-29.5 72.5l-47 217h-21l-51 -242q-8 -39 -22.5 -56.5t-40.5 -17.5q-23 0 -39.5 15t-16.5 34q0 37 45 117l95 160l-15 10l-147 -102q-61 -43 -123 -43q-17 0 -29 12t-12 31q0 26 27.5 46.5t72.5 31.5l203 49v18l-219 51q-39 9 -63.5 28.5 t-24.5 43.5z" />
<glyph unicode="+" horiz-adv-x="1228" d="M219 350v90h350v351h90v-351h351v-90h-351v-350h-90v350h-350z" />
<glyph unicode="," horiz-adv-x="454" d="M90 -311q193 106 193 229q0 30 -18 46t-44 22t-52.5 13t-44.5 28.5t-18 60.5q0 49 31 81t88 32q65 0 110.5 -59.5t45.5 -133.5q0 -234 -291 -352v33z" />
<glyph unicode="-" horiz-adv-x="681" d="M86 324v82l508 49v-82z" />
<glyph unicode="." horiz-adv-x="454" d="M115 92q0 44 32 76.5t76 32.5t76.5 -32.5t32.5 -76.5t-32.5 -76t-76.5 -32t-76 32t-32 76z" />
<glyph unicode="/" horiz-adv-x="569" d="M-47 -16l573 1331h92l-573 -1331h-92z" />
<glyph unicode="0" d="M70 401q0 178 114 298t271 120t271 -120t114 -298t-114 -297.5t-271 -119.5t-271 119.5t-114 297.5zM213 401q0 -186 68.5 -281t173.5 -95t173 94.5t68 281.5t-68 282t-173 95t-173.5 -95t-68.5 -282z" />
<glyph unicode="1" d="M215 0v33q93 3 128.5 26t35.5 76v533q0 53 -35.5 76t-128.5 26v33h479v-33q-93 -3 -128.5 -26t-35.5 -76v-533q0 -53 35.5 -76t128.5 -26v-33h-479z" />
<glyph unicode="2" d="M66 0v39q26 16 99 57.5t119 69t111 76t103.5 91t67 100t28.5 116.5q0 77 -47 120.5t-135 43.5q-157 0 -297 -111l-25 33q87 82 191 133t213 51q110 0 187 -64.5t77 -162.5q0 -231 -408 -440q-5 -3 -17 -8.5t-17 -9t-5 -7.5q0 -12 127 -12h115q73 0 124 10t74 24.5t37 29 t24 24.5t24 10q7 0 11.5 -4.5t4.5 -9.5q0 -8 -66 -199h-720z" />
<glyph unicode="3" d="M33 -385q0 14 10.5 23.5t24.5 9.5q21 0 46 -13t46 -28t55.5 -28t73.5 -13q142 0 244 86.5t102 226.5q0 174 -207 260q-53 22 -104.5 25.5t-72 3t-20.5 14.5q0 11 36 33.5t87.5 53.5t103.5 71t88 98.5t36 122.5q0 83 -55.5 136t-141.5 53q-56 0 -113 -26.5t-100 -72.5 l-25 17q135 151 330 151q110 0 179 -53.5t69 -149.5q0 -186 -258 -342q150 -44 230.5 -141t80.5 -209q0 -169 -143.5 -288t-349.5 -119q-252 0 -252 98z" />
<glyph unicode="4" d="M37 0v49l520 754h82v-697h168v-106h-168v-483h-127v483h-475zM131 106h381v545h-4z" />
<glyph unicode="5" d="M66 -451q279 30 424 144.5t145 294.5q0 73 -26.5 130t-87 102.5t-169 70t-262.5 24.5l90 496q78 -4 119 -6q19 0 58 -1t59 -1q37 0 109.5 4t109.5 4q39 0 64.5 11t34.5 24t20.5 24t25.5 11q8 0 15.5 -5.5t7.5 -13.5q0 -6 -9.5 -32t-25.5 -71.5t-27 -82.5q-102 -8 -149 -8 q-125 0 -371 8l-45 -242q58 8 107 8q102 0 194.5 -35.5t158 -94t104 -137t38.5 -161.5q0 -138 -91 -249.5t-253.5 -176.5t-367.5 -71v32z" />
<glyph unicode="6" d="M74 483q0 162 59 312.5t160 263t245 182t306 74.5v-25q-102 -3 -208.5 -57t-185.5 -133t-129.5 -174.5t-50.5 -177.5q0 -19 11 -19q4 0 28 16.5t70 33t102 16.5q158 0 260.5 -117t102.5 -283q0 -174 -112 -292.5t-279 -118.5q-166 0 -272.5 134t-106.5 365zM217 389 q0 -66 10.5 -124.5t36 -115.5t75.5 -90.5t120 -33.5t120 33.5t75 90.5t35.5 115.5t10.5 124.5q0 52 -6 99t-22.5 97t-42.5 86.5t-69.5 59.5t-100.5 23t-100.5 -23t-70 -59.5t-43 -86.5t-22.5 -97t-6 -99z" />
<glyph unicode="7" d="M70 524l135 369h49q3 -52 13 -71t32 -19h569v-25l-553 -1261h-163q168 270 337.5 586t268.5 556h-500q-43 0 -73.5 -27t-65.5 -108h-49z" />
<glyph unicode="8" d="M111 281q0 60 18.5 112.5t57 98t76 78.5t95.5 75v2q-217 120 -217 334q0 140 97 237t243 97q125 0 213 -75.5t88 -197.5q0 -90 -55.5 -173t-136.5 -142v-2q110 -58 169.5 -156t59.5 -207q0 -77 -22.5 -144t-66 -120t-115.5 -83.5t-164 -30.5q-157 0 -248.5 87.5 t-91.5 209.5zM213 313q0 -121 62.5 -204.5t177.5 -83.5q111 0 177 75.5t66 198.5q0 101 -75 192t-191 127q-85 -40 -151 -125.5t-66 -179.5zM264 1057q0 -101 74.5 -180t193.5 -123q68 54 108 128t40 156q0 103 -51 169.5t-150 66.5q-97 0 -156 -59.5t-59 -157.5z" />
<glyph unicode="9" d="M66 -442q110 16 205.5 58.5t160 97.5t114.5 115.5t78 116.5t42 95t14 57q0 8 -8 8q-5 0 -25 -14.5t-46 -32.5t-72.5 -32.5t-98.5 -14.5q-148 0 -254 121.5t-106 280.5q0 174 110.5 289.5t274.5 115.5q158 0 271.5 -136.5t113.5 -346.5q0 -339 -204 -549t-570 -270v41z M213 426q0 -62 12.5 -120t39 -112t75.5 -87t115 -33t115 33t75 87t38.5 112t12.5 120t-12.5 120t-38.5 112t-75 87t-115 33t-115 -33t-75.5 -87t-39 -112t-12.5 -120z" />
<glyph unicode=":" horiz-adv-x="454" d="M119 92q0 44 32 76.5t76 32.5t76.5 -32.5t32.5 -76.5t-32.5 -76t-76.5 -32t-76 32t-32 76zM119 698q0 44 32 76.5t76 32.5t76.5 -32.5t32.5 -76.5t-32.5 -76t-76.5 -32t-76 32t-32 76z" />
<glyph unicode=";" horiz-adv-x="454" d="M90 -311q193 106 193 229q0 30 -18 46t-44 22t-52.5 13t-44.5 28.5t-18 60.5q0 49 31 81t88 32q65 0 110.5 -59.5t45.5 -133.5q0 -234 -291 -352v33zM119 698q0 44 32 76.5t76 32.5t76.5 -32.5t32.5 -76.5t-32.5 -76t-76.5 -32t-76 32t-32 76z" />
<glyph unicode="&#x3c;" horiz-adv-x="1228" d="M219 350v90l791 363v-96l-680 -312l680 -311v-96z" />
<glyph unicode="=" horiz-adv-x="1228" d="M219 197v90h791v-90h-791zM219 504v90h791v-90h-791z" />
<glyph unicode="&#x3e;" horiz-adv-x="1228" d="M219 -12v96l680 311l-680 312v96l791 -363v-90z" />
<glyph unicode="?" horiz-adv-x="948" d="M227 72q0 37 25.5 62.5t62.5 25.5t62.5 -25.5t25.5 -62.5t-25.5 -62.5t-62.5 -25.5t-62.5 25.5t-25.5 62.5zM279 1288q0 60 71 60q50 0 97.5 -13.5t94.5 -45.5t82 -79t56.5 -120t21.5 -162q0 -121 -52 -201.5t-150 -87.5q-92 -6 -120.5 -18.5t-31.5 -55.5 q-11 -88 -14 -286h-39l4 512q46 -3 98 -3q148 0 202 31.5t54 104.5q0 31 -7.5 59.5t-16.5 50t-29.5 43t-33.5 34.5t-42 29.5t-41.5 23t-46 19.5t-41 15.5t-39.5 13.5q-42 14 -59.5 30.5t-17.5 45.5z" />
<glyph unicode="@" horiz-adv-x="1638" d="M154 618q0 153 56.5 284.5t152 221t224 140.5t269.5 51q176 0 320 -73.5t226.5 -204.5t82.5 -292q0 -76 -23.5 -155t-66 -147.5t-111.5 -112t-151 -43.5q-45 0 -81.5 17.5t-55.5 41.5t-29 45t-9 31h-2h-4q-9 -17 -24 -35t-41.5 -42t-67 -40t-86.5 -18q-78 -3 -132 55.5 t-54 183.5q0 78 28.5 159.5t77.5 148.5t122 110t153 43q30 0 52 -6.5t38 -23.5t22.5 -27t19.5 -34q3 -6 5 -9l20 78h132l-127 -492q-7 -28 -7 -55q0 -29 19 -49.5t59 -20.5q60 0 111.5 38t83 97t49.5 127t18 133q0 68 -23.5 140.5t-72 141t-115 122.5t-159 86.5t-197.5 32.5 q-115 0 -215 -44.5t-175 -126t-118 -205.5t-43 -276q0 -147 68.5 -274t200.5 -207t300 -80q184 0 383 88l25 -49q-78 -34 -129.5 -53.5t-128 -37t-147.5 -17.5q-145 0 -268 41.5t-205 107.5t-140 150.5t-84 169.5t-26 165zM678 526q0 -81 34.5 -119t86.5 -38q57 0 112.5 64 t90 161t34.5 190q0 121 -84 121q-37 0 -83.5 -26.5t-89.5 -73t-72 -121t-29 -158.5z" />
<glyph unicode="A" horiz-adv-x="1478" d="M78 0v41q36 4 59.5 11t49 27.5t45 48.5t48 84.5t56 123t70.5 176.5l159 410q8 21 20.5 51.5t20 49t15 39t11 33t3.5 19.5q0 22 10 37l92 139q17 25 35 25q11 0 18 -6.5t13.5 -25t13 -39.5t19.5 -61.5t28 -80.5l307 -789q38 -95 60 -142.5t51 -78t56 -39t79 -12.5v-41 h-510v41q80 7 110 24.5t30 49.5q0 52 -33 139l-96 254h-457l-86 -234q-37 -96 -37 -137q0 -49 33.5 -71t99.5 -25v-41h-393zM483 565h414l-176 453q-20 54 -29 90h-4q-11 -36 -31.5 -91.5t-43 -113t-25.5 -65.5z" />
<glyph unicode="B" horiz-adv-x="1251" d="M100 0v41q103 0 132.5 33.5t29.5 150.5q0 113 6 444t6 404q0 117 -29 150.5t-130 33.5v41q46 0 134 -4t128 -4q35 0 95 4t103 4q249 0 377.5 -81t128.5 -222q0 -47 -11.5 -87t-28 -68t-46 -52.5t-53.5 -39t-63.5 -29.5t-62 -21.5t-62.5 -17.5v-4q53 -11 88.5 -20 t81 -24.5t75 -32.5t61 -43t50 -57.5t30 -75t11.5 -95.5q0 -78 -33 -138.5t-84.5 -97t-121.5 -60t-137 -32t-138 -8.5q-25 0 -111 4q-82 4 -123 4h-303zM438 125q0 -64 29 -78t151 -14q357 0 357 301q0 169 -104.5 246t-303.5 77q-86 0 -107.5 -21t-21.5 -99v-412zM438 786 q0 -54 23 -66.5t114 -12.5q173 0 251.5 65t78.5 193q0 154 -77.5 223t-243.5 69q-80 0 -113 -31.5t-33 -103.5v-336z" />
<glyph unicode="C" horiz-adv-x="1366" d="M66 616q0 195 82 353t239 252t363 94q122 0 270 -43t217 -115l-8 -256h-37q-15 49 -36.5 94t-60 98t-87 91.5t-121 64t-158.5 25.5q-90 0 -170.5 -39t-146 -115t-104 -201.5t-38.5 -283.5q0 -178 65 -317t181 -216t264 -77q152 0 269 92.5t180 244.5h41l-25 -182 q-6 -47 -82.5 -93.5t-189.5 -74.5t-221 -28q-163 0 -296 53t-216.5 142t-128.5 201.5t-45 235.5z" />
<glyph unicode="D" horiz-adv-x="1554" d="M61 0v41q67 0 103 6t58 28t28 55t6 95v848q0 117 -27 150.5t-120 33.5v41h534q83 0 172 -15t184 -46.5t178.5 -85.5t150.5 -125.5t106 -174.5t39 -224q0 -118 -39 -220.5t-106 -176t-156 -126t-190.5 -78.5t-207.5 -26h-713zM432 197q0 -53 18.5 -85t74 -51.5 t153.5 -19.5q272 0 431 155t159 427q0 292 -173 463t-466 171q-119 0 -158 -34t-39 -150v-876z" />
<glyph unicode="E" horiz-adv-x="1290" d="M66 0v41q87 0 125.5 14.5t52 50.5t14.5 119q8 532 8 848q0 118 -32 151t-148 33v41h987l43 -233h-33q-35 43 -54 65t-51 49.5t-62.5 39.5t-75 21t-101.5 9h-176q-77 0 -99 -14.5t-22 -67.5v-446h211q46 0 75.5 2t53 10.5t36.5 19t23 33.5t15.5 46.5t11.5 66.5h54v-446 h-41q-20 121 -60 159.5t-149 38.5h-230v-516q0 -52 27.5 -69t103.5 -17h271q51 0 85.5 3t66.5 15t53.5 27t49 47.5t50.5 67.5t59 96h39q-14 -37 -69 -305h-1112z" />
<glyph unicode="F" horiz-adv-x="1214" d="M37 0v41q87 0 125.5 14.5t52 50.5t14.5 119q0 45 4.5 384t4.5 464q0 117 -31 150.5t-141 33.5v41h1007q10 -38 37.5 -154.5t44.5 -162.5h-53q-41 60 -60 87.5t-49.5 64t-43 49t-42.5 31t-46 21.5t-56 9t-70 6h-90h-168q-36 0 -46.5 -17t-12.5 -73l-8 -467h256 q46 0 75.5 2t53 10.5t36.5 18t23 31t15.5 43.5t11.5 61h53v-422h-41q-14 77 -34.5 115t-60 55t-114.5 17h-274v-398q1 -83 14.5 -119t52.5 -50.5t127 -14.5v-41h-567z" />
<glyph unicode="G" horiz-adv-x="1517" d="M74 629q0 140 54 265.5t149.5 218.5t235 147.5t300.5 54.5q311 0 500 -152q4 -34 5 -85q1 -30 1 -58v-36q-1 -21 -1 -44.5t1 -48.5h-37q-109 383 -461 383q-153 0 -278.5 -89t-194.5 -233.5t-69 -310.5q0 -106 21.5 -195t57 -151t83.5 -111t97.5 -78t103 -48t96 -26 t79.5 -7q150 0 220 46.5t73 123.5l8 153q1 17 1 33q0 88 -29 117q-35 34 -156 34v41h512v-41q-52 0 -80 -6t-45.5 -28t-22.5 -54.5t-6 -95.5l-4 -237q-213 -127 -463 -127q-157 0 -286.5 40t-214 104.5t-142.5 150t-83 173t-25 177.5z" />
<glyph unicode="H" horiz-adv-x="1669" d="M76 0v41q109 0 139.5 33.5t30.5 150.5v848q0 117 -29.5 150.5t-130.5 33.5v41h520v-41q-119 0 -151.5 -33t-32.5 -151v-360h819v360q0 62 -6 95t-27 55t-55.5 28t-99.5 6v41h526v-41q-103 0 -132.5 -33.5t-29.5 -150.5v-848q0 -117 29.5 -150.5t132.5 -33.5v-41h-537v41 q68 0 105 6t59.5 28t28.5 55t6 95v418h-819v-418q0 -62 6 -95t27.5 -55t56.5 -28t100 -6v-41h-536z" />
<glyph unicode="I" horiz-adv-x="720" d="M86 0v41q101 0 130.5 33.5t29.5 150.5v848q0 117 -29.5 150.5t-130.5 33.5v41h520v-41q-119 0 -151.5 -33t-32.5 -151v-848q0 -117 28.5 -150.5t127.5 -33.5v-41h-492z" />
<glyph unicode="J" horiz-adv-x="720" d="M43 -332q60 24 102 61t67 83.5t39 117t18.5 143.5t4.5 181v819q0 117 -28 150.5t-123 33.5v41h504v-41q-113 0 -144.5 -33t-31.5 -151v-813q0 -104 -10.5 -183.5t-37 -153.5t-72.5 -127t-117.5 -94.5t-170.5 -66.5v33z" />
<glyph unicode="K" horiz-adv-x="1517" d="M86 0v41q101 0 130.5 33.5t29.5 150.5v848q0 117 -29.5 150.5t-130.5 33.5v41h496v-41q-101 0 -130.5 -33.5t-29.5 -150.5v-459l315 301q193 184 193 265q0 36 -36 54q-32 16 -85 15h-12v41l479 8v-32q-69 0 -119.5 -21t-103.5 -74l-422 -428l590 -579q119 -120 249 -123 v-41h-587v41q125 0 125 55q0 49 -154 203l-340 336l-92 -84v-326q0 -117 28.5 -150.5t127.5 -33.5v-41h-492z" />
<glyph unicode="L" horiz-adv-x="1290" d="M61 0v41q70 0 107.5 6t60.5 28t29 54.5t6 95.5v848q0 117 -30.5 150.5t-139.5 33.5v41h547v-41q-69 0 -106 -6t-60 -28t-29 -55t-6 -95v-848q0 -111 29.5 -143.5t130.5 -32.5h133q69 0 129.5 11.5t123 39.5t118 82.5t98.5 132.5h47l-65 -331q-82 6 -168 12q-110 4 -168 4 h-787z" />
<glyph unicode="M" horiz-adv-x="1744" d="M76 0v41q48 8 75.5 18.5t49.5 34t32 62t15 100.5q13 176 22 420.5t9 347.5q0 55 -2.5 89.5t-11.5 61.5t-19.5 41t-34.5 23.5t-48.5 12.5t-68.5 5v41h338l365 -827q9 -20 27.5 -59.5t32.5 -72t26 -67.5l493 1026h316v-41q-121 -7 -159 -47t-38 -159q0 -32 4 -176t9 -355 t8 -370q1 -68 38.5 -88.5t137.5 -20.5v-41h-516v41q76 0 110 10.5t45.5 34.5t11.5 78v653q0 106 -8 266h-4q-42 -90 -156.5 -331t-190.5 -410t-138 -322h-29q-10 22 -65 157.5t-93 211.5q-103 205 -323 719h-4q-1 -179 -9 -465t-8 -369q0 -129 39 -181t148 -52v-41h-426z " />
<glyph unicode="N" horiz-adv-x="1630" d="M57 1257v41h324q45 -54 145.5 -166t225 -247.5t231.5 -251t210.5 -226.5t115.5 -124q10 403 10 788q0 103 -37 137.5t-154 48.5v41h441v-41q-113 -14 -151 -49t-38 -137q0 -145 -26 -1071q-32 0 -37 8q-43 65 -219.5 252t-403 429.5t-360.5 412.5h-6v-848q0 -67 8 -106.5 t31.5 -61.5t52.5 -30.5t84 -14.5l8 -41h-422v41q55 6 84 14.5t52.5 30.5t31.5 61.5t8 106.5v815q0 56 -12 91.5t-41 55t-63.5 28t-92.5 13.5z" />
<glyph unicode="O" horiz-adv-x="1517" d="M76 649q0 292 188 479t490 187t490 -187t188 -479t-188 -478.5t-490 -186.5t-490 186.5t-188 478.5zM264 649q0 -298 122 -461t368 -163t367.5 163t121.5 461t-121.5 461.5t-367.5 163.5t-368 -163.5t-122 -461.5z" />
<glyph unicode="P" horiz-adv-x="1175" d="M72 1257v41h561q67 0 131 -10t128.5 -35t112 -63.5t77.5 -100t30 -139.5q0 -110 -49 -190t-136.5 -124.5t-192 -64.5t-232.5 -20v49q434 0 434 340q0 70 -23 125.5t-58.5 89t-82.5 55.5t-91 30.5t-89 8.5q-103 0 -132.5 -33.5t-29.5 -150.5v-840q0 -118 32 -151t150 -33 v-41h-532v41q112 0 143 33t31 151v848q0 118 -32 151t-150 33z" />
<glyph unicode="Q" horiz-adv-x="1517" d="M76 649q0 292 188 479t490 187t490 -187t188 -479q0 -276 -169.5 -459.5t-447.5 -205.5q171 -287 551 -287v-41q-178 0 -297 14.5t-212.5 52.5t-151 103t-93.5 166q-245 46 -390.5 224t-145.5 433zM264 649q0 -298 122 -461t368 -163t367.5 163t121.5 461t-121.5 461.5 t-367.5 163.5t-368 -163.5t-122 -461.5z" />
<glyph unicode="R" horiz-adv-x="1327" d="M86 0v41q110 0 141 33.5t31 150.5q0 133 4 413q3 217 2 360v75q0 117 -27.5 150.5t-121.5 33.5v41h397q170 0 291 -34t191.5 -110t70.5 -191q0 -65 -27 -119.5t-61.5 -85.5t-83.5 -56t-76 -33.5t-55 -15.5l338 -499q40 -60 81 -86.5t95 -26.5v-41h-227q-11 0 -20 4 t-26 21.5t-38 50.5l-353 547h-178v-398q0 -118 31.5 -151t146.5 -33v-41h-526zM434 672q241 0 342 62.5t101 232.5q0 134 -90.5 208t-217.5 74q-84 0 -109.5 -21.5t-25.5 -84.5v-471z" />
<glyph unicode="S" horiz-adv-x="1024" d="M88 377h31q10 -28 17.5 -46.5t27 -59t39 -69t51 -64.5t65.5 -58.5t81 -38.5t98 -16q54 0 105 16t94 47t69.5 82.5t26.5 116.5q0 59 -23 106.5t-62 80t-89.5 60t-106.5 51t-112 48t-106.5 55.5t-89.5 69t-62 93.5t-23 124.5q0 52 13.5 99.5t46 92t81.5 77t124 52t169 19.5 q178 0 299 -62v-272h-33q-46 140 -125.5 216.5t-179.5 76.5q-56 0 -110 -23t-94 -75t-40 -123q0 -55 23 -100t62 -77.5t89.5 -61t106.5 -54t112 -51.5t106.5 -58.5t89.5 -70.5t62 -92t23 -119t-29 -131t-84 -123.5t-146.5 -94t-203.5 -36.5q-82 0 -196.5 18t-143.5 45 q-12 10 -20.5 40.5t-14 73.5t-9 79.5t-6 81t-3.5 55.5z" />
<glyph unicode="T" horiz-adv-x="1441" d="M57 997l88 346h43q59 -65 181 -65h770q91 0 124 11.5t80 53.5h29v-346h-29q-15 56 -35.5 94.5t-47.5 63.5t-67.5 38.5t-87 18.5t-114.5 5q-49 0 -73.5 -1t-50 -7.5t-35 -16.5t-18 -32.5t-10 -49.5t-1.5 -74q0 -106 -9.5 -434.5t-9.5 -376.5q0 -107 40.5 -142.5 t168.5 -41.5v-41h-587v41q75 0 114.5 6t63.5 28t30.5 54.5t6.5 95.5q0 48 9 376.5t9 434.5v56t-3.5 41.5t-6 31.5t-13 20t-19 13.5t-30 6t-39.5 3.5h-53q-153 0 -236.5 -52t-136.5 -159h-45z" />
<glyph unicode="U" horiz-adv-x="1517" d="M57 1257v41h555v-41q-77 0 -117.5 -6t-65 -28t-30.5 -54.5t-6 -95.5v-647q0 -161 110 -260.5t300 -99.5q150 0 236 58.5t125.5 190t39.5 361.5v397q0 104 -46.5 144t-147.5 40v41h440v-41q-46 -5 -73 -15t-48 -28t-31 -55t-15.5 -86t-8.5 -131l-17 -479q-2 -79 -14 -142 t-45 -128.5t-86.5 -109t-144 -71.5t-211.5 -28q-257 0 -392 111t-135 335v643q0 117 -31 150.5t-141 33.5z" />
<glyph unicode="V" horiz-adv-x="1441" d="M57 1257v41h533v-41q-57 0 -94.5 -7.5t-55.5 -23t-24 -32.5t-6 -43q0 -39 41.5 -144t138.5 -337.5t178 -446.5q32 74 94 213.5t101 228t81.5 192t64 170.5t21.5 99q0 61 -42.5 93t-131.5 38v41h445v-41q-50 -9 -79.5 -26t-61.5 -61.5t-74 -133.5q-109 -230 -172.5 -367 t-153.5 -346.5t-133 -338.5h-33l-483 1171q-41 102 -154 102z" />
<glyph unicode="W" horiz-adv-x="2009" d="M53 1257v41h475v-41q-74 0 -104.5 -25t-30.5 -89q0 -33 11 -76.5t20.5 -69t37.5 -91t36 -85.5l215 -534l250 690l-66 168q-29 71 -57.5 90.5t-98.5 21.5v41h508v-41q-168 0 -168 -94q0 -35 34.5 -133t114 -318.5t150.5 -439.5h4q4 11 52.5 135t79.5 208t73 203.5 t64 205.5t22 129q0 55 -34 75.5t-117 28.5v41h430v-41q-41 -2 -67.5 -11t-55.5 -41t-51 -91l-432 -1122l-37 -8q-32 120 -151 436t-159 450h-4q-39 -110 -153 -414t-168 -464l-29 -8l-430 1108q-37 97 -69 129.5t-95 35.5z" />
<glyph unicode="X" horiz-adv-x="1441" d="M45 0v41q39 9 66.5 17.5t56.5 25.5t50 34.5t53 53t60.5 70.5t76.5 98l239 311l-342 479q-54 75 -90 95.5t-129 31.5v41h535v-41q-125 -5 -125 -63q0 -41 45 -113.5t168 -245.5q29 -41 45 -63q1 2 47.5 60.5t74 96t67.5 94t60.5 97t20.5 62.5q0 36 -33 54t-104 21v41h473 v-41q-181 -3 -359 -239l-219 -291l361 -518q53 -76 108.5 -115.5t137.5 -52.5v-41h-578v41q93 1 129.5 18.5t36.5 51.5q0 26 -18.5 66.5t-54 95.5t-68 101t-82 114t-74.5 104q-315 -374 -315 -461q0 -74 165 -90v-41h-485z" />
<glyph unicode="Y" horiz-adv-x="1366" d="M59 1257v41h498v-41q-127 0 -127 -61q0 -13 4.5 -29.5t17.5 -42t27 -50.5t42 -70.5t54 -86t71 -113t85 -136.5q56 89 115.5 178.5t90 134t57.5 88.5t36.5 70t9.5 51q0 36 -24.5 51.5t-83.5 15.5v41h375v-41q-57 -5 -102.5 -36.5t-112.5 -126.5l-338 -486v-383 q0 -46 2.5 -74t12.5 -50t21.5 -32.5t39 -17.5t54.5 -8t79 -2v-41h-594v41q52 1 79 2t54.5 8t39 17.5t21.5 32.5t12.5 50t2.5 74v385l-345 516q-50 74 -82 95.5t-92 35.5z" />
<glyph unicode="Z" horiz-adv-x="1290" d="M82 0q60 87 374.5 550t483.5 699h-385q-81 0 -137 -11t-108.5 -42.5t-94 -90t-80.5 -151.5h-47l62 389h43q22 -45 161 -45h838q-582 -817 -854 -1241q188 -8 283 -8q80 0 134.5 3.5t112 14.5t97.5 32t80 55.5t72.5 85t62.5 120.5h53l-59 -360h-1092z" />
<glyph unicode="[" horiz-adv-x="569" d="M133 -324v1672h383v-33h-248v-1606h244v-33h-379z" />
<glyph unicode="\" horiz-adv-x="569" d="M-47 1315h90l575 -1331h-90z" />
<glyph unicode="]" horiz-adv-x="569" d="M53 -291h248v1606h-244v33h379v-1672h-383v33z" />
<glyph unicode="^" horiz-adv-x="1228" d="M287 729l286 569h82l287 -569h-98l-230 461l-229 -461h-98z" />
<glyph unicode="_" horiz-adv-x="1024" d="M0 -154h1024v-102h-1024v102z" />
<glyph unicode="`" horiz-adv-x="530" d="M4 1202q0 24 18.5 37.5t49.5 13.5q32 0 51 -13.5t49 -51.5l213 -279h-63l-230 193q-65 53 -76 69q-12 16 -12 31z" />
<glyph unicode="a" horiz-adv-x="948" d="M57 0v41q76 0 109 80l180 452q63 159 90 202q28 44 53 44q3 0 6.5 -1.5t6.5 -5t6 -7.5t6 -10l5.5 -11t5.5 -13.5t5 -13.5t5.5 -14t5.5 -14l196 -512q42 -112 71 -144t83 -32v-41h-338v41q90 7 90 53q0 10 -12 39.5t-33.5 82.5t-36.5 103h-270q-9 -24 -25 -68.5t-25 -69.5 t-16.5 -51t-7.5 -38q0 -51 78 -51v-41h-238zM311 360h238l-113 328h-4z" />
<glyph unicode="b" d="M90 762v41q54 0 174.5 4t194.5 4q152 0 233.5 -50t81.5 -147q0 -48 -45.5 -98.5t-142.5 -75.5v-4q126 -28 185.5 -83t59.5 -128q0 -46 -17 -83.5t-56.5 -71t-113.5 -52t-177 -18.5h-373v41q85 3 104 21.5t19 101.5v483q0 36 -3 54t-16 33t-38 20.5t-70 7.5zM369 129 q0 -48 19.5 -68t68.5 -20q108 0 165.5 41.5t57.5 142.5q0 102 -58 143.5t-167 41.5q-47 0 -66.5 -16.5t-19.5 -71.5v-193zM369 526q0 -75 59 -75q215 0 215 163q0 50 -14.5 82t-44.5 47.5t-63 21t-83 5.5q-20 0 -34 -6.5t-20.5 -14t-10 -25t-4 -27.5t-0.5 -33v-138z" />
<glyph unicode="c" d="M78 385q0 183 119 300.5t311 117.5q140 0 225.5 -39t85.5 -84q0 -62 -4.5 -96t-9.5 -43t-14 -9q-14 0 -26 17t-20.5 42.5t-26 55.5t-40.5 55.5t-66 42.5t-100 17q-91 0 -156 -49t-96 -128.5t-31 -181.5q0 -181 73.5 -279.5t213.5 -98.5q51 0 98 23t78.5 55.5t56 64.5 t40.5 55t22 23q14 0 17 -16.5t3 -90.5q0 -57 -93.5 -106t-209.5 -49q-105 0 -191 32t-142 87t-86.5 127.5t-30.5 154.5z" />
<glyph unicode="d" horiz-adv-x="948" d="M66 0v41q65 3 85.5 21t20.5 61v557q0 49 -19 64t-79 18v41h352q114 0 203.5 -33t143 -90t81 -128t27.5 -151q0 -83 -31.5 -154.5t-93 -127t-161 -87.5t-226.5 -32h-303zM324 123q0 -38 25.5 -60t76.5 -22q130 0 210.5 95t80.5 265t-80.5 265.5t-210.5 95.5 q-51 0 -76.5 -22t-25.5 -60v-557z" />
<glyph unicode="e" d="M78 0v41q91 3 121 15.5t30 41.5v586q0 49 -25.5 62t-125.5 16v41h667l37 -152h-37q-21 37 -44.5 59t-73.5 37t-127 15q-69 0 -94 -13.5t-25 -46.5v-231q0 -41 41 -41h110q33 0 61.5 30.5t41.5 88.5h41v-266h-41q-12 58 -36 82t-67 24h-104q-21 0 -34 -15.5t-13 -43.5 v-228q0 -27 18.5 -44t44.5 -17h99q103 0 164.5 35t103.5 125h41l-37 -201h-737z" />
<glyph unicode="f" d="M106 0v41q86 3 111 13t25 36v598q0 31 -8 44.5t-36 20.5t-92 9v41h676l45 -180h-45q-69 95 -115 117t-165 22q-64 0 -86.5 -12.5t-22.5 -36.5v-213q0 -42 23.5 -56t93.5 -14q80 0 112.5 22t41.5 76h41v-249h-41q-12 61 -51.5 85.5t-120.5 24.5q-59 0 -79 -15.5t-20 -62.5 v-217q0 -30 20.5 -40t102.5 -13v-41h-410z" />
<glyph unicode="g" horiz-adv-x="948" d="M74 387q0 117 63.5 214t166 149.5t218.5 52.5q204 0 326 -98v-164h-33q-45 108 -106 164.5t-166 56.5q-133 0 -219 -105t-86 -280q0 -156 87.5 -254t211.5 -98q79 0 123.5 30t44.5 72v111q0 40 -22.5 55t-92.5 18v33q102 -8 155 -8q54 0 156 8v-33q-37 -3 -51 -15 t-14 -48v-174q-90 -90 -310 -90q-109 0 -197 35.5t-142.5 93.5t-83.5 128.5t-29 145.5z" />
<glyph unicode="h" horiz-adv-x="1175" d="M84 0v41q73 3 94 17t21 65v557q0 51 -21 65t-94 17v41h389v-41q-79 -3 -101 -17t-22 -65v-238h475v238q0 51 -22 65t-101 17v41h390v-41q-73 -3 -94 -17t-21 -65v-557q0 -51 21 -65t94 -17v-41h-390v41q79 3 101 17t22 65v270h-475v-270q0 -51 22 -65t101 -17v-41h-389z " />
<glyph unicode="i" horiz-adv-x="606" d="M109 0v41q73 3 93.5 17t20.5 65v557q0 51 -20.5 65t-93.5 17v41h389v-41q-79 -3 -101 -17t-22 -65v-557q0 -51 22 -65t101 -17v-41h-389z" />
<glyph unicode="j" horiz-adv-x="757" d="M0 -389q132 55 194.5 109.5t87.5 137.5t25 236v565q0 56 -37 79.5t-129 23.5h-51v41h586v-41h-51q-92 0 -129 -23.5t-37 -79.5v-610q0 -173 -122 -300.5t-337 -186.5v49z" />
<glyph unicode="k" horiz-adv-x="1138" d="M57 0v41q80 3 112 17.5t32 43.5v594q0 35 -27.5 49t-116.5 17v41h426v-41q-83 -3 -107 -17.5t-24 -56.5v-287q33 17 90.5 55.5t121.5 87t110.5 100t46.5 83.5q0 38 -82 43v33h295v-41q-24 -3 -44 -9.5t-40 -20.5t-31 -23t-34 -31t-33 -31q-141 -123 -224 -184l412 -363 q35 -30 62.5 -43t70.5 -16v-41h-426v41q111 5 111 45q0 22 -62 70l-278 221l-66 -37v-225q0 -41 28.5 -56t102.5 -18v-41h-426z" />
<glyph unicode="l" horiz-adv-x="872" d="M82 0v41q52 3 79 26.5t27 63.5v565q0 36 -19.5 49.5t-86.5 16.5v41h369v-41q-65 -3 -88 -18t-23 -48v-544q0 -63 27.5 -83t121.5 -20q76 0 133.5 13t87.5 32.5t51.5 42.5t30 42.5t19 32.5t23.5 13q8 0 13 -7.5t5 -16.5q0 -7 -4 -27l-39 -174h-727z" />
<glyph unicode="m" horiz-adv-x="1441" d="M74 0v41q104 12 138 47.5t34 140.5v410q0 71 -28.5 95.5t-119.5 27.5v41h308l323 -623l332 623h295v-41q-98 -6 -131 -37t-33 -127v-451q0 -65 29 -84t135 -22v-41h-471v41q109 6 142.5 33t33.5 116v486h-4l-326 -602q-9 -18 -12 -23.5t-10.5 -18t-13 -16.5t-11.5 -4 q-11 0 -18.5 9t-23.5 40q-5 8 -7 13l-324 602h-4v-537q0 -45 31 -67t117 -31v-41h-381z" />
<glyph unicode="n" horiz-adv-x="1138" d="M82 770v41q86 0 242 -8q75 -96 165.5 -194t210.5 -220.5t177 -183.5v348q0 72 -4.5 110t-22 61.5t-42.5 29.5t-75 8v41h324v-41q-86 -3 -112.5 -29t-26.5 -106v-627h-60l-51 57q-16 18 -169 184.5t-241.5 267.5t-109.5 138h-4v-508q0 -46 28 -69t90 -29v-41h-295v41 q65 3 90 28t25 85v483q0 77 -25.5 100.5t-113.5 32.5z" />
<glyph unicode="o" horiz-adv-x="985" d="M70 393q0 186 117.5 298t304.5 112q186 0 303.5 -112t117.5 -298t-117 -297.5t-304 -111.5t-304.5 112t-117.5 297zM221 393q0 -56 8 -106.5t27.5 -99.5t49.5 -84t77.5 -56.5t108.5 -21.5t108.5 21.5t77 56.5t49 84t27.5 99.5t8 106.5q0 72 -13.5 134t-42.5 116.5 t-84 86.5t-130 32t-130 -32t-84.5 -86.5t-43 -117t-13.5 -133.5z" />
<glyph unicode="p" horiz-adv-x="872" d="M78 0v41q73 6 94 23t21 67v561q0 37 -21.5 52t-93.5 18v41h332q215 0 324.5 -62.5t109.5 -177.5q0 -110 -96.5 -174.5t-282.5 -64.5q-19 0 -47 8v41q274 21 274 198q0 81 -67.5 132t-188.5 51q-54 0 -73 -22.5t-19 -78.5v-522q0 -41 30.5 -64t112.5 -26v-41h-409z" />
<glyph unicode="q" horiz-adv-x="985" d="M70 393q0 186 117.5 298t304.5 112q186 0 303.5 -112t117.5 -298q0 -164 -99 -275.5t-249 -133.5q23 -76 96.5 -120t165.5 -44h64v-33q-70 -8 -109 -8q-135 0 -236.5 54t-144.5 155q-150 25 -240.5 134t-90.5 271zM221 393q0 -56 8 -106.5t27.5 -99.5t49.5 -84 t77.5 -56.5t108.5 -21.5t108.5 21.5t77 56.5t49 84t27.5 99.5t8 106.5q0 72 -13.5 134t-42.5 116.5t-84 86.5t-130 32t-130 -32t-84.5 -86.5t-43 -117t-13.5 -133.5z" />
<glyph unicode="r" d="M74 0v41q70 3 94.5 18.5t24.5 51.5v577q0 44 -21 57.5t-98 16.5v41h258q45 0 80 -2t85.5 -8t87.5 -20t72 -36t53.5 -58.5t18.5 -84.5q0 -71 -49.5 -124.5t-122.5 -80.5l213 -291q25 -35 49.5 -48.5t69.5 -16.5v-33h-164q-35 0 -61 37l-238 336q-28 0 -82 4v-271 q0 -34 22 -48t85 -17v-41h-377zM344 418q35 -12 68 -12q87 0 130.5 46.5t43.5 133.5q0 83 -39 129.5t-121 46.5t-82 -70v-274z" />
<glyph unicode="s" horiz-adv-x="681" d="M78 90q0 68 3 101.5t8 42t15 8.5q3 0 20 -34t40.5 -74.5t69 -74.5t98.5 -34q68 0 114 39t46 106q0 37 -21.5 66t-56 50t-76 40.5t-83 43t-76 52t-56 72.5t-21.5 100q0 93 61 151t189 58q80 0 193 -37v-164h-25q-35 89 -79 124.5t-105 35.5q-66 0 -94.5 -29t-28.5 -88 q0 -45 29 -81.5t72 -59.5t93.5 -51t93.5 -56t72 -75t29 -107q0 -95 -77.5 -163t-192.5 -68q-119 0 -186.5 33.5t-67.5 72.5z" />
<glyph unicode="t" d="M57 631q0 8 5.5 37t13.5 66t10 46q3 17 5 25.5t11 17t23 8.5q19 0 48.5 -14t92.5 -14h393q46 0 75.5 4.5t39 9.5t19.5 9.5t22 4.5q37 0 37 -28v-131q0 -27 -7.5 -40.5t-29.5 -13.5q-8 0 -14.5 10t-11.5 25t-16.5 33t-27.5 33t-48 25t-74 10q-62 0 -78.5 -25t-16.5 -123 v-450q0 -66 22.5 -89t96.5 -26v-41h-389v41q68 3 93.5 28t25.5 87v530q0 37 -14.5 52.5t-43.5 15.5q-47 0 -84.5 -15t-58.5 -36t-36 -42t-27 -36t-23 -15q-33 0 -33 21z" />
<glyph unicode="u" horiz-adv-x="1138" d="M88 762v41h451v-41q-107 -6 -137.5 -25t-30.5 -78v-383q0 -126 56.5 -178.5t188.5 -52.5q122 0 194.5 61.5t72.5 190.5v313q0 90 -31.5 118t-124.5 34v41h324v-41q-65 -6 -92 -39t-27 -100v-342q0 -146 -96 -221.5t-265 -75.5q-170 0 -261 64.5t-91 195.5v385 q0 75 -24 99.5t-107 33.5z" />
<glyph unicode="v" d="M27 762v41h356v-41q-37 -2 -67.5 -21t-30.5 -51q0 -42 39 -125l182 -401l149 428q27 74 27 96q0 63 -102 74v41h303v-41q-48 -3 -78.5 -25.5t-52.5 -77.5l-226 -577q-21 -52 -34 -71t-33 -19q-18 0 -28.5 14.5t-30.5 56.5q-6 12 -9 19l-254 573q-23 53 -47.5 78.5 t-62.5 28.5z" />
<glyph unicode="w" horiz-adv-x="1441" d="M41 762v41h385v-41q-65 -3 -92 -14t-27 -35q0 -19 7 -44t13.5 -41.5t24.5 -58.5l160 -381l184 410q-30 100 -57 130.5t-86 33.5v41h401v-41q-77 -3 -106 -19.5t-29 -52.5q0 -15 5 -35.5t9.5 -32t15 -37.5t11.5 -28l148 -381l153 350q51 111 51 160q0 31 -26 49t-88 27v41 h303v-49q-42 -3 -69 -26.5t-52 -78.5l-272 -600q-1 -3 -5 -11t-5.5 -11.5t-5.5 -10t-7 -10t-7.5 -7.5t-9 -5.5t-10.5 -1.5q-17 0 -27.5 14.5t-21.5 42.5l-180 475l-225 -475q-2 -5 -6.5 -16t-7 -16t-6.5 -12t-8 -10t-9 -3q-11 0 -18 10t-19 38q-1 3 -2 5l-2 4l-276 633 q-19 43 -42.5 60t-66.5 20z" />
<glyph unicode="x" horiz-adv-x="985" d="M53 0v41q32 1 58 9t49 25t38 31.5t38 40.5l196 228l-237 303q-32 42 -59 60t-70 24v41h352v-41q-35 -7 -50.5 -17t-15.5 -34q0 -11 4.5 -23t16 -28.5t21.5 -29.5t31 -39t34 -42l51 -64l80 101q65 82 65 125q0 27 -21 37.5t-65 13.5v41h312v-41q-64 -12 -94.5 -27.5 t-67.5 -62.5l-178 -226l229 -294q82 -106 162 -111v-41h-408v41q107 0 107 45q0 30 -53 98l-119 160l-140 -176q-32 -38 -32 -76q0 -48 98 -51v-41h-332z" />
<glyph unicode="y" horiz-adv-x="985" d="M49 762v41h410v-41q-70 -3 -94.5 -12t-24.5 -35q0 -9 2.5 -18t5.5 -16t11 -19.5t12.5 -19t16.5 -23.5t18 -25l139 -193l110 144q49 64 69.5 101t20.5 67q0 24 -26 35t-88 14v41h305v-49q-44 -6 -73 -25t-60 -61l-234 -312v-254q0 -33 27 -45.5t121 -15.5v-41h-447v41 q93 3 120.5 21.5t27.5 64.5v229l-258 332q-23 30 -33.5 41.5t-29.5 21t-48 11.5z" />
<glyph unicode="z" horiz-adv-x="872" d="M86 0l2 25l487 729q-58 8 -94 8q-115 0 -167.5 -9t-88.5 -38q-21 -17 -40 -44t-29.5 -48.5t-22.5 -37.5t-22 -16q-17 0 -17 19q0 32 25 207q3 24 22 24q21 0 37 -8q20 -8 53 -8h519v-41q-111 -138 -241.5 -334t-234.5 -379q62 -8 160 -8q85 0 140.5 15t105.5 65 q20 19 37 48.5t27.5 46.5t21.5 17q18 0 18 -16q0 -5 -3.5 -44t-8 -91.5t-6.5 -81.5h-680z" />
<glyph unicode="{" horiz-adv-x="569" d="M66 510q86 27 116.5 78t30.5 153v361q0 88 20.5 145.5t62.5 86.5t90 39.5t118 10.5v-22q-86 -22 -121 -82t-35 -168v-342q0 -117 -34 -175t-140 -83v-4q106 -25 140 -83t34 -175v-342q0 -108 35 -168t121 -82v-23q-70 0 -118 10.5t-90 39.5t-62.5 87t-20.5 146v361 q0 102 -30.5 153t-116.5 78z" />
<glyph unicode="|" horiz-adv-x="454" d="M182 0v1384h90v-1384h-90z" />
<glyph unicode="}" horiz-adv-x="569" d="M66 -342q86 22 120.5 81.5t34.5 168.5v342q0 117 34 175t140 83v4q-106 25 -140 83t-34 175v342q0 109 -34.5 168.5t-120.5 81.5v22q70 0 118 -10.5t89.5 -39.5t62 -86.5t20.5 -145.5v-361q0 -102 30.5 -153t117.5 -78q-87 -27 -117.5 -78t-30.5 -153v-361 q0 -88 -20.5 -146t-62 -87t-89.5 -39.5t-118 -10.5v23z" />
<glyph unicode="~" horiz-adv-x="1228" d="M254 358q72 136 195 136q65 0 174 -50q3 -2 18.5 -9t20 -9t18 -8.5t19.5 -8.5t17.5 -7t18.5 -6.5t16 -4t16.5 -3.5t14.5 -1q28 0 55.5 19t43 38.5t39.5 55.5l55 -66q-28 -41 -50 -66t-61 -47t-84 -22q-66 0 -159 53q-98 54 -179 54q-47 0 -77 -30.5t-56 -82.5z" />
<glyph unicode="&#xa1;" horiz-adv-x="681" d="M238 -432q0 35 3 73.5t9 95t8 81.5l70 702h34l19 -332q3 -50 24 -304.5t21 -301.5q0 -63 -23.5 -101t-70.5 -38q-94 0 -94 125zM244 719q0 37 25.5 62.5t62.5 25.5t62.5 -25.5t25.5 -62.5t-25.5 -62.5t-62.5 -25.5t-62.5 25.5t-25.5 62.5z" />
<glyph unicode="&#xa2;" d="M113 377q0 100 39 184t102 136.5t139 81t154 28.5q20 0 26 -2l86 252h66l-88 -260q57 -12 92 -40t35 -67q0 -26 -19 -40.5t-43 -14.5q-20 0 -40 8.5t-30.5 16.5t-33.5 26l-197 -573q68 -47 146 -47q44 0 88 16t70.5 36t48 36t26.5 16q13 0 13 -10q0 -14 -27 -42.5 t-69 -58.5t-102 -52.5t-116 -22.5q-61 0 -117 18l-100 -289h-65l108 314q-86 41 -139 129t-53 221zM256 416q0 -161 94 -262l195 567q-29 16 -70 16q-95 0 -157 -90t-62 -231z" />
<glyph unicode="&#xa3;" d="M33 43q0 22 3 37.5t6.5 27.5t15.5 20t22 13t34 9.5t42.5 7t56.5 6.5q18 85 18 160q0 140 -28 319h-164v70h158q-13 115 -13 192q0 189 90 299.5t238 110.5q63 0 114 -20t79.5 -51t43.5 -63.5t15 -62.5q0 -41 -22.5 -66.5t-65.5 -25.5q-32 0 -54 23t-22 59q0 20 8 40t8 34 q0 40 -26 66t-72 26q-91 0 -136.5 -69.5t-45.5 -188.5q0 -114 24 -303h218v-70h-211q0 -156 -14 -247.5t-64 -227.5q58 4 71 4q54 0 161.5 -18.5t144.5 -18.5q42 0 71.5 7.5t50 26t30.5 32t26 41.5l24 -6q-4 -42 -19 -83t-41.5 -80.5t-73 -64t-105.5 -24.5q-90 0 -203 67 q-11 6 -34 19t-34 18.5t-26.5 13t-26.5 10.5t-20 3q-5 0 -11 -3t-14.5 -10.5t-14.5 -13.5t-17.5 -18t-18.5 -19q-67 -67 -127 -67q-49 0 -49 59z" />
<glyph unicode="&#xa4;" horiz-adv-x="948" d="M78 199q0 146 164 260q-86 68 -86 145q0 73 63 136t137 63q54 0 84.5 -30.5t30.5 -84.5q0 -35 -28.5 -87.5t-65.5 -94.5q132 -122 239 -250q56 130 56 166q0 28 -21 43t-69 18v41h282v-41q-60 -9 -87.5 -27t-47.5 -63q-7 -15 -36 -80t-40 -96q99 -131 144 -131q5 0 10 1 t9.5 4t8 5t7 7.5t5.5 8t5.5 9t5 8.5t4.5 9.5t4 8.5l33 -16q-30 -81 -62 -114t-73 -33q-81 0 -172 129q-104 -129 -271 -129q-109 0 -171 58.5t-62 156.5zM172 266q0 -64 68 -132t161 -68q74 0 150 84q-20 21 -82 91t-108.5 115.5t-86.5 71.5q-58 -41 -80 -76.5t-22 -85.5z M225 666q0 -39 28 -66t89 -65q80 80 80 135q0 44 -25.5 68t-66.5 24q-48 0 -76.5 -27t-28.5 -69z" />
<glyph unicode="&#xa5;" d="M-25 1257v41h394v-41q-65 -7 -80 -15q-23 -13 -23 -46q0 -19 7 -42.5t28.5 -71.5t43 -90.5t70 -141.5t89.5 -182q45 90 91.5 179t70.5 133.5t45.5 88t29 70t7.5 51.5q0 37 -19.5 49.5t-66.5 17.5v41h294v-41q-27 -3 -38.5 -6t-33.5 -18t-45 -48.5t-53 -90.5l-149 -287 h227v-70h-262l-76 -143h338v-70h-338v-299q0 -46 2 -74.5t9.5 -50t16 -32t29.5 -17t41 -8t58 -2.5v-41h-463v41q41 1 62 2t43 8t30.5 17.5t16.5 32.5t10 50t2 74v299h-338v70h338v16l-66 127h-272v70h236l-168 319q-38 74 -63.5 95.5t-74.5 35.5z" />
<glyph unicode="&#xa6;" horiz-adv-x="454" d="M182 0v518h90v-518h-90zM182 866v518h90v-518h-90z" />
<glyph unicode="&#xa7;" horiz-adv-x="1024" d="M141 516q0 74 36 132.5t91 84.5q53 25 156 25q-116 98 -161.5 169t-45.5 144q0 99 77 171.5t206 72.5q65 0 118 -18.5t84.5 -48t48.5 -63t17 -65.5q0 -48 -30.5 -77t-71.5 -29q-37 0 -61.5 21t-24.5 57q0 28 11 47t23.5 25.5t23.5 16.5t11 23q0 24 -42 47t-101 23 q-94 0 -140.5 -48t-46.5 -108q0 -43 31 -90t80 -90.5t108.5 -90t119 -96t108.5 -99t80 -108t31 -116.5q3 -115 -74 -178t-205 -66q41 -34 66.5 -58t61 -64t53.5 -83.5t18 -89.5q0 -47 -17.5 -91.5t-53 -83.5t-96 -63t-138.5 -24q-117 0 -195 55.5t-78 143.5q0 49 32 76.5 t73 27.5q36 0 60 -22.5t24 -57.5q0 -22 -10 -39.5t-22 -26.5t-22 -21t-10 -25q0 -36 46.5 -53t111.5 -17q77 0 134.5 44.5t57.5 111.5q0 48 -30.5 96.5t-79.5 91.5t-107.5 87.5t-117.5 91.5t-108 96t-79.5 108.5t-30.5 120.5zM231 575q0 -50 42.5 -113.5t102.5 -114.5 t127.5 -86.5t114.5 -35.5q76 0 122 39.5t46 104.5q0 62 -65 145t-161 143t-175 60q-73 0 -113.5 -37t-40.5 -105z" />
<glyph unicode="&#xa8;" horiz-adv-x="530" d="M-12 1063q0 40 28 68t68 28t68 -28t28 -68t-28 -68t-68 -28t-68 28t-28 68zM352 1063q0 40 28.5 68t68.5 28t68 -28t28 -68t-28 -68t-68 -28t-68.5 28t-28.5 68z" />
<glyph unicode="&#xa9;" horiz-adv-x="1638" d="M170 649q0 182 86 335t235.5 242t327.5 89t327.5 -89t235.5 -242t86 -335q0 -136 -51 -259t-137.5 -212t-207 -141.5t-253.5 -52.5t-253.5 52.5t-207 141.5t-137.5 212t-51 259zM268 649q0 -151 73.5 -285t201.5 -216t276 -82t276 82t201.5 216t73.5 285q0 113 -44 220 t-117.5 187t-176 128.5t-213.5 48.5t-213.5 -48.5t-176 -128.5t-117.5 -187t-44 -220zM455 668q0 49 15 99.5t48.5 99t81 86t117.5 60.5t153 23q101 0 199 -32q43 -15 43 -41v-136h-33q-5 74 -56.5 125.5t-158.5 51.5q-136 0 -206 -90t-72 -238q-2 -163 71.5 -260t221.5 -97 q165 0 233 168h31l-31 -133q-3 -14 -14 -21.5t-37 -15.5q-93 -30 -201 -30q-85 0 -156 22t-128 66t-89 119t-32 174z" />
<glyph unicode="&#xaa;" horiz-adv-x="524" d="M16 918q0 61 50.5 89.5t181.5 59.5l71 18v109q0 80 -90 80q-34 0 -54.5 -12t-29 -29t-14.5 -33.5t-18 -28.5t-33 -12q-39 0 -39 33q0 37 73.5 80t147.5 43q72 0 112 -33.5t40 -101.5v-281q0 -19 10 -29t22 -10q19 0 50 23l10 -15q-14 -20 -44 -34.5t-59 -14.5 q-32 0 -56.5 20.5t-27.5 53.5q-89 -74 -174 -74q-56 0 -92.5 29t-36.5 70zM115 946q0 -26 23.5 -47.5t64.5 -21.5q52 0 116 57v119l-53 -13q-151 -35 -151 -94z" />
<glyph unicode="&#xab;" horiz-adv-x="1024" d="M172 395v4q196 157 303 281q17 20 37 20q14 0 14 -16q0 -21 -101 -150t-101 -137t101 -138.5t101 -152.5q0 -16 -16 -16q-11 0 -54.5 43t-125.5 122t-158 140zM498 395v4q196 157 303 281q17 20 37 20q14 0 14 -16q0 -21 -101.5 -150t-101.5 -137t101.5 -138.5 t101.5 -152.5q0 -16 -16 -16q-11 0 -54.5 43t-125.5 122t-158 140z" />
<glyph unicode="&#xac;" horiz-adv-x="1228" d="M219 518v90h791v-426h-90v336h-701z" />
<glyph unicode="&#xad;" horiz-adv-x="681" d="M86 324v82l508 49v-82z" />
<glyph unicode="&#xae;" horiz-adv-x="1638" d="M170 649q0 182 86 335t235.5 242t327.5 89t327.5 -89t235.5 -242t86 -335q0 -136 -51 -259t-137.5 -212t-207 -141.5t-253.5 -52.5t-253.5 52.5t-207 141.5t-137.5 212t-51 259zM268 649q0 -151 73.5 -285t201.5 -216t276 -82t276 82t201.5 216t73.5 285q0 113 -44 220 t-117.5 187t-176 128.5t-213.5 48.5t-213.5 -48.5t-176 -128.5t-117.5 -187t-44 -220zM510 301v33q69 8 80 16q14 10 14 51v29v453v10q0 57 -10.5 68t-72.5 17q-7 1 -11 1v33h334q93 0 158 -44.5t65 -129.5q0 -74 -42.5 -127t-111.5 -76l111 -154q96 -127 154 -164v-16h-115 q-19 0 -37 13t-40 43.5t-41.5 63t-55 90t-68.5 105.5h-102v-186v-10q0 -54 8 -64q10 -13 63 -19q4 -1 12 -2q7 -1 11 -1v-33h-303zM719 649h92q69 0 105 47.5t36 132.5q0 79 -41 114.5t-106 35.5h-86v-330z" />
<glyph unicode="&#xaf;" horiz-adv-x="530" d="M-8 995v111h545v-111h-545z" />
<glyph unicode="&#xb0;" horiz-adv-x="819" d="M115 1022q0 123 86 208t209 85t209 -85t86 -208t-86 -208t-209 -85t-209 85t-86 208zM193 1022q0 -91 63.5 -157t153.5 -66t153.5 66t63.5 157t-63.5 157t-153.5 66t-153.5 -66t-63.5 -157z" />
<glyph unicode="&#xb1;" horiz-adv-x="1228" d="M219 0v90h791v-90h-791zM219 426v90h350v275h90v-275h351v-90h-351v-274h-90v274h-350z" />
<glyph unicode="&#xb2;" horiz-adv-x="544" d="M33 524v37q44 42 99.5 105t117 142.5t102.5 160t41 135.5q0 64 -42.5 102.5t-104.5 38.5q-117 0 -180 -88l-23 19q38 58 104.5 98.5t139.5 40.5q99 0 152 -53.5t53 -126.5q0 -79 -68.5 -188t-253.5 -294q-6 -6 -17.5 -16.5t-17.5 -16t-6 -8.5q0 -6 16 -6h215q71 0 101 27 q25 22 31 22q14 0 14 -14q0 -3 -7.5 -22.5t-18.5 -48.5t-17 -46h-430z" />
<glyph unicode="&#xb3;" horiz-adv-x="544" d="M23 569q0 8 6.5 15.5t15.5 7.5q19 0 63.5 -18t84.5 -17q33 -1 67.5 7.5t69.5 27.5t57.5 57.5t22.5 89.5q0 82 -69.5 130.5t-156.5 48.5q-34 0 -34 10q0 2 0.5 3.5t3 3t4.5 3.5t7 4.5t10 5.5t13.5 7.5t16.5 9.5l9 5q9 6 15.5 10l19.5 12t22.5 15.5t22.5 18.5t23 21t20 23 t17 25.5t11 27t4 28.5q0 56 -33 85.5t-88 29.5q-37 0 -67 -16t-70 -48l-17 23q90 90 213 90q72 0 118 -34t46 -91q0 -52 -46 -107.5t-122 -101.5q37 -13 59 -22t54.5 -28t50.5 -40t31.5 -54.5t13.5 -74.5q0 -38 -17.5 -78t-54 -79t-106 -64t-160.5 -25q-62 0 -106.5 15.5 t-44.5 37.5z" />
<glyph unicode="&#xb4;" horiz-adv-x="530" d="M106 909l213 279q30 38 49.5 51.5t51.5 13.5q31 0 49 -13.5t18 -37.5q0 -28 -75 -89q-8 -7 -13 -11l-229 -193h-64z" />
<glyph unicode="&#xb5;" horiz-adv-x="1062" d="M59 -451q55 10 77.5 30t33 78.5t10.5 188.5v615q0 133 -10 191.5t-32 79t-77 30.5v33l263 8v-541q0 -103 49.5 -156t130.5 -53q70 0 140.5 43.5t84.5 89.5v279q0 67 -1.5 110t-8 76.5t-14 51.5t-24.5 31t-34.5 18t-48.5 10v33l274 8v-619q0 -96 52 -96q22 0 75 16v-47 l-258 -65v125q-32 -30 -53.5 -47t-60.5 -40.5t-88 -34.5t-109 -11q-67 0 -106 16v-483h-265v32z" />
<glyph unicode="&#xb6;" horiz-adv-x="1228" d="M164 893q0 215 99.5 310t328.5 95h508v-49q-59 -2 -90 -7t-50 -22t-23.5 -41.5t-4.5 -72.5v-1380q0 -48 5.5 -73t27 -40.5t48.5 -20.5t87 -10v-49h-287v1704h-125v-1704h-287v49q111 9 139.5 31.5t28.5 112.5v731q-203 0 -304 117t-101 319z" />
<glyph unicode="&#xb7;" horiz-adv-x="454" d="M119 395q0 44 32 76.5t76 32.5t76.5 -32.5t32.5 -76.5t-32.5 -76t-76.5 -32t-76 32t-32 76z" />
<glyph unicode="&#xb8;" horiz-adv-x="530" d="M-45 -344l31 55q99 -51 172 -51q47 0 79.5 19t32.5 59q0 42 -26 64t-92 22q-27 0 -48 -6l52 166l49 4l-25 -107q39 -4 64.5 -8.5t55 -14t46 -23t28 -36t11.5 -53.5q0 -56 -54 -95.5t-149 -39.5q-108 0 -227 45z" />
<glyph unicode="&#xb9;" horiz-adv-x="544" d="M117 1212v33q109 10 178 62q8 8 20 8q17 0 17 -15v-641q0 -64 18.5 -83t81.5 -19v-33h-311v33q63 0 81.5 19t18.5 83v484q0 44 -18 56.5t-86 12.5z" />
<glyph unicode="&#xba;" horiz-adv-x="569" d="M16 1067q0 113 81 180.5t190 67.5q108 0 188 -67.5t80 -180.5t-80 -180.5t-188 -67.5q-109 0 -190 67.5t-81 180.5zM123 1067q0 -41 7.5 -75.5t25 -65.5t51 -48.5t80.5 -17.5q46 0 79 17.5t50.5 48.5t25 65.5t7.5 75.5t-7.5 75.5t-25 65.5t-50.5 48.5t-79 17.5 q-47 0 -80.5 -17.5t-51 -48.5t-25 -65.5t-7.5 -75.5z" />
<glyph unicode="&#xbb;" horiz-adv-x="1024" d="M172 106q0 21 101.5 150t101.5 137t-101.5 138.5t-101.5 152.5q0 16 16 16q11 0 54.5 -43t125.5 -122t158 -140v-4q-199 -159 -303 -280q-18 -21 -37 -21q-14 0 -14 16zM498 106q0 21 101 150t101 137t-101 138.5t-101 152.5q0 16 16 16q11 0 54.5 -43t125.5 -122 t158 -140v-4q-199 -159 -303 -280q-18 -21 -37 -21q-14 0 -14 16z" />
<glyph unicode="&#xbc;" horiz-adv-x="1363" d="M117 1212v33q109 10 178 62q8 8 20 8q17 0 17 -15v-641q0 -64 18.5 -83t81.5 -19v-33h-311v33q63 0 81.5 19t18.5 83v484q0 44 -18 56.5t-86 12.5zM231 -16l926 1331h100l-925 -1331h-101zM825 287v37l338 467h70v-435h90v-69h-90v-287h-98v287h-310zM889 356h246v334h-5 z" />
<glyph unicode="&#xbd;" horiz-adv-x="1363" d="M117 1212v33q109 10 178 62q8 8 20 8q17 0 17 -15v-641q0 -64 18.5 -83t81.5 -19v-33h-311v33q63 0 81.5 19t18.5 83v484q0 44 -18 56.5t-86 12.5zM170 -16l926 1331h100l-926 -1331h-100zM852 0v37q44 42 99.5 105t117 142.5t102.5 160t41 135.5q0 64 -42.5 102.5 t-104.5 38.5q-117 0 -180 -88l-23 18q38 58 104.5 99t139.5 41q99 0 152 -54t53 -127q0 -79 -68 -187t-254 -294q-6 -6 -17.5 -16.5t-17.5 -16t-6 -8.5q0 -6 17 -6h215q70 0 100 27q25 22 31 22q14 0 14 -14q0 -3 -7.5 -22.5t-18.5 -48.5t-17 -46h-430z" />
<glyph unicode="&#xbe;" horiz-adv-x="1363" d="M23 569q0 8 6.5 15.5t15.5 7.5q19 0 63.5 -18t84.5 -17q33 -1 67.5 7.5t69.5 27.5t57.5 57.5t22.5 89.5q0 82 -69.5 130.5t-156.5 48.5q-34 0 -34 10q0 2 0.5 3.5t3 3t4.5 3.5t7 4.5t10 5.5t13.5 7.5t16.5 9.5l9 5q9 6 15.5 10l19.5 12t22.5 15.5t22.5 18.5t23 21t20 23 t17 25.5t11 27t4 28.5q0 56 -33 85.5t-88 29.5q-37 0 -67 -16t-70 -48l-17 23q90 90 213 90q72 0 118 -34t46 -91q0 -52 -46 -107.5t-122 -101.5q37 -13 59 -22t54.5 -28t50.5 -40t31.5 -54.5t13.5 -74.5q0 -38 -17.5 -78t-54 -79t-106 -64t-160.5 -25q-62 0 -106.5 15.5 t-44.5 37.5zM231 -16l926 1331h100l-925 -1331h-101zM825 287v37l338 467h70v-435h90v-69h-90v-287h-98v287h-310zM889 356h246v334h-5z" />
<glyph unicode="&#xbf;" horiz-adv-x="948" d="M252 -137q0 121 52.5 201.5t150.5 87.5q93 6 120.5 18.5t30.5 54.5q12 97 15 287h38l-4 -512q-31 2 -98 2q-101 0 -157.5 -15t-77.5 -43.5t-21 -76.5q0 -31 7.5 -59.5t17 -50.5t29 -43t33.5 -34.5t42 -29.5t42 -23.5t45.5 -19.5t41 -15.5t39.5 -13.5q42 -14 60 -30.5 t18 -45.5q0 -59 -72 -59q-50 0 -97.5 13.5t-94.5 45.5t-82 79t-56.5 120t-21.5 162zM551 719q0 37 25.5 62.5t62.5 25.5t62.5 -25.5t25.5 -62.5t-25.5 -62.5t-62.5 -25.5t-62.5 25.5t-25.5 62.5z" />
<glyph unicode="&#xc0;" horiz-adv-x="1478" d="M78 0v41q36 4 59.5 11t49 27.5t45 48.5t48 84.5t56 123t70.5 176.5l159 410q8 21 20.5 51.5t20 49t15 39t11 33t3.5 19.5q0 22 10 37l92 139q17 25 35 25q11 0 18 -6.5t13.5 -25t13 -39.5t19.5 -61.5t28 -80.5l307 -789q38 -95 60 -142.5t51 -78t56 -39t79 -12.5v-41 h-510v41q80 7 110 24.5t30 49.5q0 52 -33 139l-96 254h-457l-86 -234q-37 -96 -37 -137q0 -49 33.5 -71t99.5 -25v-41h-393zM483 565h414l-176 453q-20 54 -29 90h-4q-11 -36 -31.5 -91.5t-43 -113t-25.5 -65.5zM504 1653q0 24 18 37.5t49 13.5q32 0 51.5 -14t49.5 -52 l213 -278h-64l-229 192q-65 54 -78 72q-10 15 -10 29z" />
<glyph unicode="&#xc1;" horiz-adv-x="1478" d="M78 0v41q36 4 59.5 11t49 27.5t45 48.5t48 84.5t56 123t70.5 176.5l159 410q8 21 20.5 51.5t20 49t15 39t11 33t3.5 19.5q0 22 10 37l92 139q17 25 35 25q11 0 18 -6.5t13.5 -25t13 -39.5t19.5 -61.5t28 -80.5l307 -789q38 -95 60 -142.5t51 -78t56 -39t79 -12.5v-41 h-510v41q80 7 110 24.5t30 49.5q0 52 -33 139l-96 254h-457l-86 -234q-37 -96 -37 -137q0 -49 33.5 -71t99.5 -25v-41h-393zM483 565h414l-176 453q-20 54 -29 90h-4q-11 -36 -31.5 -91.5t-43 -113t-25.5 -65.5zM606 1360l213 278q30 38 49.5 52t51.5 14q31 0 49 -13.5 t18 -37.5q0 -29 -79 -93q-1 -2 -2 -2.5t-2 -1.5t-2.5 -2t-2.5 -2l-229 -192h-64z" />
<glyph unicode="&#xc2;" horiz-adv-x="1478" d="M78 0v41q36 4 59.5 11t49 27.5t45 48.5t48 84.5t56 123t70.5 176.5l159 410q8 21 20.5 51.5t20 49t15 39t11 33t3.5 19.5q0 22 10 37l92 139q17 25 35 25q11 0 18 -6.5t13.5 -25t13 -39.5t19.5 -61.5t28 -80.5l307 -789q38 -95 60 -142.5t51 -78t56 -39t79 -12.5v-41 h-510v41q80 7 110 24.5t30 49.5q0 52 -33 139l-96 254h-457l-86 -234q-37 -96 -37 -137q0 -49 33.5 -71t99.5 -25v-41h-393zM483 565h414l-176 453q-20 54 -29 90h-4q-11 -36 -31.5 -91.5t-43 -113t-25.5 -65.5zM483 1360l222 344h110l221 -344h-57l-219 219l-219 -219h-58z " />
<glyph unicode="&#xc3;" horiz-adv-x="1478" d="M78 0v41q36 4 59.5 11t49 27.5t45 48.5t48 84.5t56 123t70.5 176.5l159 410q8 21 20.5 51.5t20 49t15 39t11 33t3.5 19.5q0 22 10 37l92 139q17 25 35 25q11 0 18 -6.5t13.5 -25t13 -39.5t19.5 -61.5t28 -80.5l307 -789q38 -95 60 -142.5t51 -78t56 -39t79 -12.5v-41 h-510v41q80 7 110 24.5t30 49.5q0 52 -33 139l-96 254h-457l-86 -234q-37 -96 -37 -137q0 -49 33.5 -71t99.5 -25v-41h-393zM483 565h414l-176 453q-20 54 -29 90h-4q-11 -36 -31.5 -91.5t-43 -113t-25.5 -65.5zM487 1421q10 185 164 185q40 0 111 -23q68 -22 147 -22 q65 0 90 77h41q-1 -24 -2.5 -40.5t-11.5 -48t-27 -51.5t-51 -36t-80 -16q-48 0 -131 27q-84 26 -119 26q-26 0 -43.5 -6t-26.5 -19.5t-12.5 -23.5t-7.5 -29h-41z" />
<glyph unicode="&#xc4;" horiz-adv-x="1478" d="M78 0v41q36 4 59.5 11t49 27.5t45 48.5t48 84.5t56 123t70.5 176.5l159 410q8 21 20.5 51.5t20 49t15 39t11 33t3.5 19.5q0 22 10 37l92 139q17 25 35 25q11 0 18 -6.5t13.5 -25t13 -39.5t19.5 -61.5t28 -80.5l307 -789q38 -95 60 -142.5t51 -78t56 -39t79 -12.5v-41 h-510v41q80 7 110 24.5t30 49.5q0 52 -33 139l-96 254h-457l-86 -234q-37 -96 -37 -137q0 -49 33.5 -71t99.5 -25v-41h-393zM483 565h414l-176 453q-20 54 -29 90h-4q-11 -36 -31.5 -91.5t-43 -113t-25.5 -65.5zM487 1513q0 40 28.5 68.5t68.5 28.5t68 -28.5t28 -68.5 t-28 -68t-68 -28t-68.5 28t-28.5 68zM852 1513q0 40 28 68.5t68 28.5t68 -28.5t28 -68.5t-28 -68t-68 -28t-68 28t-28 68z" />
<glyph unicode="&#xc5;" horiz-adv-x="1478" d="M78 0v41q36 4 59.5 11t49 27.5t45 48.5t48 84.5t56 123t70.5 176.5l159 410q8 21 20.5 51.5t20 49t15 39t11 33t3.5 19.5q0 22 10 37l92 139q17 25 35 25q11 0 18 -6.5t13.5 -25t13 -39.5t19.5 -61.5t28 -80.5l307 -789q38 -95 60 -142.5t51 -78t56 -39t79 -12.5v-41 h-510v41q80 7 110 24.5t30 49.5q0 52 -33 139l-96 254h-457l-86 -234q-37 -96 -37 -137q0 -49 33.5 -71t99.5 -25v-41h-393zM483 565h414l-176 453q-20 54 -29 90h-4q-11 -36 -31.5 -91.5t-43 -113t-25.5 -65.5zM575 1528q0 78 55.5 133t133.5 55t133 -55t55 -133 t-55 -133.5t-133 -55.5t-133.5 55.5t-55.5 133.5zM633 1528q0 -54 38.5 -92.5t92.5 -38.5t92.5 38.5t38.5 92.5t-38.5 92.5t-92.5 38.5t-92.5 -38.5t-38.5 -92.5z" />
<glyph unicode="&#xc6;" horiz-adv-x="1857" d="M41 0v41q36 7 57.5 12.5t45 18.5t37 25.5t36 43.5t40.5 60t52 88l420 715q84 141 84 186q0 26 -14.5 39t-63 20.5t-145.5 7.5v41h1073l43 -233h-33q-35 43 -54 65t-51 49.5t-62.5 39.5t-75 21t-101.5 9h-110q-77 0 -99 -14.5t-22 -67.5v-446h145q46 0 75.5 2t53 10.5 t36.5 19t23 33.5t15.5 46.5t11.5 66.5h53v-446h-41q-20 121 -59.5 159.5t-148.5 38.5h-164v-516q0 -52 27.5 -69t103.5 -17h205q51 0 85.5 3t66.5 15t53.5 27t49 47.5t50.5 67.5t59 96h39q-16 -43 -70 -305h-1015v41q57 9 86 18.5t50.5 29.5t27.5 50.5t6 85.5v385h-357 q-86 -127 -161.5 -271t-75.5 -194q0 -77 147 -104v-41h-434zM588 659h334v558h-4z" />
<glyph unicode="&#xc7;" horiz-adv-x="1366" d="M66 616q0 195 82 353t239 252t363 94q122 0 270 -43t217 -115l-8 -256h-37q-15 49 -36.5 94t-60 98t-87 91.5t-121 64t-158.5 25.5q-90 0 -170.5 -39t-146 -115t-104 -201.5t-38.5 -283.5q0 -178 65 -317t181 -216t264 -77q152 0 269 92.5t180 244.5h41l-25 -182 q-6 -47 -82.5 -93.5t-189.5 -74.5t-221 -28q-40 0 -58 4l-24 -107q50 -5 80 -11.5t62 -20.5t47 -39.5t15 -63.5q0 -56 -53.5 -95.5t-148.5 -39.5q-109 0 -228 45l31 55q99 -51 172 -51q47 0 80 19t33 59q0 42 -26.5 64t-92.5 22q-26 0 -47 -6l53 172q-139 16 -251 74 t-183 144t-109 190.5t-38 217.5z" />
<glyph unicode="&#xc8;" horiz-adv-x="1290" d="M66 0v41q87 0 125.5 14.5t52 50.5t14.5 119q8 532 8 848q0 118 -32 151t-148 33v41h987l43 -233h-33q-35 43 -54 65t-51 49.5t-62.5 39.5t-75 21t-101.5 9h-176q-77 0 -99 -14.5t-22 -67.5v-446h211q46 0 75.5 2t53 10.5t36.5 19t23 33.5t15.5 46.5t11.5 66.5h54v-446 h-41q-20 121 -60 159.5t-149 38.5h-230v-516q0 -52 27.5 -69t103.5 -17h271q51 0 85.5 3t66.5 15t53.5 27t49 47.5t50.5 67.5t59 96h39q-14 -37 -69 -305h-1112zM410 1653q0 24 18 37.5t49 13.5q32 0 51.5 -14t49.5 -52l213 -278h-64l-229 192q-65 54 -78 72q-10 15 -10 29z " />
<glyph unicode="&#xc9;" horiz-adv-x="1290" d="M66 0v41q87 0 125.5 14.5t52 50.5t14.5 119q8 532 8 848q0 118 -32 151t-148 33v41h987l43 -233h-33q-35 43 -54 65t-51 49.5t-62.5 39.5t-75 21t-101.5 9h-176q-77 0 -99 -14.5t-22 -67.5v-446h211q46 0 75.5 2t53 10.5t36.5 19t23 33.5t15.5 46.5t11.5 66.5h54v-446 h-41q-20 121 -60 159.5t-149 38.5h-230v-516q0 -52 27.5 -69t103.5 -17h271q51 0 85.5 3t66.5 15t53.5 27t49 47.5t50.5 67.5t59 96h39q-14 -37 -69 -305h-1112zM512 1360l213 278q30 39 49 52.5t51 13.5q31 0 49.5 -13.5t18.5 -37.5q0 -29 -79 -93q-1 -2 -2 -2.5t-2 -1.5 t-2.5 -2t-2.5 -2l-230 -192h-63z" />
<glyph unicode="&#xca;" horiz-adv-x="1290" d="M66 0v41q87 0 125.5 14.5t52 50.5t14.5 119q8 532 8 848q0 118 -32 151t-148 33v41h987l43 -233h-33q-35 43 -54 65t-51 49.5t-62.5 39.5t-75 21t-101.5 9h-176q-77 0 -99 -14.5t-22 -67.5v-446h211q46 0 75.5 2t53 10.5t36.5 19t23 33.5t15.5 46.5t11.5 66.5h54v-446 h-41q-20 121 -60 159.5t-149 38.5h-230v-516q0 -52 27.5 -69t103.5 -17h271q51 0 85.5 3t66.5 15t53.5 27t49 47.5t50.5 67.5t59 96h39q-14 -37 -69 -305h-1112zM389 1360l221 344h111l221 -344h-57l-219 219l-220 -219h-57z" />
<glyph unicode="&#xcb;" horiz-adv-x="1290" d="M66 0v41q87 0 125.5 14.5t52 50.5t14.5 119q8 532 8 848q0 118 -32 151t-148 33v41h987l43 -233h-33q-35 43 -54 65t-51 49.5t-62.5 39.5t-75 21t-101.5 9h-176q-77 0 -99 -14.5t-22 -67.5v-446h211q46 0 75.5 2t53 10.5t36.5 19t23 33.5t15.5 46.5t11.5 66.5h54v-446 h-41q-20 121 -60 159.5t-149 38.5h-230v-516q0 -52 27.5 -69t103.5 -17h271q51 0 85.5 3t66.5 15t53.5 27t49 47.5t50.5 67.5t59 96h39q-14 -37 -69 -305h-1112zM393 1513q0 40 28 68.5t68 28.5t68.5 -28.5t28.5 -68.5t-28.5 -68t-68.5 -28t-68 28t-28 68zM758 1513 q0 40 28 68.5t68 28.5t68 -28.5t28 -68.5t-28 -68t-68 -28t-68 28t-28 68z" />
<glyph unicode="&#xcc;" horiz-adv-x="720" d="M86 0v41q101 0 130.5 33.5t29.5 150.5v848q0 117 -29.5 150.5t-130.5 33.5v41h520v-41q-119 0 -151.5 -33t-32.5 -151v-848q0 -117 28.5 -150.5t127.5 -33.5v-41h-492zM100 1653q0 24 18.5 37.5t49.5 13.5q32 0 51 -13.5t49 -52.5l213 -278h-63l-230 192q-65 54 -78 72 q-10 15 -10 29z" />
<glyph unicode="&#xcd;" horiz-adv-x="720" d="M86 0v41q101 0 130.5 33.5t29.5 150.5v848q0 117 -29.5 150.5t-130.5 33.5v41h520v-41q-119 0 -151.5 -33t-32.5 -151v-848q0 -117 28.5 -150.5t127.5 -33.5v-41h-492zM203 1360l213 278q30 39 49 52.5t51 13.5q31 0 49.5 -13.5t18.5 -37.5q0 -29 -79 -93q-1 -2 -2 -2.5 t-2 -1.5t-2.5 -2t-2.5 -2l-230 -192h-63z" />
<glyph unicode="&#xce;" horiz-adv-x="720" d="M80 1360l221 344h111l221 -344h-58l-219 219l-219 -219h-57zM86 0v41q101 0 130.5 33.5t29.5 150.5v848q0 117 -29.5 150.5t-130.5 33.5v41h520v-41q-119 0 -151.5 -33t-32.5 -151v-848q0 -117 28.5 -150.5t127.5 -33.5v-41h-492z" />
<glyph unicode="&#xcf;" horiz-adv-x="720" d="M84 1513q0 40 28 68.5t68 28.5t68 -28.5t28 -68.5t-28 -68t-68 -28t-68 28t-28 68zM86 0v41q101 0 130.5 33.5t29.5 150.5v848q0 117 -29.5 150.5t-130.5 33.5v41h520v-41q-119 0 -151.5 -33t-32.5 -151v-848q0 -117 28.5 -150.5t127.5 -33.5v-41h-492zM449 1513 q0 40 28 68.5t68 28.5t68 -28.5t28 -68.5t-28 -68t-68 -28t-68 28t-28 68z" />
<glyph unicode="&#xd0;" horiz-adv-x="1554" d="M53 643v70h203v360q0 117 -27 150.5t-120 33.5v41h534q83 0 172 -15t184 -46.5t178.5 -85.5t150.5 -125.5t106 -174.5t39 -224q0 -118 -39 -220.5t-106 -176t-156 -126t-190.5 -78.5t-207.5 -26h-713v41q67 0 103 6t58 28t28 55t6 95v418h-203zM432 197q0 -53 18.5 -85 t74 -51.5t153.5 -19.5q272 0 431 155t159 427q0 292 -173 463t-466 171q-119 0 -158 -34t-39 -150v-360h461v-70h-461v-446z" />
<glyph unicode="&#xd1;" horiz-adv-x="1630" d="M57 1257v41h324q45 -54 145.5 -166t225 -247.5t231.5 -251t210.5 -226.5t115.5 -124q10 403 10 788q0 103 -37 137.5t-154 48.5v41h441v-41q-113 -14 -151 -49t-38 -137q0 -145 -26 -1071q-32 0 -37 8q-43 65 -219.5 252t-403 429.5t-360.5 412.5h-6v-848q0 -67 8 -106.5 t31.5 -61.5t52.5 -30.5t84 -14.5l8 -41h-422v41q55 6 84 14.5t52.5 30.5t31.5 61.5t8 106.5v815q0 56 -12 91.5t-41 55t-63.5 28t-92.5 13.5zM563 1421q10 185 164 185q40 0 111 -23q68 -22 147 -22q65 0 90 77h41q-1 -24 -2.5 -40.5t-11.5 -48t-27 -51.5t-51 -36t-80 -16 q-48 0 -131 27q-84 26 -119 26q-26 0 -43.5 -6t-26.5 -19.5t-12.5 -23.5t-7.5 -29h-41z" />
<glyph unicode="&#xd2;" horiz-adv-x="1517" d="M76 649q0 292 188 479t490 187t490 -187t188 -479t-188 -478.5t-490 -186.5t-490 186.5t-188 478.5zM264 649q0 -298 122 -461t368 -163t367.5 163t121.5 461t-121.5 461.5t-367.5 163.5t-368 -163.5t-122 -461.5zM498 1653q0 24 18 37.5t49 13.5q32 0 51.5 -14t49.5 -52 l213 -278h-64l-229 192q-65 54 -78 72q-10 15 -10 29z" />
<glyph unicode="&#xd3;" horiz-adv-x="1517" d="M76 649q0 292 188 479t490 187t490 -187t188 -479t-188 -478.5t-490 -186.5t-490 186.5t-188 478.5zM264 649q0 -298 122 -461t368 -163t367.5 163t121.5 461t-121.5 461.5t-367.5 163.5t-368 -163.5t-122 -461.5zM600 1360l213 278q30 39 49 52.5t51 13.5 q31 0 49.5 -13.5t18.5 -37.5q0 -29 -79 -93q-1 -2 -2 -2.5t-2 -1.5t-2.5 -2t-2.5 -2l-229 -192h-64z" />
<glyph unicode="&#xd4;" horiz-adv-x="1517" d="M76 649q0 292 188 479t490 187t490 -187t188 -479t-188 -478.5t-490 -186.5t-490 186.5t-188 478.5zM264 649q0 -298 122 -461t368 -163t367.5 163t121.5 461t-121.5 461.5t-367.5 163.5t-368 -163.5t-122 -461.5zM477 1360l221 344h111l221 -344h-57l-219 219l-219 -219 h-58z" />
<glyph unicode="&#xd5;" horiz-adv-x="1517" d="M76 649q0 292 188 479t490 187t490 -187t188 -479t-188 -478.5t-490 -186.5t-490 186.5t-188 478.5zM264 649q0 -298 122 -461t368 -163t367.5 163t121.5 461t-121.5 461.5t-367.5 163.5t-368 -163.5t-122 -461.5zM481 1421q10 185 164 185q40 0 111 -23q68 -22 147 -22 q65 0 90 77h41q-1 -24 -2.5 -40.5t-11.5 -48t-27 -51.5t-51 -36t-80 -16q-48 0 -131 27q-84 26 -119 26q-26 0 -43.5 -6t-26.5 -19.5t-12.5 -23.5t-7.5 -29h-41z" />
<glyph unicode="&#xd6;" horiz-adv-x="1517" d="M76 649q0 292 188 479t490 187t490 -187t188 -479t-188 -478.5t-490 -186.5t-490 186.5t-188 478.5zM264 649q0 -298 122 -461t368 -163t367.5 163t121.5 461t-121.5 461.5t-367.5 163.5t-368 -163.5t-122 -461.5zM481 1513q0 40 28.5 68.5t68.5 28.5t68 -28.5t28 -68.5 t-28 -68t-68 -28t-68.5 28t-28.5 68zM846 1513q0 40 28 68.5t68 28.5t68 -28.5t28 -68.5t-28 -68t-68 -28t-68 28t-28 68z" />
<glyph unicode="&#xd7;" horiz-adv-x="1228" d="M219 66l332 329l-332 330l64 66l331 -332l332 332l64 -66l-332 -330l332 -329l-64 -66l-332 332l-331 -332z" />
<glyph unicode="&#xd8;" horiz-adv-x="1517" d="M76 649q0 292 188 479t490 187q137 0 247 -39l117 246h82l-129 -275q168 -77 264.5 -235.5t96.5 -362.5q0 -292 -188 -478.5t-490 -186.5q-134 0 -258 43l-138 -291h-82l152 319q-165 80 -258.5 236.5t-93.5 357.5zM264 649q0 -382 193 -532l522 1110q-92 47 -225 47 q-246 0 -368 -163.5t-122 -461.5zM520 76q102 -51 234 -51q246 0 367.5 163t121.5 461q0 393 -201 539z" />
<glyph unicode="&#xd9;" horiz-adv-x="1517" d="M57 1257v41h555v-41q-77 0 -117.5 -6t-65 -28t-30.5 -54.5t-6 -95.5v-647q0 -161 110 -260.5t300 -99.5q150 0 236 58.5t125.5 190t39.5 361.5v397q0 104 -46.5 144t-147.5 40v41h440v-41q-46 -5 -73 -15t-48 -28t-31 -55t-15.5 -86t-8.5 -131l-17 -479q-2 -79 -14 -142 t-45 -128.5t-86.5 -109t-144 -71.5t-211.5 -28q-257 0 -392 111t-135 335v643q0 117 -31 150.5t-141 33.5zM498 1653q0 24 18 37.5t49 13.5q32 0 51.5 -14t49.5 -52l213 -278h-64l-229 192q-65 54 -78 72q-10 15 -10 29z" />
<glyph unicode="&#xda;" horiz-adv-x="1517" d="M57 1257v41h555v-41q-77 0 -117.5 -6t-65 -28t-30.5 -54.5t-6 -95.5v-647q0 -161 110 -260.5t300 -99.5q150 0 236 58.5t125.5 190t39.5 361.5v397q0 104 -46.5 144t-147.5 40v41h440v-41q-46 -5 -73 -15t-48 -28t-31 -55t-15.5 -86t-8.5 -131l-17 -479q-2 -79 -14 -142 t-45 -128.5t-86.5 -109t-144 -71.5t-211.5 -28q-257 0 -392 111t-135 335v643q0 117 -31 150.5t-141 33.5zM600 1360l213 278q30 39 49 52.5t51 13.5q31 0 49.5 -13.5t18.5 -37.5q0 -29 -79 -93q-1 -2 -2 -2.5t-2 -1.5t-2.5 -2t-2.5 -2l-229 -192h-64z" />
<glyph unicode="&#xdb;" horiz-adv-x="1517" d="M57 1257v41h555v-41q-77 0 -117.5 -6t-65 -28t-30.5 -54.5t-6 -95.5v-647q0 -161 110 -260.5t300 -99.5q150 0 236 58.5t125.5 190t39.5 361.5v397q0 104 -46.5 144t-147.5 40v41h440v-41q-46 -5 -73 -15t-48 -28t-31 -55t-15.5 -86t-8.5 -131l-17 -479q-2 -79 -14 -142 t-45 -128.5t-86.5 -109t-144 -71.5t-211.5 -28q-257 0 -392 111t-135 335v643q0 117 -31 150.5t-141 33.5zM477 1360l221 344h111l221 -344h-57l-219 219l-219 -219h-58z" />
<glyph unicode="&#xdc;" horiz-adv-x="1517" d="M57 1257v41h555v-41q-77 0 -117.5 -6t-65 -28t-30.5 -54.5t-6 -95.5v-647q0 -161 110 -260.5t300 -99.5q150 0 236 58.5t125.5 190t39.5 361.5v397q0 104 -46.5 144t-147.5 40v41h440v-41q-46 -5 -73 -15t-48 -28t-31 -55t-15.5 -86t-8.5 -131l-17 -479q-2 -79 -14 -142 t-45 -128.5t-86.5 -109t-144 -71.5t-211.5 -28q-257 0 -392 111t-135 335v643q0 117 -31 150.5t-141 33.5zM481 1513q0 40 28.5 68.5t68.5 28.5t68 -28.5t28 -68.5t-28 -68t-68 -28t-68.5 28t-28.5 68zM846 1513q0 40 28 68.5t68 28.5t68 -28.5t28 -68.5t-28 -68t-68 -28 t-68 28t-28 68z" />
<glyph unicode="&#xdd;" horiz-adv-x="1366" d="M59 1257v41h498v-41q-127 0 -127 -61q0 -13 4.5 -29.5t17.5 -42t27 -50.5t42 -70.5t54 -86t71 -113t85 -136.5q56 89 115.5 178.5t90 134t57.5 88.5t36.5 70t9.5 51q0 36 -24.5 51.5t-83.5 15.5v41h375v-41q-57 -5 -102.5 -36.5t-112.5 -126.5l-338 -486v-383 q0 -46 2.5 -74t12.5 -50t21.5 -32.5t39 -17.5t54.5 -8t79 -2v-41h-594v41q52 1 79 2t54.5 8t39 17.5t21.5 32.5t12.5 50t2.5 74v385l-345 516q-50 74 -82 95.5t-92 35.5zM500 1360l213 278q30 39 49 52.5t51 13.5q31 0 49.5 -13.5t18.5 -37.5q0 -29 -79 -93q-1 -2 -2 -2.5 t-2 -1.5t-2.5 -2t-2.5 -2l-230 -192h-63z" />
<glyph unicode="&#xde;" horiz-adv-x="1175" d="M92 0v41q101 0 130.5 33.5t29.5 150.5v848q0 117 -29.5 150.5t-130.5 33.5v41h520v-41q-119 0 -151.5 -33t-32.5 -151v-41h205q67 0 131 -10t128.5 -35t112 -63.5t77.5 -100t30 -139.5q0 -110 -49 -190t-136.5 -124.5t-192 -64.5t-232.5 -20v49q434 0 434 340 q0 70 -23 125.5t-58.5 89t-82.5 55.5t-91 30.5t-89 8.5q-103 0 -133.5 -33.5t-30.5 -150.5v-574q0 -117 28.5 -150.5t127.5 -33.5v-41h-492z" />
<glyph unicode="&#xdf;" horiz-adv-x="1363" d="M78 90q0 68 3 101.5t8 42t15 8.5q3 0 20 -34t40.5 -74.5t69 -74.5t98.5 -34q68 0 114 39t46 106q0 37 -21.5 66t-56 50t-76 40.5t-83 43t-76 52t-56 72.5t-21.5 100q0 93 61 151t189 58q80 0 193 -37v-164h-25q-35 89 -79 124.5t-105 35.5q-66 0 -94.5 -29t-28.5 -88 q0 -45 29 -81.5t72 -59.5t93.5 -51t93.5 -56t72 -75t29 -107q0 -95 -77.5 -163t-192.5 -68q-119 0 -186.5 33.5t-67.5 72.5zM760 90q0 68 3 101.5t8 42t15 8.5q3 0 20 -34t40.5 -74.5t69 -74.5t98.5 -34q68 0 114 39t46 106q0 37 -21.5 66t-56 50t-76 40.5t-83 43t-76 52 t-56 72.5t-21.5 100q0 93 61 151t189 58q80 0 193 -37v-164h-25q-35 89 -79 124.5t-105 35.5q-66 0 -94.5 -29t-28.5 -88q0 -45 29 -81.5t72 -59.5t93.5 -51t93.5 -56t72 -75t29 -107q0 -95 -77.5 -163t-192.5 -68q-119 0 -186.5 33.5t-67.5 72.5z" />
<glyph unicode="&#xe0;" horiz-adv-x="948" d="M57 0v41q76 0 109 80l180 452q63 159 90 202q28 44 53 44q3 0 6.5 -1.5t6.5 -5t6 -7.5t6 -10l5.5 -11t5.5 -13.5t5 -13.5t5.5 -14t5.5 -14l196 -512q42 -112 71 -144t83 -32v-41h-338v41q90 7 90 53q0 10 -12 39.5t-33.5 82.5t-36.5 103h-270q-9 -24 -25 -68.5t-25 -69.5 t-16.5 -51t-7.5 -38q0 -51 78 -51v-41h-238zM213 1202q0 24 18.5 37.5t49.5 13.5q32 0 51 -13.5t49 -51.5l213 -279h-64l-229 193q-65 53 -76 69q-12 16 -12 31zM311 360h238l-113 328h-4z" />
<glyph unicode="&#xe1;" horiz-adv-x="948" d="M57 0v41q76 0 109 80l180 452q63 159 90 202q28 44 53 44q3 0 6.5 -1.5t6.5 -5t6 -7.5t6 -10l5.5 -11t5.5 -13.5t5 -13.5t5.5 -14t5.5 -14l196 -512q42 -112 71 -144t83 -32v-41h-338v41q90 7 90 53q0 10 -12 39.5t-33.5 82.5t-36.5 103h-270q-9 -24 -25 -68.5t-25 -69.5 t-16.5 -51t-7.5 -38q0 -51 78 -51v-41h-238zM311 360h238l-113 328h-4zM315 909l213 279q30 38 49.5 51.5t51.5 13.5q31 0 49 -13.5t18 -37.5q0 -28 -75 -89q-2 -2 -4 -3.5t-4.5 -3.5t-4.5 -4l-229 -193h-64z" />
<glyph unicode="&#xe2;" horiz-adv-x="948" d="M57 0v41q76 0 109 80l180 452q63 159 90 202q28 44 53 44q3 0 6.5 -1.5t6.5 -5t6 -7.5t6 -10l5.5 -11t5.5 -13.5t5 -13.5t5.5 -14t5.5 -14l196 -512q42 -112 71 -144t83 -32v-41h-338v41q90 7 90 53q0 10 -12 39.5t-33.5 82.5t-36.5 103h-270q-9 -24 -25 -68.5t-25 -69.5 t-16.5 -51t-7.5 -38q0 -51 78 -51v-41h-238zM205 909l221 344h111l221 -344h-58l-219 219l-219 -219h-57zM311 360h238l-113 328h-4z" />
<glyph unicode="&#xe3;" horiz-adv-x="948" d="M57 0v41q76 0 109 80l180 452q63 159 90 202q28 44 53 44q3 0 6.5 -1.5t6.5 -5t6 -7.5t6 -10l5.5 -11t5.5 -13.5t5 -13.5t5.5 -14t5.5 -14l196 -512q42 -112 71 -144t83 -32v-41h-338v41q90 7 90 53q0 10 -12 39.5t-33.5 82.5t-36.5 103h-270q-9 -24 -25 -68.5t-25 -69.5 t-16.5 -51t-7.5 -38q0 -51 78 -51v-41h-238zM209 971q10 184 164 184q42 0 110 -22q71 -23 148 -23q65 0 90 78h41q-1 -24 -2.5 -40.5t-11.5 -48.5t-27 -52t-51 -36t-80 -16q-48 0 -131 27q-87 27 -119 27q-26 0 -43.5 -6t-26.5 -19.5t-12.5 -23.5t-7.5 -29h-41zM311 360 h238l-113 328h-4z" />
<glyph unicode="&#xe4;" horiz-adv-x="948" d="M57 0v41q76 0 109 80l180 452q63 159 90 202q28 44 53 44q3 0 6.5 -1.5t6.5 -5t6 -7.5t6 -10l5.5 -11t5.5 -13.5t5 -13.5t5.5 -14t5.5 -14l196 -512q42 -112 71 -144t83 -32v-41h-338v41q90 7 90 53q0 10 -12 39.5t-33.5 82.5t-36.5 103h-270q-9 -24 -25 -68.5t-25 -69.5 t-16.5 -51t-7.5 -38q0 -51 78 -51v-41h-238zM209 1063q0 40 28 68t68 28t68 -28t28 -68t-28 -68t-68 -28t-68 28t-28 68zM311 360h238l-113 328h-4zM573 1063q0 40 28.5 68t68.5 28t68 -28t28 -68t-28 -68t-68 -28t-68.5 28t-28.5 68z" />
<glyph unicode="&#xe5;" horiz-adv-x="948" d="M57 0v41q76 0 109 80l180 452q63 159 90 202q28 44 53 44q3 0 6.5 -1.5t6.5 -5t6 -7.5t6 -10l5.5 -11t5.5 -13.5t5 -13.5t5.5 -14t5.5 -14l196 -512q42 -112 71 -144t83 -32v-41h-338v41q90 7 90 53q0 10 -12 39.5t-33.5 82.5t-36.5 103h-270q-9 -24 -25 -68.5t-25 -69.5 t-16.5 -51t-7.5 -38q0 -51 78 -51v-41h-238zM285 1077q0 78 55 133.5t133 55.5t133.5 -55.5t55.5 -133.5t-55.5 -133t-133.5 -55t-133 55t-55 133zM311 360h238l-113 328h-4zM342 1077q0 -54 38.5 -92.5t92.5 -38.5t92.5 38.5t38.5 92.5t-38.5 92.5t-92.5 38.5t-92.5 -38.5 t-38.5 -92.5z" />
<glyph unicode="&#xe6;" horiz-adv-x="1175" d="M-4 0v41q54 6 92 34t72 91q291 531 291 559q0 19 -25 26.5t-98 10.5v41h655l66 -168h-41q-43 58 -74 83t-72.5 34.5t-122.5 9.5q-43 0 -61.5 -18.5t-18.5 -59.5v-164q0 -41 16 -57.5t58 -16.5q83 0 112.5 20t35.5 79h41v-250h-41q-3 34 -13.5 57t-28 34t-36 15.5 t-43.5 4.5q-68 0 -84.5 -17.5t-16.5 -77.5v-174q0 -56 12 -76t62 -20h78q86 0 126 27.5t91 128.5h35l-29 -197h-608v41q98 5 98 74v266h-192q-38 -64 -51 -86.5t-39 -70t-35.5 -76t-9.5 -48.5q0 -53 86 -59v-41h-287zM352 434q0 -12 21 -12h108q43 0 43 20v250q0 21 -12 21 t-25 -25l-112 -211q0 -1 -6.5 -11.5t-11.5 -20t-5 -11.5z" />
<glyph unicode="&#xe7;" d="M78 385q0 183 119 300.5t311 117.5q140 0 225.5 -39t85.5 -84q0 -62 -4 -96t-9.5 -43t-14.5 -9q-14 0 -26 17t-20.5 42.5t-26 55.5t-40.5 55.5t-66 42.5t-100 17q-91 0 -156 -49t-96 -128.5t-31 -181.5q0 -181 73.5 -279.5t213.5 -98.5q51 0 98 23t78.5 55.5t56 64.5 t40.5 55t22 23q14 0 17 -16.5t3 -90.5q0 -57 -93.5 -106t-209.5 -49q-29 0 -39 4l-22 -107q39 -4 64.5 -8.5t55 -14t46 -23t28 -36t11.5 -53.5q0 -56 -54 -95.5t-149 -39.5q-108 0 -227 45l30 55q99 -51 172 -51q47 0 80 19t33 59q0 42 -26.5 64t-92.5 22q-26 0 -47 -6 l51 174l2 2q-172 21 -269 130.5t-97 260.5z" />
<glyph unicode="&#xe8;" d="M78 0v41q91 3 121 15.5t30 41.5v586q0 49 -25.5 62t-125.5 16v41h667l37 -152h-37q-21 37 -44.5 59t-73.5 37t-127 15q-69 0 -94 -13.5t-25 -46.5v-231q0 -41 41 -41h110q33 0 61.5 30.5t41.5 88.5h41v-266h-41q-12 58 -36 82t-67 24h-104q-21 0 -34 -15.5t-13 -43.5 v-228q0 -27 18.5 -44t44.5 -17h99q103 0 164.5 35t103.5 125h41l-37 -201h-737zM219 1202q0 24 18.5 37.5t49.5 13.5q32 0 51 -13.5t49 -51.5l213 -279h-63l-230 193q-65 53 -76 69q-12 16 -12 31z" />
<glyph unicode="&#xe9;" d="M78 0v41q91 3 121 15.5t30 41.5v586q0 49 -25.5 62t-125.5 16v41h667l37 -152h-37q-21 37 -44.5 59t-73.5 37t-127 15q-69 0 -94 -13.5t-25 -46.5v-231q0 -41 41 -41h110q33 0 61.5 30.5t41.5 88.5h41v-266h-41q-12 58 -36 82t-67 24h-104q-21 0 -34 -15.5t-13 -43.5 v-228q0 -27 18.5 -44t44.5 -17h99q103 0 164.5 35t103.5 125h41l-37 -201h-737zM322 909l213 279q30 38 49 51.5t51 13.5q31 0 49 -13.5t18 -37.5q0 -28 -75 -89q-2 -2 -4 -3.5t-4.5 -3.5t-4.5 -4l-229 -193h-63z" />
<glyph unicode="&#xea;" d="M78 0v41q91 3 121 15.5t30 41.5v586q0 49 -25.5 62t-125.5 16v41h667l37 -152h-37q-21 37 -44.5 59t-73.5 37t-127 15q-69 0 -94 -13.5t-25 -46.5v-231q0 -41 41 -41h110q33 0 61.5 30.5t41.5 88.5h41v-266h-41q-12 58 -36 82t-67 24h-104q-21 0 -34 -15.5t-13 -43.5 v-228q0 -27 18.5 -44t44.5 -17h99q103 0 164.5 35t103.5 125h41l-37 -201h-737zM199 909l221 344h110l222 -344h-58l-219 219l-219 -219h-57z" />
<glyph unicode="&#xeb;" d="M78 0v41q91 3 121 15.5t30 41.5v586q0 49 -25.5 62t-125.5 16v41h667l37 -152h-37q-21 37 -44.5 59t-73.5 37t-127 15q-69 0 -94 -13.5t-25 -46.5v-231q0 -41 41 -41h110q33 0 61.5 30.5t41.5 88.5h41v-266h-41q-12 58 -36 82t-67 24h-104q-21 0 -34 -15.5t-13 -43.5 v-228q0 -27 18.5 -44t44.5 -17h99q103 0 164.5 35t103.5 125h41l-37 -201h-737zM178 1063q0 40 28 68t68 28t68.5 -28t28.5 -68t-28.5 -68t-68.5 -28t-68 28t-28 68zM543 1063q0 40 28 68t68 28t68 -28t28 -68t-28 -68t-68 -28t-68 28t-28 68z" />
<glyph unicode="&#xec;" horiz-adv-x="606" d="M43 1202q0 24 18.5 37.5t49.5 13.5q32 0 51 -13.5t49 -51.5l213 -279h-64l-229 193q-65 53 -76 69q-12 16 -12 31zM109 0v41q73 3 93.5 17t20.5 65v557q0 51 -20.5 65t-93.5 17v41h389v-41q-79 -3 -101 -17t-22 -65v-557q0 -51 22 -65t101 -17v-41h-389z" />
<glyph unicode="&#xed;" horiz-adv-x="606" d="M109 0v41q73 3 93.5 17t20.5 65v557q0 51 -20.5 65t-93.5 17v41h389v-41q-79 -3 -101 -17t-22 -65v-557q0 -51 22 -65t101 -17v-41h-389zM145 909l213 279q30 38 49.5 51.5t51.5 13.5q31 0 49 -13.5t18 -37.5q0 -28 -75 -89q-8 -7 -13 -11l-229 -193h-64z" />
<glyph unicode="&#xee;" horiz-adv-x="606" d="M23 909l221 344h110l221 -344h-57l-219 219l-219 -219h-57zM109 0v41q73 3 93.5 17t20.5 65v557q0 51 -20.5 65t-93.5 17v41h389v-41q-79 -3 -101 -17t-22 -65v-557q0 -51 22 -65t101 -17v-41h-389z" />
<glyph unicode="&#xef;" horiz-adv-x="606" d="M27 1063q0 40 28 68t68 28t68 -28t28 -68t-28 -68t-68 -28t-68 28t-28 68zM109 0v41q73 3 93.5 17t20.5 65v557q0 51 -20.5 65t-93.5 17v41h389v-41q-79 -3 -101 -17t-22 -65v-557q0 -51 22 -65t101 -17v-41h-389zM391 1063q0 40 28 68t68 28t68.5 -28t28.5 -68 t-28.5 -68t-68.5 -28t-68 28t-28 68z" />
<glyph unicode="&#xf0;" horiz-adv-x="948" d="M47 395v49h125v236q0 49 -19 64t-79 18v41h352q114 0 203.5 -33t143 -90t81 -128t27.5 -151q0 -83 -31.5 -154.5t-93 -127t-161 -87.5t-226.5 -32h-303v41q65 3 85.5 21t20.5 61v272h-125zM324 123q0 -38 25.5 -60t76.5 -22q130 0 210.5 95t80.5 265t-80.5 265.5 t-210.5 95.5q-51 0 -76.5 -22t-25.5 -60v-236h231v-49h-231v-272z" />
<glyph unicode="&#xf1;" horiz-adv-x="1138" d="M82 770v41q86 0 242 -8q75 -96 165.5 -194t210.5 -220.5t177 -183.5v348q0 72 -4.5 110t-22 61.5t-42.5 29.5t-75 8v41h324v-41q-86 -3 -112.5 -29t-26.5 -106v-627h-60l-51 57q-16 18 -169 184.5t-241.5 267.5t-109.5 138h-4v-508q0 -46 28 -69t90 -29v-41h-295v41 q65 3 90 28t25 85v483q0 77 -25.5 100.5t-113.5 32.5zM293 971q10 184 164 184q42 0 110 -22q71 -23 148 -23q65 0 90 78h41q-1 -24 -2.5 -40.5t-11.5 -48.5t-27 -52t-51 -36t-80 -16q-48 0 -131 27q-87 27 -119 27q-26 0 -43.5 -6t-26.5 -19.5t-12.5 -23.5t-7.5 -29h-41z " />
<glyph unicode="&#xf2;" horiz-adv-x="985" d="M70 393q0 186 117.5 298t304.5 112q186 0 303.5 -112t117.5 -298t-117 -297.5t-304 -111.5t-304.5 112t-117.5 297zM221 393q0 -56 8 -106.5t27.5 -99.5t49.5 -84t77.5 -56.5t108.5 -21.5t108.5 21.5t77 56.5t49 84t27.5 99.5t8 106.5q0 72 -13.5 134t-42.5 116.5 t-84 86.5t-130 32t-130 -32t-84.5 -86.5t-43 -117t-13.5 -133.5zM231 1202q0 24 18.5 37.5t49.5 13.5q32 0 51 -13.5t49 -51.5l213 -279h-63l-230 193q-65 53 -76 69q-12 16 -12 31z" />
<glyph unicode="&#xf3;" horiz-adv-x="985" d="M70 393q0 186 117.5 298t304.5 112q186 0 303.5 -112t117.5 -298t-117 -297.5t-304 -111.5t-304.5 112t-117.5 297zM221 393q0 -56 8 -106.5t27.5 -99.5t49.5 -84t77.5 -56.5t108.5 -21.5t108.5 21.5t77 56.5t49 84t27.5 99.5t8 106.5q0 72 -13.5 134t-42.5 116.5 t-84 86.5t-130 32t-130 -32t-84.5 -86.5t-43 -117t-13.5 -133.5zM334 909l213 279q30 38 49 51.5t51 13.5q31 0 49.5 -13.5t18.5 -37.5q0 -28 -75 -89q-2 -2 -4 -3.5t-4.5 -3.5t-4.5 -4l-230 -193h-63z" />
<glyph unicode="&#xf4;" horiz-adv-x="985" d="M70 393q0 186 117.5 298t304.5 112q186 0 303.5 -112t117.5 -298t-117 -297.5t-304 -111.5t-304.5 112t-117.5 297zM211 909l221 344h111l221 -344h-57l-220 219l-219 -219h-57zM221 393q0 -56 8 -106.5t27.5 -99.5t49.5 -84t77.5 -56.5t108.5 -21.5t108.5 21.5t77 56.5 t49 84t27.5 99.5t8 106.5q0 72 -13.5 134t-42.5 116.5t-84 86.5t-130 32t-130 -32t-84.5 -86.5t-43 -117t-13.5 -133.5z" />
<glyph unicode="&#xf5;" horiz-adv-x="985" d="M70 393q0 186 117.5 298t304.5 112q186 0 303.5 -112t117.5 -298t-117 -297.5t-304 -111.5t-304.5 112t-117.5 297zM215 971q10 184 164 184q42 0 110 -22q71 -23 148 -23q65 0 90 78h41q-1 -24 -2.5 -40.5t-11.5 -48.5t-27 -52t-51 -36t-80 -16q-48 0 -131 27 q-87 27 -119 27q-26 0 -43.5 -6t-26.5 -19.5t-12.5 -23.5t-7.5 -29h-41zM221 393q0 -56 8 -106.5t27.5 -99.5t49.5 -84t77.5 -56.5t108.5 -21.5t108.5 21.5t77 56.5t49 84t27.5 99.5t8 106.5q0 72 -13.5 134t-42.5 116.5t-84 86.5t-130 32t-130 -32t-84.5 -86.5t-43 -117 t-13.5 -133.5z" />
<glyph unicode="&#xf6;" horiz-adv-x="985" d="M70 393q0 186 117.5 298t304.5 112q186 0 303.5 -112t117.5 -298t-117 -297.5t-304 -111.5t-304.5 112t-117.5 297zM221 393q0 -56 8 -106.5t27.5 -99.5t49.5 -84t77.5 -56.5t108.5 -21.5t108.5 21.5t77 56.5t49 84t27.5 99.5t8 106.5q0 72 -13.5 134t-42.5 116.5 t-84 86.5t-130 32t-130 -32t-84.5 -86.5t-43 -117t-13.5 -133.5zM225 1063q0 40 28.5 68t68.5 28t68 -28t28 -68t-28 -68t-68 -28t-68.5 28t-28.5 68zM590 1063q0 40 28 68t68 28t68 -28t28 -68t-28 -68t-68 -28t-68 28t-28 68z" />
<glyph unicode="&#xf7;" horiz-adv-x="1228" d="M219 350v90h791v-90h-791zM520 72q0 38 28 66t66 28t66.5 -28t28.5 -66t-28.5 -66.5t-66.5 -28.5t-66 28.5t-28 66.5zM520 719q0 38 28 66t66 28t66.5 -28t28.5 -66t-28.5 -66t-66.5 -28t-66 28t-28 66z" />
<glyph unicode="&#xf8;" horiz-adv-x="985" d="M70 393q0 186 117.5 298t304.5 112q103 0 192 -39l115 186h69l-133 -213q84 -52 131 -140.5t47 -203.5q0 -186 -117 -297.5t-304 -111.5q-110 0 -197 41l-123 -197h-70l140 225q-81 54 -126.5 141t-45.5 199zM221 393q0 -168 68 -264l360 580q-62 53 -157 53 q-75 0 -130 -32t-84.5 -86.5t-43 -117t-13.5 -133.5zM330 82q60 -57 162 -57q61 0 108.5 21.5t77 56.5t49 84t27.5 99.5t8 106.5q0 176 -72 271z" />
<glyph unicode="&#xf9;" horiz-adv-x="1138" d="M88 762v41h451v-41q-107 -6 -137.5 -25t-30.5 -78v-383q0 -126 56.5 -178.5t188.5 -52.5q122 0 194.5 61.5t72.5 190.5v313q0 90 -31.5 118t-124.5 34v41h324v-41q-65 -6 -92 -39t-27 -100v-342q0 -146 -96 -221.5t-265 -75.5q-170 0 -261 64.5t-91 195.5v385 q0 75 -24 99.5t-107 33.5zM309 1202q0 24 18.5 37.5t49.5 13.5q32 0 51 -13.5t49 -51.5l213 -279h-63l-230 193q-65 53 -76 69q-12 16 -12 31z" />
<glyph unicode="&#xfa;" horiz-adv-x="1138" d="M88 762v41h451v-41q-107 -6 -137.5 -25t-30.5 -78v-383q0 -126 56.5 -178.5t188.5 -52.5q122 0 194.5 61.5t72.5 190.5v313q0 90 -31.5 118t-124.5 34v41h324v-41q-65 -6 -92 -39t-27 -100v-342q0 -146 -96 -221.5t-265 -75.5q-170 0 -261 64.5t-91 195.5v385 q0 75 -24 99.5t-107 33.5zM412 909l213 279q30 38 49 51.5t51 13.5q31 0 49.5 -13.5t18.5 -37.5q0 -28 -75 -89q-2 -2 -4 -3.5t-4.5 -3.5t-4.5 -4l-230 -193h-63z" />
<glyph unicode="&#xfb;" horiz-adv-x="1138" d="M88 762v41h451v-41q-107 -6 -137.5 -25t-30.5 -78v-383q0 -126 56.5 -178.5t188.5 -52.5q122 0 194.5 61.5t72.5 190.5v313q0 90 -31.5 118t-124.5 34v41h324v-41q-65 -6 -92 -39t-27 -100v-342q0 -146 -96 -221.5t-265 -75.5q-170 0 -261 64.5t-91 195.5v385 q0 75 -24 99.5t-107 33.5zM289 909l221 344h111l221 -344h-58l-219 219l-219 -219h-57z" />
<glyph unicode="&#xfc;" horiz-adv-x="1138" d="M88 762v41h451v-41q-107 -6 -137.5 -25t-30.5 -78v-383q0 -126 56.5 -178.5t188.5 -52.5q122 0 194.5 61.5t72.5 190.5v313q0 90 -31.5 118t-124.5 34v41h324v-41q-65 -6 -92 -39t-27 -100v-342q0 -146 -96 -221.5t-265 -75.5q-170 0 -261 64.5t-91 195.5v385 q0 75 -24 99.5t-107 33.5zM293 1063q0 40 28 68t68 28t68 -28t28 -68t-28 -68t-68 -28t-68 28t-28 68zM657 1063q0 40 28.5 68t68.5 28t68 -28t28 -68t-28 -68t-68 -28t-68.5 28t-28.5 68z" />
<glyph unicode="&#xfd;" horiz-adv-x="985" d="M49 762v41h410v-41q-70 -3 -94.5 -12t-24.5 -35q0 -9 2.5 -18t5.5 -16t11 -19.5t12.5 -19t16.5 -23.5t18 -25l139 -193l110 144q49 64 69.5 101t20.5 67q0 24 -26 35t-88 14v41h305v-49q-44 -6 -73 -25t-60 -61l-234 -312v-254q0 -33 27 -45.5t121 -15.5v-41h-447v41 q93 3 120.5 21.5t27.5 64.5v229l-258 332q-23 30 -33.5 41.5t-29.5 21t-48 11.5zM334 909l213 279q30 38 49 51.5t51 13.5q31 0 49.5 -13.5t18.5 -37.5q0 -28 -75 -89q-2 -2 -4 -3.5t-4.5 -3.5t-4.5 -4l-230 -193h-63z" />
<glyph unicode="&#xfe;" horiz-adv-x="872" d="M78 0v41q73 3 94 17t21 65v557q0 51 -21 65t-94 17v41h389v-41q-79 -3 -101 -17t-22 -65v-53h66q41 0 79 -2.5t92 -9t97 -21t82.5 -36.5t61.5 -58t22 -82q0 -43 -18.5 -77.5t-51 -56.5t-70.5 -37t-83 -22.5t-82 -10.5t-74 -3q-19 0 -47 8v41q45 3 85.5 11t87 25t74 50.5 t27.5 79.5q0 45 -30 77.5t-77.5 47.5t-90 21t-84.5 6h-66v-455q0 -51 22 -65t101 -17v-41h-389z" />
<glyph unicode="&#xff;" horiz-adv-x="985" d="M49 762v41h410v-41q-70 -3 -94.5 -12t-24.5 -35q0 -9 2.5 -18t5.5 -16t11 -19.5t12.5 -19t16.5 -23.5t18 -25l139 -193l110 144q49 64 69.5 101t20.5 67q0 24 -26 35t-88 14v41h305v-49q-44 -6 -73 -25t-60 -61l-234 -312v-254q0 -33 27 -45.5t121 -15.5v-41h-447v41 q93 3 120.5 21.5t27.5 64.5v229l-258 332q-23 30 -33.5 41.5t-29.5 21t-48 11.5zM227 1063q0 40 28.5 68t68.5 28t68 -28t28 -68t-28 -68t-68 -28t-68.5 28t-28.5 68zM592 1063q0 40 28 68t68 28t68 -28t28 -68t-28 -68t-68 -28t-68 28t-28 68z" />
<glyph unicode="&#x152;" horiz-adv-x="2048" d="M78 625q0 202 80 357.5t234.5 244t361.5 88.5q58 0 164 -8q115 -9 172 -9h757l43 -233h-32q-35 43 -54.5 65t-51.5 49.5t-62 39.5t-75 21t-102 9h-135q-77 0 -99 -14.5t-22 -67.5v-446h170q55 0 88 4.5t57 13.5t38 32.5t22.5 50t18.5 77.5h45v-446h-45 q-17 121 -56.5 159.5t-148.5 38.5h-189v-516q0 -52 27.5 -69t104.5 -17h229q51 0 85.5 3t66.5 15t53.5 27t49 47.5t50.5 67.5t59 96h39q-14 -37 -69 -305h-953q-53 0 -143 -8q-86 -8 -137 -8q-126 0 -233.5 37.5t-181 100.5t-125.5 146t-76.5 173.5t-24.5 183.5zM266 643 q0 -71 4 -129.5t17 -124t34.5 -116.5t58.5 -99t87 -79.5t122.5 -50.5t162.5 -19q167 0 248 65t81 203v713q0 138 -81 203t-248 65q-107 0 -191.5 -34.5t-139 -92.5t-90 -140t-50.5 -171.5t-15 -192.5z" />
<glyph unicode="&#x153;" horiz-adv-x="1290" d="M61 389q0 186 118 308t304 122q26 0 88 -8t93 -8h450l66 -168h-41q-43 58 -74 83t-72.5 34.5t-122.5 9.5q-43 0 -61 -18.5t-18 -59.5v-164q0 -41 15.5 -57.5t57.5 -16.5q83 0 112.5 20t35.5 79h41v-250h-41q-3 34 -13.5 57t-28 34t-36 15.5t-43.5 4.5q-68 0 -84 -17.5 t-16 -77.5v-174q0 -30 1.5 -43.5t8 -28t21.5 -19.5t42 -5h78q86 0 126 27.5t91 128.5h35l-29 -197h-350q-50 0 -160 -8t-172 -8q-196 0 -309 108.5t-113 296.5zM205 373q0 -175 76 -257.5t202 -82.5q75 0 119.5 41.5t44.5 126.5v438q0 131 -164 131q-278 0 -278 -397z" />
<glyph unicode="&#x178;" horiz-adv-x="1366" d="M59 1257v41h498v-41q-127 0 -127 -61q0 -13 4.5 -29.5t17.5 -42t27 -50.5t42 -70.5t54 -86t71 -113t85 -136.5q56 89 115.5 178.5t90 134t57.5 88.5t36.5 70t9.5 51q0 36 -24.5 51.5t-83.5 15.5v41h375v-41q-57 -5 -102.5 -36.5t-112.5 -126.5l-338 -486v-383 q0 -46 2.5 -74t12.5 -50t21.5 -32.5t39 -17.5t54.5 -8t79 -2v-41h-594v41q52 1 79 2t54.5 8t39 17.5t21.5 32.5t12.5 50t2.5 74v385l-345 516q-50 74 -82 95.5t-92 35.5zM381 1513q0 40 28 68.5t68 28.5t68 -28.5t28 -68.5t-28 -68t-68 -28t-68 28t-28 68zM745 1513 q0 40 28.5 68.5t68.5 28.5t68 -28.5t28 -68.5t-28 -68t-68 -28t-68.5 28t-28.5 68z" />
<glyph unicode="&#x2c6;" horiz-adv-x="530" d="M-16 909l221 344h110l222 -344h-58l-219 219l-219 -219h-57z" />
<glyph unicode="&#x2dc;" horiz-adv-x="530" d="M-12 971q10 184 164 184q42 0 110 -22q71 -23 148 -23q65 0 90 78h41q-1 -24 -2.5 -40.5t-11.5 -48.5t-27 -52t-51 -36t-80 -16q-48 0 -131 27q-87 27 -119 27q-26 0 -43.5 -6t-26.5 -19.5t-12.5 -23.5t-7.5 -29h-41z" />
<glyph unicode="&#x2000;" horiz-adv-x="858" />
<glyph unicode="&#x2001;" horiz-adv-x="1716" />
<glyph unicode="&#x2002;" horiz-adv-x="858" />
<glyph unicode="&#x2003;" horiz-adv-x="1716" />
<glyph unicode="&#x2004;" horiz-adv-x="572" />
<glyph unicode="&#x2005;" horiz-adv-x="429" />
<glyph unicode="&#x2006;" horiz-adv-x="286" />
<glyph unicode="&#x2007;" horiz-adv-x="286" />
<glyph unicode="&#x2008;" horiz-adv-x="214" />
<glyph unicode="&#x2009;" horiz-adv-x="343" />
<glyph unicode="&#x200a;" horiz-adv-x="95" />
<glyph unicode="&#x2010;" horiz-adv-x="681" d="M86 324v82l508 49v-82z" />
<glyph unicode="&#x2011;" horiz-adv-x="681" d="M86 324v82l508 49v-82z" />
<glyph unicode="&#x2012;" horiz-adv-x="681" d="M86 324v82l508 49v-82z" />
<glyph unicode="&#x2013;" d="M0 354v82h909v-82h-909z" />
<glyph unicode="&#x2014;" horiz-adv-x="2048" d="M256 354v82h1536v-82h-1536z" />
<glyph unicode="&#x2018;" horiz-adv-x="454" d="M106 1090q0 93 68.5 167t167.5 111v-33q-60 -34 -102.5 -85t-42.5 -91q0 -18 4 -30t15 -19.5t16.5 -9.5t23.5 -8q53 -18 69 -35q23 -23 23 -64q0 -39 -24.5 -63.5t-79.5 -24.5q-68 0 -103 53t-35 132z" />
<glyph unicode="&#x2019;" horiz-adv-x="454" d="M106 1260q0 39 25 63.5t80 24.5q68 0 102.5 -52.5t34.5 -132.5q0 -93 -68.5 -167t-166.5 -111v33q60 34 102.5 85t42.5 91q0 18 -4 30t-15 19.5t-16.5 9.5t-23.5 8q-52 18 -69 34q-24 23 -24 65z" />
<glyph unicode="&#x201a;" horiz-adv-x="454" d="M106 100q0 39 25 63.5t80 24.5q68 0 102.5 -52.5t34.5 -131.5q0 -93 -68.5 -167t-166.5 -111v32q60 34 102.5 85t42.5 91q0 18 -4 30t-14.5 19.5t-17 10.5t-23.5 8q-1 0 -12.5 4t-13 4.5t-12 5t-13 6.5t-11 7t-11 9.5t-8 11.5t-7 14t-3.5 16t-2 20z" />
<glyph unicode="&#x201c;" horiz-adv-x="833" d="M106 1090q0 93 68.5 167t167.5 111v-33q-60 -34 -102.5 -85t-42.5 -91q0 -18 4 -30t15 -19.5t16.5 -9.5t23.5 -8q53 -18 69 -35q23 -23 23 -64q0 -39 -24.5 -63.5t-79.5 -24.5q-68 0 -103 53t-35 132zM485 1090q0 93 68.5 167t167.5 111v-33q-60 -34 -103 -85.5 t-43 -90.5q0 -18 4 -30t15.5 -19.5t17 -9.5t23.5 -8q53 -18 69 -35q23 -23 23 -64q0 -39 -24.5 -63.5t-79.5 -24.5q-68 0 -103 53t-35 132z" />
<glyph unicode="&#x201d;" horiz-adv-x="833" d="M106 1260q0 39 25 63.5t80 24.5q68 0 102.5 -52.5t34.5 -132.5q0 -93 -68.5 -167t-166.5 -111v33q60 34 102.5 85t42.5 91q0 18 -4 30t-15 19.5t-16.5 9.5t-23.5 8q-52 18 -69 34q-24 23 -24 65zM485 1260q0 39 25 63.5t80 24.5q68 0 102.5 -52.5t34.5 -132.5 q0 -93 -68.5 -167t-166.5 -111v33q60 34 102.5 85t42.5 91q0 18 -4 30t-15 19.5t-16.5 9.5t-23.5 8q-52 18 -69 34q-24 24 -24 65z" />
<glyph unicode="&#x201e;" horiz-adv-x="833" d="M106 100q0 39 25 63.5t80 24.5q68 0 102.5 -52.5t34.5 -131.5q0 -93 -68.5 -167t-166.5 -111v32q60 34 102.5 85t42.5 91q0 18 -4 30t-14.5 19.5t-17 10.5t-23.5 8q-1 0 -12.5 4t-13 4.5t-12 5t-13 6.5t-11 7t-11 9.5t-8 11.5t-7 14t-3.5 16t-2 20zM485 100q0 39 25 63.5 t80 24.5q68 0 102.5 -52.5t34.5 -131.5q0 -93 -68.5 -167t-166.5 -111v32q60 34 102.5 85t42.5 91q0 18 -4 30t-14.5 19.5t-17 10.5t-23.5 8q-1 0 -12.5 4t-13 4.5t-12 5t-13 6.5t-11 7t-11 9.5t-8 11.5t-7 14t-3.5 16t-2 20z" />
<glyph unicode="&#x2022;" horiz-adv-x="1024" d="M186 651q0 135 95.5 230.5t230.5 95.5t230.5 -95.5t95.5 -230.5t-95.5 -230t-230.5 -95t-230.5 95t-95.5 230z" />
<glyph unicode="&#x2026;" horiz-adv-x="2048" d="M231 92q0 44 32.5 76.5t76.5 32.5t76.5 -32.5t32.5 -76.5t-32.5 -76t-76.5 -32t-76.5 32t-32.5 76zM915 92q0 44 32.5 76.5t76.5 32.5t76.5 -32.5t32.5 -76.5t-32.5 -76t-76.5 -32t-76.5 32t-32.5 76zM1599 92q0 44 32.5 76.5t76.5 32.5t76.5 -32.5t32.5 -76.5t-32.5 -76 t-76.5 -32t-76.5 32t-32.5 76z" />
<glyph unicode="&#x202f;" horiz-adv-x="343" />
<glyph unicode="&#x2039;" horiz-adv-x="681" d="M164 395v4q196 157 303 281q17 20 37 20q14 0 14 -16q0 -21 -101.5 -150t-101.5 -137t101.5 -138.5t101.5 -152.5q0 -16 -16 -16q-11 0 -54.5 43t-125.5 122t-158 140z" />
<glyph unicode="&#x203a;" horiz-adv-x="681" d="M164 106q0 21 101.5 150t101.5 137t-101.5 138.5t-101.5 152.5q0 16 16 16q11 0 54.5 -43t125.5 -122t158 -140v-4q-199 -159 -303 -280q-18 -21 -37 -21q-14 0 -14 16z" />
<glyph unicode="&#x205f;" horiz-adv-x="429" />
<glyph unicode="&#x2122;" horiz-adv-x="2027" d="M172 1137v161h623v-161h-33q-33 129 -127 129h-94v-572q0 -66 7 -78q8 -15 52 -22q8 -1 33 -4v-33h-299v33q70 9 81 21t11 83v572h-94q-54 0 -82.5 -34.5t-44.5 -94.5h-33zM877 1266v32h210l289 -577l301 577h181v-32q-56 -3 -80.5 -29.5t-24.5 -75.5v-467q0 -66 7 -78 q8 -15 52 -22q8 -1 33 -4v-33h-299v33q70 9 81 21t11 83v434h-4l-284 -577h-17l-280 571h2h-4v-413q0 -61 18.5 -86.5t75.5 -32.5v-33h-238v33q57 7 75.5 32.5t18.5 86.5v462q0 39 -41 67t-83 28z" />
<glyph unicode="&#x25fc;" horiz-adv-x="798" d="M0 0v799h799v-799h-799z" />
<glyph unicode="&#xfb01;" horiz-adv-x="1515" d="M106 0v41q86 3 111 13t25 36v598q0 31 -8 44.5t-36 20.5t-92 9v41h676l45 -180h-45q-69 95 -115 117t-165 22q-64 0 -86.5 -12.5t-22.5 -36.5v-213q0 -42 23.5 -56t93.5 -14q80 0 112.5 22t41.5 76h41v-249h-41q-12 61 -51.5 85.5t-120.5 24.5q-59 0 -79 -15.5t-20 -62.5 v-217q0 -30 20.5 -40t102.5 -13v-41h-410zM1018 0v41q73 3 94 17t21 65v557q0 51 -21 65t-94 17v41h389v-41q-79 -3 -101 -17t-22 -65v-557q0 -51 22 -65t101 -17v-41h-389z" />
<glyph unicode="&#xfb02;" horiz-adv-x="1781" d="M106 0v41q86 3 111 13t25 36v598q0 31 -8 44.5t-36 20.5t-92 9v41h676l45 -180h-45q-69 95 -115 117t-165 22q-64 0 -86.5 -12.5t-22.5 -36.5v-213q0 -42 23.5 -56t93.5 -14q80 0 112.5 22t41.5 76h41v-249h-41q-12 61 -51.5 85.5t-120.5 24.5q-59 0 -79 -15.5t-20 -62.5 v-217q0 -30 20.5 -40t102.5 -13v-41h-410zM991 0v41q52 3 79.5 26.5t27.5 63.5v565q0 36 -20 49.5t-87 16.5v41h369v-41q-65 -3 -88 -18t-23 -48v-544q0 -63 28 -83t122 -20q90 0 153.5 18t92 44t45 52t28 44t25.5 18q8 0 13 -7.5t5 -16.5q0 -7 -4 -27l-39 -174h-727z" />
</font>
</defs>
</svg>
