<?xml version="1.0" standalone="no"?>
<!DOCTYPE svg PUBLIC "-//W3C//DTD SVG 1.1//EN" "http://www.w3.org/Graphics/SVG/1.1/DTD/svg11.dtd" >
<svg xmlns="http://www.w3.org/2000/svg">
<metadata></metadata>
<defs>
<font id="granjonroman" horiz-adv-x="909" >
<font-face units-per-em="2048" ascent="1638" descent="-410" />
<missing-glyph horiz-adv-x="454" />
<glyph horiz-adv-x="2048" />
<glyph horiz-adv-x="2048" />
<glyph unicode="&#xd;" horiz-adv-x="2048" />
<glyph unicode=" "  horiz-adv-x="454" />
<glyph unicode="&#x09;" horiz-adv-x="454" />
<glyph unicode="&#xa0;" horiz-adv-x="454" />
<glyph unicode="!" horiz-adv-x="681" d="M248 1208q0 64 23.5 102t70.5 38q94 0 94 -125q0 -35 -3 -73.5t-9 -95t-8 -81.5l-70 -703h-35l-18 332q-3 50 -24 304.5t-21 301.5zM254 72q0 37 25.5 62.5t62.5 25.5t62.5 -25.5t25.5 -62.5t-25.5 -62.5t-62.5 -25.5t-62.5 25.5t-25.5 62.5z" />
<glyph unicode="&#x22;" horiz-adv-x="681" d="M125 1149q-13 166 70 166q28 0 44.5 -17t20.5 -48.5t4 -51.5t-2 -49l-35 -418l-1 -12q-1 -12 -2.5 -18t-4.5 -15t-9 -13.5t-15 -4.5q-8 0 -14 4t-9.5 8.5t-6 13.5t-3 13.5l-1.5 13.5t-1 10zM418 1198q0 20 4 51.5t20.5 48.5t44.5 17q83 0 70 -166l-35 -418q0 -1 -1 -10 l-1.5 -13.5t-3 -13.5t-6 -13.5t-9.5 -8.5t-14 -4q-9 0 -15 4.5t-9 13.5t-4.5 15t-2.5 18l-1 12l-35 418q-2 29 -2 49z" />
<glyph unicode="#" d="M0 416v90h217l39 285h-205v90h217l58 417h104l-59 -417h250l57 417h104l-59 -417h188v-90h-202l-39 -285h190v-90h-203l-57 -416h-104l59 416h-250l-57 -416h-105l60 416h-203zM317 506h252l39 285h-252z" />
<glyph unicode="$" d="M33 160q0 26 15 45.5t48 19.5q22 0 46 -12.5t41.5 -27.5t50.5 -45.5t57 -49.5v533q-225 99 -225 344q0 106 63 194t162 127v203h74v-182q41 6 69 6q32 0 66 -6v182h73v-197q102 -27 170 -72.5t68 -84.5q0 -25 -14 -38.5t-39 -13.5q-24 0 -43.5 12.5t-33 31t-43 47.5 t-65.5 53v-518q37 -14 66.5 -28t67.5 -43.5t63 -65t43 -93t18 -127.5q0 -53 -10.5 -99t-26 -78.5t-40.5 -61t-45.5 -46t-50 -34t-45.5 -23.5t-40 -16v-189h-73v179q-23 -2 -72 -2q-38 0 -63 2v-179h-74v189q-129 29 -193.5 74.5t-64.5 89.5zM156 993q0 -49 11.5 -85t36 -59 t41 -33.5t46.5 -24.5v444q-54 -32 -94.5 -92t-40.5 -150zM365 57q37 -12 77 -12q26 0 58 8v516q-12 3 -135 37v-549zM365 768q26 -7 71.5 -19.5t63.5 -17.5v526q-30 9 -64 9t-71 -9v-489zM573 76q61 28 98.5 93.5t37.5 162.5q0 82 -41.5 136t-94.5 81v-473z" />
<glyph unicode="%" horiz-adv-x="1593" d="M125 887q0 90 40.5 177t103.5 149t142 100.5t154 38.5q153 0 178 -148q48 -39 121 -39q63 0 120.5 16t96.5 37t78 55.5t58 56t45 54.5h75l-1011 -1400h-90l847 1171l-4 4q-114 -47 -223 -47q-44 0 -108 27q-26 -207 -142 -355.5t-252 -148.5q-104 0 -166.5 74.5 t-62.5 177.5zM231 827q0 -65 36 -104t95 -39q79 0 158.5 76.5t128.5 192.5t49 227q-27 24 -38 43.5t-21 64.5q-31 15 -70 15q-75 0 -156.5 -87t-131.5 -198.5t-50 -190.5zM840 236q0 90 40.5 176.5t103.5 149t142 100.5t154 38q184 0 184 -208q0 -62 -29.5 -147t-79 -166.5 t-126.5 -138t-160 -56.5q-104 0 -166.5 74.5t-62.5 177.5zM946 176q0 -143 131 -143q86 0 166.5 82.5t126 193.5t45.5 205q0 63 -31.5 100t-87.5 37q-61 0 -126.5 -52.5t-113.5 -126.5t-79 -156t-31 -140z" />
<glyph unicode="&#x26;" horiz-adv-x="1175" d="M59 252q0 101 53 187.5t175 183.5q-111 96 -111 172q0 53 31 112.5t89 102.5t124 43q63 0 100 -33.5t37 -95.5q0 -63 -32 -123t-99 -133q31 -35 156 -160.5t168 -175.5q27 51 54.5 123t26.5 112q-2 29 -32 49t-92 23v41h364v-41q-64 -12 -94.5 -24.5t-54.5 -43.5 q-28 -38 -71.5 -147t-59.5 -143q1 -2 31.5 -41t51 -62.5t54 -47.5t59.5 -24q21 0 37 11.5t23.5 25.5t16.5 25.5t17 11.5q21 0 21 -18q0 -5 -10.5 -31.5t-28.5 -60t-50 -60t-67 -26.5q-89 0 -229 180q-55 -62 -100.5 -98t-110.5 -59t-146 -23q-74 0 -133 24.5t-94.5 64 t-54.5 85.5t-19 94zM162 342q0 -74 46 -135.5t108.5 -93t121.5 -31.5q70 0 134.5 39t103.5 90q-39 49 -162.5 184.5t-187.5 196.5q-84 -60 -124 -127t-40 -123zM254 862q0 -77 133 -160q58 47 80 80q29 43 29 88q0 53 -29.5 87t-75.5 34q-60 0 -98.5 -41.5t-38.5 -87.5z" />
<glyph unicode="'" horiz-adv-x="454" d="M156 1198q0 20 4 51.5t20.5 48.5t44.5 17q83 0 70 -166l-35 -418q0 -1 -1 -10l-1.5 -13.5t-3 -13.5t-6 -13.5t-9.5 -8.5t-14 -4q-9 0 -15 4.5t-9 13.5t-4.5 15t-2.5 18l-1 12l-35 418q-2 29 -2 49z" />
<glyph unicode="(" horiz-adv-x="569" d="M94 492q0 255 111 480.5t311 411.5v-45q-81 -99 -138.5 -216.5t-86 -229.5t-41 -204.5t-12.5 -176.5q0 -229 79 -462t195 -369v-46q-28 20 -71.5 63.5t-106 126.5t-114.5 178t-89 226t-37 263z" />
<glyph unicode=")" horiz-adv-x="569" d="M53 -319q81 99 139 216.5t86.5 229.5t41 204.5t12.5 176.5q0 229 -79.5 462t-195.5 369v45q28 -20 71.5 -63.5t106 -126t114.5 -177.5t89 -226t37 -263q0 -255 -111 -481t-311 -412v46z" />
<glyph unicode="*" d="M78 1067q0 21 15 36t36 15q9 0 18 -1.5t15 -3t15 -6t12.5 -6t13.5 -7.5t12 -7l180 -104l17 12l-111 181l-7 10.5t-6.5 10t-5.5 8.5t-5 8.5t-3.5 7.5t-3.5 8.5t-2 8t-1.5 8.5t-0.5 9q0 23 16.5 39.5t39.5 16.5q49 0 75 -115l43 -192h25l37 170q15 73 32.5 98.5t47.5 25.5 q25 0 40 -13.5t15 -35.5q0 -21 -8 -40.5t-33 -59.5l-102 -154l16 -12l188 107q55 32 82 32q19 0 32 -15t13 -38q0 -27 -15.5 -41t-57.5 -24l-232 -60v-18l228 -52q81 -17 81 -73q0 -47 -59 -47q-40 0 -104 43l-158 104l-16 -14l106 -178q37 -63 37 -97q0 -17 -14 -32 t-37 -15q-28 0 -48.5 26.5t-29.5 72.5l-47 217h-21l-51 -242q-8 -39 -22.5 -56.5t-40.5 -17.5q-23 0 -39.5 15t-16.5 34q0 37 45 117l95 160l-15 10l-147 -102q-61 -43 -123 -43q-17 0 -29 12t-12 31q0 26 27.5 46.5t72.5 31.5l203 49v18l-219 51q-39 9 -63.5 28.5 t-24.5 43.5z" />
<glyph unicode="+" horiz-adv-x="1228" d="M219 350v90h350v351h90v-351h351v-90h-351v-350h-90v350h-350z" />
<glyph unicode="," horiz-adv-x="454" d="M90 -311q193 106 193 229q0 30 -18 46t-44 22t-52.5 13t-44.5 28.5t-18 60.5q0 49 31 81t88 32q65 0 110.5 -59.5t45.5 -133.5q0 -234 -291 -352v33z" />
<glyph unicode="-" horiz-adv-x="681" d="M90 326v90q248 33 508 49v-90q-246 -28 -508 -49z" />
<glyph unicode="." horiz-adv-x="454" d="M119 92q0 44 32 76.5t76 32.5t76.5 -32.5t32.5 -76.5t-32.5 -76t-76.5 -32t-76 32t-32 76z" />
<glyph unicode="/" horiz-adv-x="569" d="M-47 -16l573 1331h92l-573 -1331h-92z" />
<glyph unicode="0" d="M74 649q0 190 45 340.5t132.5 238t203.5 87.5t203.5 -87.5t132.5 -238t45 -340.5t-45 -340t-132.5 -237.5t-203.5 -87.5t-203.5 87.5t-132.5 237.5t-45 340zM225 649q0 -333 53.5 -478.5t176.5 -145.5t176 145t53 479t-53 479.5t-176 145.5t-176.5 -146t-53.5 -479z" />
<glyph unicode="1" d="M209 1167v33q172 20 272 100q20 15 31 15q18 0 18 -19v-1079q0 -117 29.5 -150.5t132.5 -33.5v-33h-479v33q106 0 136 33.5t30 150.5v834q0 50 -11 72.5t-46.5 33t-112.5 10.5z" />
<glyph unicode="2" d="M49 0v41q55 58 119.5 133t146 183.5t146 210.5t109 209.5t44.5 185.5q0 116 -70 185t-167 69q-175 0 -277 -152l-34 16q61 99 161.5 166.5t218.5 67.5q74 0 133.5 -26.5t96 -70t55.5 -96t19 -108.5q0 -119 -106.5 -290t-399.5 -527q-12 -15 -28 -33.5t-23 -27t-7 -11.5 q0 -6 25 -6h342q97 0 156 59l7.5 7.5l7 7l6 6t5.5 5t4.5 4t4.5 3.5l4 2t4 1.5t4 0.5q9 0 15.5 -6.5t6.5 -15.5q0 -15 -65 -193h-664z" />
<glyph unicode="3" d="M35 72q0 39 41 39q24 0 56.5 -19.5t74.5 -39t90 -19.5q39 0 81 9.5t89 33t83.5 58.5t60.5 92.5t24 127.5q0 93 -54 163t-133 103t-165 33q-52 0 -52 17q0 8 11.5 16.5t50.5 31.5q3 2 5 3t5 3t6 3.5t6 3.5q18 10 25 14.5t39 25.5t52 38t50.5 46.5t48.5 56t31.5 61.5 t13.5 69q0 102 -52.5 152.5t-137.5 50.5q-42 0 -82.5 -16t-65 -34t-67.5 -54l-25 22q138 152 328 152q118 0 182 -55t64 -154q0 -87 -69 -179t-183 -169q30 -12 46.5 -19t46.5 -21.5t48 -26t44 -30t41.5 -36.5t33.5 -43.5t28 -53t16.5 -62t6.5 -73.5q0 -50 -15.5 -102 t-53.5 -108t-94 -99.5t-147 -71.5t-202 -28q-97 0 -164 24t-67 64z" />
<glyph unicode="4" d="M39 487v54l520 774h88v-721h160v-107h-160v-487h-135v487h-473zM135 594h377v559h-4z" />
<glyph unicode="5" d="M66 -16v32q39 2 83.5 9.5t100.5 23.5t108 38.5t102.5 58t87.5 78.5t60 104t23 131q0 172 -143.5 254t-399.5 82l90 503h459q32 0 55.5 11.5t34 25.5t23 25.5t24.5 11.5q9 0 15 -7t6 -17q0 -5 -5 -20t-20.5 -62t-32.5 -111l-520 8l-47 -241q58 8 80 8q116 0 215.5 -36.5 t166.5 -97.5t104.5 -142t37.5 -169q0 -51 -13.5 -100.5t-43 -104t-84 -102t-129.5 -88t-187.5 -68.5t-250.5 -38z" />
<glyph unicode="6" d="M74 487q0 58 9.5 122.5t34.5 142t62.5 150t99 143.5t139 126t187 94t238.5 50v-25q-126 -22 -226.5 -72.5t-161 -109t-102.5 -131.5t-60 -131.5t-26 -118.5q105 64 209 64q149 0 258 -109t109 -285q0 -76 -24 -144t-63 -116t-89 -83.5t-102.5 -52.5t-102.5 -17 q-100 0 -176.5 42t-122 114t-68 160t-22.5 187zM217 440q0 -193 68 -304t182 -111q112 0 172.5 97.5t60.5 270.5t-61.5 265t-171.5 92q-107 0 -178.5 -81t-71.5 -229z" />
<glyph unicode="7" d="M78 1018l135 366h41q0 -50 20 -67q19 -19 72 -19h535q-71 -180 -273 -624.5t-293 -673.5h-163q42 74 135.5 237.5t137 242t112 205.5t121.5 238t104 230h-430q-43 0 -63.5 -2t-43 -7.5t-36.5 -21.5t-29.5 -39t-36.5 -65h-45z" />
<glyph unicode="8" d="M109 281q0 204 247 372q-33 20 -55 36t-56 47t-54.5 63t-36 79.5t-15.5 100.5q0 88 38.5 163.5t119 124t188.5 48.5q129 0 211 -76t82 -195q0 -156 -182 -315q33 -23 53.5 -38.5t56 -52t56.5 -71.5t38 -90.5t17 -116.5q0 -158 -99.5 -267t-271.5 -109q-148 0 -242.5 88 t-94.5 209zM211 305q0 -131 70.5 -205.5t167.5 -74.5q36 0 76 14.5t79 43.5t64.5 82t25.5 120q0 46 -12.5 90t-41 91.5t-84.5 88t-134 66.5q-31 -19 -52 -34t-54 -45.5t-53.5 -61.5t-36 -77.5t-15.5 -97.5zM262 1071q0 -207 262 -299q34 30 55.5 52t46.5 56t37.5 74.5 t12.5 87.5q0 100 -52.5 166t-140.5 66q-103 0 -162 -59.5t-59 -143.5z" />
<glyph unicode="9" d="M61 8q126 22 226.5 72.5t161 109t102.5 131.5t60 131.5t26 118.5q-104 -63 -209 -63q-149 0 -258 108.5t-109 284.5q0 95 36 175.5t93 131t123 79t129 28.5q100 0 176.5 -42t122 -114.5t68 -160.5t22.5 -187q0 -58 -9.5 -122.5t-34.5 -142t-62.5 -150t-99 -143 t-139 -125.5t-187 -94t-238.5 -50v24zM205 905q0 -173 61.5 -264.5t171.5 -91.5q107 0 178.5 80.5t71.5 228.5q0 193 -68 304.5t-182 111.5q-112 0 -172.5 -98t-60.5 -271z" />
<glyph unicode=":" horiz-adv-x="454" d="M119 92q0 44 32 76.5t76 32.5t76.5 -32.5t32.5 -76.5t-32.5 -76t-76.5 -32t-76 32t-32 76zM119 698q0 44 32 76.5t76 32.5t76.5 -32.5t32.5 -76.5t-32.5 -76t-76.5 -32t-76 32t-32 76z" />
<glyph unicode=";" horiz-adv-x="454" d="M90 -311q193 106 193 229q0 30 -18 46t-44 22t-52.5 13t-44.5 28.5t-18 60.5q0 49 31 81t88 32q65 0 110.5 -59.5t45.5 -133.5q0 -234 -291 -352v33zM119 698q0 44 32 76.5t76 32.5t76.5 -32.5t32.5 -76.5t-32.5 -76t-76.5 -32t-76 32t-32 76z" />
<glyph unicode="&#x3c;" horiz-adv-x="1228" d="M219 350v90l791 363v-96l-680 -312l680 -311v-96z" />
<glyph unicode="=" horiz-adv-x="1228" d="M219 197v90h791v-90h-791zM219 504v90h791v-90h-791z" />
<glyph unicode="&#x3e;" horiz-adv-x="1228" d="M219 -12v96l680 311l-680 312v96l791 -363v-90z" />
<glyph unicode="?" horiz-adv-x="948" d="M227 72q0 37 25.5 62.5t62.5 25.5t62.5 -25.5t25.5 -62.5t-25.5 -62.5t-62.5 -25.5t-62.5 25.5t-25.5 62.5zM279 1288q0 60 71 60q50 0 97.5 -13.5t94.5 -45.5t82 -79t56.5 -120t21.5 -162q0 -121 -52 -201.5t-150 -87.5q-92 -6 -120.5 -18.5t-31.5 -55.5 q-11 -88 -14 -286h-39l4 512q46 -3 98 -3q148 0 202 31.5t54 104.5q0 31 -7.5 59.5t-16.5 50t-29.5 43t-33.5 34.5t-42 29.5t-41.5 23t-46 19.5t-41 15.5t-39.5 13.5q-42 14 -59.5 30.5t-17.5 45.5z" />
<glyph unicode="@" horiz-adv-x="1638" d="M154 618q0 153 56.5 284.5t152 221t224 140.5t269.5 51q176 0 320 -73.5t226.5 -204.5t82.5 -292q0 -76 -23.5 -155t-66 -147.5t-111.5 -112t-151 -43.5q-45 0 -81.5 17.5t-55.5 41.5t-29 45t-9 31h-2h-4q-9 -17 -24 -35t-41.5 -42t-67 -40t-86.5 -18q-78 -3 -132 55.5 t-54 183.5q0 78 28.5 159.5t77.5 148.5t122 110t153 43q30 0 52 -6.5t38 -23.5t22.5 -27t19.5 -34q3 -6 5 -9l20 78h132l-127 -492q-7 -28 -7 -55q0 -29 19 -49.5t59 -20.5q60 0 111.5 38t83 97t49.5 127t18 133q0 68 -23.5 140.5t-72 141t-115 122.5t-159 86.5t-197.5 32.5 q-115 0 -215 -44.5t-175 -126t-118 -205.5t-43 -276q0 -147 68.5 -274t200.5 -207t300 -80q184 0 383 88l25 -49q-78 -34 -129.5 -53.5t-128 -37t-147.5 -17.5q-145 0 -268 41.5t-205 107.5t-140 150.5t-84 169.5t-26 165zM678 526q0 -81 34.5 -119t86.5 -38q57 0 112.5 64 t90 161t34.5 190q0 121 -84 121q-37 0 -83.5 -26.5t-89.5 -73t-72 -121t-29 -158.5z" />
<glyph unicode="A" horiz-adv-x="1478" d="M78 0v41q43 5 70.5 17t55 36.5t57 81t62 131t83.5 205.5l159 410q8 21 20.5 51.5t20 49t15 39t11 33t3.5 19.5q0 22 10 37l92 139q17 25 35 25q11 0 18 -6.5t13.5 -25t13 -39.5t19.5 -61.5t28 -80.5l307 -789q30 -76 50 -119t39.5 -75t43 -46t47.5 -21t66 -11v-41h-510 v41q81 9 110.5 25.5t29.5 48.5q0 52 -33 139l-96 254h-457l-86 -234q-37 -96 -37 -137q0 -49 33.5 -71t99.5 -25v-41h-393zM483 565h414l-176 453q-20 54 -29 90h-4q-11 -36 -31.5 -91.5t-43 -113t-25.5 -65.5z" />
<glyph unicode="B" horiz-adv-x="1251" d="M100 0v41q103 0 132.5 33.5t29.5 150.5q0 113 6 444t6 404q0 117 -29 150.5t-130 33.5v41q46 0 134 -2t128 -2q35 0 95 2t103 2q249 0 377.5 -81t128.5 -222q0 -47 -11.5 -87t-28 -68t-46 -52.5t-53.5 -39t-63.5 -29.5t-62 -21.5t-62.5 -17.5v-4q53 -11 88.5 -20 t81 -24.5t75 -32.5t61 -43t50 -57.5t30 -75t11.5 -95.5q0 -78 -33 -138.5t-84.5 -97t-121.5 -60t-137 -32t-138 -8.5q-25 0 -111 4q-82 4 -123 4h-303zM438 125q0 -64 29 -78t151 -14q357 0 357 301q0 169 -104.5 246t-303.5 77q-86 0 -107.5 -21t-21.5 -99v-412zM438 786 q0 -54 23 -66.5t114 -12.5q173 0 251.5 65t78.5 193q0 154 -77.5 223t-243.5 69q-80 0 -113 -31.5t-33 -103.5v-336z" />
<glyph unicode="C" horiz-adv-x="1366" d="M66 616q0 195 82 353t239 252t363 94q116 0 266.5 -46t222.5 -114l-10 -254h-37q-15 49 -36.5 94t-60 98t-87 91.5t-121 64t-158.5 25.5q-90 0 -170.5 -39t-146 -115t-104 -201.5t-38.5 -283.5q0 -178 65 -317t181 -216t264 -77q152 0 269 92.5t180 244.5h41l-29 -204 q-54 -67 -187 -120.5t-302 -53.5q-163 0 -296 53t-216.5 142t-128.5 201.5t-45 235.5z" />
<glyph unicode="D" horiz-adv-x="1554" d="M61 0v41q67 0 103 6t58 28t28 55t6 95v848q0 117 -27 150.5t-120 33.5v41h534q83 0 172 -15t184 -46.5t178.5 -85.5t150.5 -125.5t106 -174.5t39 -224q0 -118 -39 -220.5t-106 -176t-156 -126t-190.5 -78.5t-207.5 -26h-713zM432 197q0 -53 18.5 -85t74 -51.5 t153.5 -19.5q272 0 431 155t159 427q0 292 -173 463t-466 171q-119 0 -158 -34t-39 -150v-876z" />
<glyph unicode="E" horiz-adv-x="1290" d="M66 0v41q87 0 125.5 14.5t52 50.5t14.5 119q8 532 8 848q0 118 -32 151t-148 33v41h987l43 -233h-33q-35 43 -54 65t-51 49.5t-62.5 39.5t-75 21t-101.5 9h-176q-77 0 -99 -14.5t-22 -67.5v-446h211q55 0 88 4.5t57 13.5t38 32.5t22.5 50t18.5 77.5h45v-446h-45 q-17 121 -56.5 159.5t-148.5 38.5h-230v-516q0 -52 27.5 -69t103.5 -17h271q51 0 85.5 3t66.5 15t53.5 27t49 47.5t50.5 67.5t59 96h39q-14 -37 -69 -305h-1112z" />
<glyph unicode="F" horiz-adv-x="1214" d="M37 0v41q87 0 125.5 14.5t52 50.5t14.5 119q0 45 4.5 384t4.5 464q0 117 -31 150.5t-141 33.5v41h1007q10 -38 37.5 -154.5t44.5 -162.5h-53q-41 60 -60 87.5t-49.5 64t-43 49t-42.5 31t-46 21.5t-56 9t-70 6h-90h-168q-36 0 -46.5 -17t-12.5 -73l-8 -467h256 q55 0 88.5 4.5t56.5 13t37 31t22 46.5t19 71h45v-422h-45q-12 77 -31.5 115t-59 55t-114.5 17h-274v-398q1 -83 14.5 -119t52.5 -50.5t127 -14.5v-41h-567z" />
<glyph unicode="G" horiz-adv-x="1517" d="M74 629q0 140 54 265.5t149.5 218.5t235 147.5t300.5 54.5q311 0 500 -152q4 -34 5 -85q1 -30 1 -58v-36q-1 -21 -1 -44.5t1 -48.5h-37q-109 383 -461 383q-153 0 -278.5 -89t-194.5 -233.5t-69 -310.5q0 -106 21.5 -195t57 -151t83.5 -111t97.5 -78t103 -48t96 -26 t79.5 -7q150 0 220 46.5t73 123.5l8 153q1 17 1 33q0 88 -29 117q-35 34 -156 34v41h512v-41q-52 0 -80 -6t-45.5 -28t-22.5 -54.5t-6 -95.5l-4 -237q-213 -127 -463 -127q-157 0 -286.5 40t-214 104.5t-142.5 150t-83 173t-25 177.5z" />
<glyph unicode="H" horiz-adv-x="1669" d="M76 0v41q109 0 139.5 33.5t30.5 150.5v848q0 117 -29.5 150.5t-130.5 33.5v41h520v-41q-119 0 -151.5 -33t-32.5 -151v-360h819v360q0 62 -6 95t-27 55t-55.5 28t-99.5 6v41h526v-41q-103 0 -132.5 -33.5t-29.5 -150.5v-848q0 -117 29.5 -150.5t132.5 -33.5v-41h-537v41 q68 0 105 6t59.5 28t28.5 55t6 95v418h-819v-418q0 -62 6 -95t27.5 -55t56.5 -28t100 -6v-41h-536z" />
<glyph unicode="I" horiz-adv-x="720" d="M86 0v41q101 0 130.5 33.5t29.5 150.5v848q0 117 -29.5 150.5t-130.5 33.5v41h520v-41q-119 0 -151.5 -33t-32.5 -151v-848q0 -117 28.5 -150.5t127.5 -33.5v-41h-492z" />
<glyph unicode="J" horiz-adv-x="720" d="M43 -332q60 24 102 61t67 83.5t39 117t18.5 143.5t4.5 181v819q0 117 -28 150.5t-123 33.5v41h504v-41q-113 0 -144.5 -33t-31.5 -151v-813q0 -104 -10.5 -183.5t-37 -153.5t-72.5 -127t-117.5 -94.5t-170.5 -66.5v33z" />
<glyph unicode="K" horiz-adv-x="1517" d="M86 0v41q101 0 130.5 33.5t29.5 150.5v848q0 117 -29.5 150.5t-130.5 33.5v41h496v-41q-101 0 -130.5 -33.5t-29.5 -150.5v-459l315 301q193 184 193 265q0 36 -36 54q-32 16 -85 15h-12v41l479 8v-32q-69 0 -119.5 -21t-103.5 -74l-422 -428l590 -579q119 -120 249 -123 v-41h-587v41q125 0 125 55q0 49 -154 203l-340 336l-92 -84v-326q0 -117 28.5 -150.5t127.5 -33.5v-41h-492z" />
<glyph unicode="L" horiz-adv-x="1290" d="M61 0v41q70 0 107.5 6t60.5 28t29 54.5t6 95.5v848q0 117 -30.5 150.5t-139.5 33.5v41h547v-41q-69 0 -106 -6t-60 -28t-29 -55t-6 -95v-848q0 -51 3 -79.5t9.5 -50t23 -30.5t37.5 -12.5t60 -3.5h160q69 0 129.5 11.5t123 39.5t118 82.5t98.5 132.5h47l-65 -327 q-141 8 -207 10q-68 2 -199 2h-717z" />
<glyph unicode="M" horiz-adv-x="1744" d="M76 0v41q48 8 75.5 18.5t49.5 34t32 62t15 100.5q13 176 22 420.5t9 347.5q0 55 -2.5 89.5t-11.5 61.5t-19.5 41t-34.5 23.5t-48.5 12.5t-68.5 5v41h338l365 -827q9 -20 27.5 -59.5t32.5 -72t26 -67.5l493 1026h316v-41q-121 -7 -159 -47t-38 -159q0 -32 4 -176t9 -355 t8 -370q1 -59 39 -81t137 -28v-41h-516v41q110 6 146 30q34 23 34 82v7q-2 92 -8 420.5t-13 502.5h-4q-42 -90 -156.5 -331t-190.5 -410t-138 -322h-29q-10 22 -65 157.5t-93 211.5q-103 205 -323 719h-4q-1 -179 -9 -465t-8 -369q0 -129 39 -181t148 -52v-41h-426z" />
<glyph unicode="N" horiz-adv-x="1630" d="M59 1257v41h324q45 -54 145.5 -166t225 -247.5t231.5 -251t210.5 -226.5t115.5 -124q10 403 10 788q0 93 -39 133t-152 53v41h441v-41q-108 -13 -148.5 -54t-40.5 -132q0 -145 -26 -1071h-37q-35 56 -155 188.5t-256 273.5t-301 323.5t-271 316.5h-6v-797q0 -72 5 -114.5 t14 -72t32.5 -44t50 -21.5t76.5 -12v-41h-416v41q56 6 84 15t52 36t32 77t8 136v764q0 56 -12 91.5t-41 55t-63.5 28t-92.5 13.5z" />
<glyph unicode="O" horiz-adv-x="1517" d="M80 649q0 292 188 479t490 187t490 -187t188 -479t-188 -478.5t-490 -186.5t-490 186.5t-188 478.5zM268 649q0 -298 122 -461t368 -163t367.5 163t121.5 461t-121.5 461.5t-367.5 163.5t-368 -163.5t-122 -461.5z" />
<glyph unicode="P" horiz-adv-x="1175" d="M72 1257v41h561q67 0 131 -10t128.5 -35t112 -63.5t77.5 -100t30 -139.5q0 -110 -49 -190t-136.5 -124.5t-192 -64.5t-232.5 -20v49q434 0 434 340q0 70 -23 125.5t-58.5 89t-82.5 55.5t-91 30.5t-89 8.5q-103 0 -132.5 -33.5t-29.5 -150.5v-840q0 -118 32 -151t150 -33 v-41h-532v41q112 0 143 33t31 151v848q0 118 -32 151t-150 33z" />
<glyph unicode="Q" horiz-adv-x="1517" d="M80 649q0 292 188 479t490 187t490 -187t188 -479q0 -276 -169.5 -459.5t-447.5 -205.5q171 -287 551 -287v-41q-178 0 -297 14.5t-212.5 52.5t-151 103t-93.5 166q-245 46 -390.5 224t-145.5 433zM268 649q0 -298 122 -461t368 -163t367.5 163t121.5 461t-121.5 461.5 t-367.5 163.5t-368 -163.5t-122 -461.5z" />
<glyph unicode="R" horiz-adv-x="1327" d="M86 0v41q110 0 141 33.5t31 150.5q0 133 4 413q3 217 2 360v75q0 117 -27.5 150.5t-121.5 33.5v41h397q170 0 291 -34t191.5 -110t70.5 -191q0 -65 -27 -119.5t-61.5 -85.5t-83.5 -56t-76 -33.5t-55 -15.5l338 -499q40 -60 81 -86.5t95 -26.5v-41h-227q-11 0 -20 4 t-26 21.5t-38 50.5l-353 547h-178v-398q0 -118 31.5 -151t146.5 -33v-41h-526zM434 672q241 0 342 62.5t101 232.5q0 134 -90.5 208t-217.5 74q-84 0 -109.5 -21.5t-25.5 -84.5v-471z" />
<glyph unicode="S" horiz-adv-x="1024" d="M84 377h31q10 -28 17.5 -46.5t27 -59t39 -69t51 -64.5t65.5 -58.5t81 -38.5t98 -16q54 0 105 16t94 47t69 82.5t26 116.5q0 59 -23 106.5t-62 80t-89.5 60t-106 51t-111.5 48t-106.5 55.5t-89.5 69t-62 93.5t-23 124.5q0 65 24.5 123.5t74 108t134.5 79t195 29.5 q184 0 305 -62v-272h-33q-46 141 -124 217t-181 76q-54 0 -108 -23t-95 -75.5t-41 -122.5q0 -55 23 -100t62 -77.5t89.5 -61t106.5 -54t112 -51.5t106.5 -58.5t89.5 -70.5t62 -92t23 -119t-29 -131t-84 -123.5t-146.5 -94t-203.5 -36.5q-82 0 -196.5 18t-143.5 45 q-12 10 -20.5 40.5t-14 73.5t-9 79.5t-6 81t-3.5 55.5z" />
<glyph unicode="T" horiz-adv-x="1441" d="M57 997l88 346h43q59 -65 181 -65h770q91 0 124 11.5t80 53.5h29v-346h-29q-15 56 -35.5 94.5t-47.5 63.5t-67.5 38.5t-87 18.5t-114.5 5q-49 0 -73.5 -1t-50 -7.5t-35 -16.5t-18 -32.5t-10 -49.5t-1.5 -74q0 -106 -9.5 -434.5t-9.5 -376.5q0 -107 40.5 -142.5 t168.5 -41.5v-41h-587v41q75 0 114.5 6t63.5 28t30.5 54.5t6.5 95.5q0 48 9 376.5t9 434.5v56t-3.5 41.5t-6 31.5t-13 20t-19 13.5t-30 6t-39.5 3.5h-53q-153 0 -236.5 -52t-136.5 -159h-45z" />
<glyph unicode="U" horiz-adv-x="1517" d="M61 1257v41h555v-41q-77 0 -117.5 -6t-65 -28t-30.5 -54.5t-6 -95.5v-647q0 -161 110 -260.5t300 -99.5q106 0 179 28.5t115.5 86.5t62.5 134.5t24 184.5l20 573v15q0 90 -44 128q-48 40 -150 41v41h440v-41q-46 -5 -73 -15t-48 -28t-31 -55t-15.5 -86t-8.5 -131 l-16 -479q-2 -79 -14 -142t-45.5 -128.5t-87 -109t-144 -71.5t-211.5 -28q-257 0 -392 111t-135 335v643q0 117 -31 150.5t-141 33.5z" />
<glyph unicode="V" horiz-adv-x="1441" d="M57 1257v41h533v-41q-57 0 -94.5 -7.5t-55.5 -23t-24 -32.5t-6 -43q0 -39 41.5 -144t138.5 -337.5t178 -446.5q32 74 94 213.5t101 228t81.5 192t64 170.5t21.5 99q0 61 -42.5 93t-131.5 38v41h445v-41q-50 -9 -79.5 -26t-61.5 -61.5t-74 -133.5q-109 -230 -172.5 -367 t-153.5 -346.5t-133 -338.5h-33l-483 1171q-41 102 -154 102z" />
<glyph unicode="W" horiz-adv-x="2009" d="M53 1257v41h475v-41q-74 0 -104.5 -25t-30.5 -89q0 -33 11 -76.5t20.5 -69t37.5 -91t36 -85.5l215 -534l250 690l-66 168q-29 71 -57.5 90.5t-98.5 21.5v41h508v-41q-168 0 -168 -94q0 -35 34.5 -133t114 -318.5t150.5 -439.5h4q4 11 52.5 135t79.5 208t73 203.5 t64 205.5t22 129q0 55 -34 75.5t-117 28.5v41h430v-41q-41 -2 -67.5 -11t-55.5 -41t-51 -91l-441 -1130h-28q-32 120 -151 436t-159 450h-4q-50 -142 -163 -440t-166 -446h-21l-430 1108q-37 97 -69 129.5t-95 35.5z" />
<glyph unicode="X" horiz-adv-x="1441" d="M49 0v41q39 9 66.5 17.5t56.5 25.5t50 34.5t53 53t60.5 70.5t76.5 98l239 311l-342 479q-54 75 -90 95.5t-129 31.5v41h535v-41q-125 -5 -125 -63q0 -41 45 -113.5t168 -245.5q29 -41 45 -63q1 2 47.5 60.5t74 96t67.5 94t60.5 97t20.5 62.5q0 36 -33 54t-104 21v41h473 v-41q-180 -3 -358 -239l-220 -291l361 -518q53 -76 108.5 -115.5t137.5 -52.5v-41h-578v41q93 1 129.5 18.5t36.5 51.5q0 26 -18.5 66.5t-54 95.5t-68 101t-82 114t-74.5 104q-315 -374 -315 -461q0 -74 166 -90v-41h-486z" />
<glyph unicode="Y" horiz-adv-x="1366" d="M59 1257v41h498v-41q-127 0 -127 -61q0 -13 4.5 -29.5t17.5 -42t27 -50.5t42 -70.5t54 -86t71 -113t85 -136.5q56 89 115.5 178.5t90 134t57.5 88.5t36.5 70t9.5 51q0 36 -24.5 51.5t-83.5 15.5v41h375v-41q-57 -5 -102.5 -36.5t-112.5 -126.5l-338 -486v-383 q0 -46 2.5 -74t12.5 -50t21.5 -32.5t39 -17.5t54.5 -8t79 -2v-41h-594v41q52 1 79 2t54.5 8t39 17.5t21.5 32.5t12.5 50t2.5 74v385l-345 516q-50 74 -82 95.5t-92 35.5z" />
<glyph unicode="Z" horiz-adv-x="1290" d="M82 0q60 87 374.5 550t483.5 699h-385q-81 0 -137 -11t-108.5 -42.5t-94 -90t-80.5 -151.5h-47l62 389h43q22 -45 161 -45h838q-582 -817 -854 -1241q188 -8 283 -8q80 0 134.5 3.5t112 14.5t97.5 32t80 55.5t72.5 85t62.5 120.5h53l-59 -360h-1092z" />
<glyph unicode="[" horiz-adv-x="569" d="M133 -324v1672h383v-33h-248v-1606h244v-33h-379z" />
<glyph unicode="\" horiz-adv-x="569" d="M-47 1315h90l575 -1331h-90z" />
<glyph unicode="]" horiz-adv-x="569" d="M53 -291h248v1606h-244v33h379v-1672h-383v33z" />
<glyph unicode="^" horiz-adv-x="1228" d="M287 729l286 569h82l287 -569h-98l-230 461l-229 -461h-98z" />
<glyph unicode="_" horiz-adv-x="1024" d="M0 -154h1024v-102h-1024v102z" />
<glyph unicode="`" horiz-adv-x="530" d="M4 1202q0 24 18.5 37.5t49.5 13.5q32 0 51 -13.5t49 -51.5l213 -279h-63l-230 193q-65 53 -76 69q-12 16 -12 31z" />
<glyph unicode="a" horiz-adv-x="872" d="M61 143q0 35 9 62.5t31 50t48 39.5t70.5 33.5t88 29t110.5 29.5l110 29v166q0 100 -34.5 138t-104.5 38q-44 0 -74 -15.5t-42.5 -39t-24 -51t-19 -51t-25.5 -39t-46 -15.5q-27 0 -43.5 14t-16.5 41q0 38 51.5 86t133.5 83.5t157 35.5q108 0 170 -59.5t62 -186.5v-448 q0 -32 15 -46t36 -14q38 0 72 31l20 -23q-21 -33 -67.5 -55t-92.5 -22q-50 0 -87 32.5t-40 87.5q-131 -120 -268 -120q-87 0 -143 45.5t-56 113.5zM213 190q0 -60 34.5 -98.5t100.5 -38.5q73 0 180 84v246l-82 -21q-120 -30 -176.5 -70t-56.5 -102z" />
<glyph unicode="b" horiz-adv-x="985" d="M59 1262v22q0 21 31 33l172 67h31v-700q33 30 48.5 43t51 36.5t76 33.5t88.5 10q69 0 133 -23.5t119 -70t88 -125.5t33 -180q0 -184 -120 -304t-308 -120q-59 0 -134.5 16t-91.5 16q-27 0 -67.5 -16t-42.5 -16q-16 0 -16 16v1145q0 44 -11 59.5t-43 30.5q-23 10 -30 15.5 t-7 11.5zM293 254q0 -115 62 -172t155 -57q121 0 188.5 87t67.5 253q0 177 -70.5 274.5t-191.5 97.5q-49 0 -110 -28t-101 -76v-379z" />
<glyph unicode="c" horiz-adv-x="796" d="M61 377q0 81 25.5 151.5t69 120.5t99.5 86.5t117.5 54t123.5 17.5q90 0 153.5 -32t63.5 -85q0 -26 -19 -40.5t-43 -14.5q-28 0 -56 16t-48 35t-53 35t-70 16q-95 0 -157 -90t-62 -231q0 -83 25.5 -151.5t68 -110.5t93.5 -65t104 -23q57 0 110.5 26t85 52t35.5 26 q14 0 14 -10q0 -20 -43.5 -60.5t-121 -78t-152.5 -37.5q-50 0 -99 12.5t-97.5 42.5t-85 73.5t-59 112t-22.5 152.5z" />
<glyph unicode="d" horiz-adv-x="1062" d="M66 375q0 90 37 171.5t96.5 138t134.5 89.5t151 33q148 0 240 -80v401q0 99 -12 123.5t-64 24.5q-33 0 -43 3.5t-10 14.5q0 13 43 27q192 63 205 63q24 0 24 -22v-1241q0 -28 9.5 -38.5t29.5 -10.5q14 0 34.5 6t23.5 6q10 0 10 -18q0 -10 -4.5 -14.5t-22.5 -10.5 q-17 -6 -54 -16t-88 -22.5t-73 -18.5v112q-44 -35 -74 -55t-85 -38.5t-117 -18.5q-75 0 -140 23t-110.5 61.5t-77.5 88.5t-47.5 105.5t-15.5 112.5zM217 399q0 -165 82 -265.5t193 -100.5q70 0 141.5 45t83.5 80q8 16 8 135v186q0 150 -51.5 218.5t-171.5 68.5 q-133 0 -209 -101.5t-76 -265.5z" />
<glyph unicode="e" horiz-adv-x="833" d="M57 373q0 190 115.5 312t280.5 122q125 0 216 -84.5t91 -183.5q0 -11 -21 -11h-524q-14 -54 -14 -120q0 -143 82 -242.5t219 -99.5q59 0 113 21t124 69l25 -33q-85 -69 -155 -104t-160 -35q-88 0 -163.5 35.5t-124.5 92t-76.5 125t-27.5 136.5zM225 578h391 q-6 84 -56.5 136t-127.5 52q-83 0 -135 -54.5t-72 -133.5z" />
<glyph unicode="f" horiz-adv-x="645" d="M72 0v33q83 0 108 34t25 150v504h-119q0 38 22 52t97 30q2 128 28 233t77 183.5t132 121.5t185 43q85 0 138.5 -28.5t53.5 -75.5q0 -25 -17.5 -40t-45.5 -15q-29 0 -65.5 24.5t-76.5 49t-75 24.5q-191 0 -191 -405v-127h213q27 0 27 -21q0 -4 -2 -12t-4.5 -16.5 t-3.5 -10.5q-3 -10 -27 -10h-203v-504q0 -117 29.5 -150.5t130.5 -33.5v-33h-436z" />
<glyph unicode="g" horiz-adv-x="985" d="M37 -311q0 68 51 114.5t182 112.5q-63 31 -102 78.5t-39 91.5q0 30 24 53t81 57t85 56q-190 81 -190 268q0 132 89.5 209.5t232.5 77.5q76 0 173 -24.5t105 -24.5q20 0 75 12t85 12q69 0 69 -43q0 -26 -17 -40.5t-48 -14.5q-21 0 -51 12.5t-45 12.5q-45 0 -45 -43 q0 -22 13 -65.5t13 -96.5q0 -122 -94.5 -203.5t-216.5 -81.5q-54 0 -92 10q-13 -9 -40 -25.5t-41.5 -26.5t-27 -25.5t-12.5 -32.5q0 -22 14.5 -35t63.5 -23t126 -16t218 -12q209 -9 209 -178q0 -77 -29.5 -137t-76.5 -97t-113 -61t-132 -33.5t-139 -9.5q-64 0 -122.5 8.5 t-114 26.5t-88.5 53.5t-33 83.5zM180 -287q0 -73 79.5 -114t199.5 -41q86 0 157.5 23.5t118.5 75.5t47 124q0 46 -32.5 70.5t-127.5 37.5t-274 13q-70 -27 -119 -75t-49 -114zM260 530q0 -119 55 -194.5t156 -75.5q83 0 129.5 52t46.5 149q0 134 -55 219.5t-156 85.5 q-81 0 -128.5 -65t-47.5 -171z" />
<glyph unicode="h" horiz-adv-x="1062" d="M57 0v33q72 0 95.5 34.5t23.5 149.5v795q0 110 -8.5 159t-25 65.5t-60.5 29.5v32l137 64q49 22 66 22q16 0 25 -10t9 -24v-643q40 41 108 70.5t151 29.5q296 0 296 -285v-305q0 -115 24 -149.5t97 -34.5v-33h-368v33q62 0 83 35t21 149v270q0 250 -213 250 q-119 0 -199 -108v-412q0 -116 27 -150t115 -34v-33h-404z" />
<glyph unicode="i" horiz-adv-x="530" d="M74 0v33q72 0 95.5 34t23.5 146v281q0 107 -12 139.5t-56 38.5q-25 3 -34 8.5t-9 17.5q0 22 29 35q13 4 61 23.5t89.5 35t51.5 15.5q25 0 25 -23q0 -4 -1 -58.5t-1 -94.5v-418q0 -112 24 -146t97 -34v-33h-383zM176 1227q0 37 25.5 62.5t62.5 25.5t62.5 -25.5t25.5 -62.5 t-25.5 -62.5t-62.5 -25.5t-62.5 25.5t-25.5 62.5z" />
<glyph unicode="j" horiz-adv-x="569" d="M72 -451q86 42 129 101t43 166v602q0 134 -32 186t-112 64q-26 4 -26 22q0 11 24 21q38 15 81.5 33t67 27.5l47 19t35.5 13t17 3.5q41 0 41 -62v-808q0 -158 -90 -274t-225 -146v32zM170 1227q0 37 25.5 62.5t62.5 25.5t62.5 -25.5t25.5 -62.5t-25.5 -62.5t-62.5 -25.5 t-62.5 25.5t-25.5 62.5z" />
<glyph unicode="k" horiz-adv-x="1099" d="M72 0v33q72 0 95 34.5t23 149.5v887q0 79 -12 101.5t-67 49.5q-29 12 -29 31q0 18 27 27q10 3 60.5 22.5t91.5 34t50 14.5q23 0 23 -38v-916q68 28 192.5 126t124.5 151q0 24 -21 35t-67 16v33h346v-33q-73 -11 -142.5 -60t-258.5 -213l323 -338q95 -99 175 -114v-33 h-422v33q104 2 104 41q0 32 -108 148.5t-183 180.5l-63 -43v-143q0 -115 24.5 -149.5t102.5 -34.5v-33h-389z" />
<glyph unicode="l" horiz-adv-x="530" d="M57 0v33q72 0 95.5 34.5t23.5 149.5v887q0 56 -6 80t-20.5 38t-53.5 33q-1 1 -6.5 4t-7 4t-5.5 4t-5 5t-2.5 6t-1.5 8q0 18 26 27q10 3 60.5 22.5t92 34t50.5 14.5q22 0 22 -38v-1129q0 -115 24.5 -149.5t102.5 -34.5v-33h-389z" />
<glyph unicode="m" horiz-adv-x="1630" d="M51 0v33q76 0 100.5 34.5t24.5 149.5v354q0 67 -14.5 90.5t-48.5 30.5q-23 5 -30 8.5t-7 10.5t41 28q15 8 41 22t41.5 22.5t34 17.5t31 13.5t20.5 4.5q13 0 21.5 -8.5t8.5 -22.5v-131q88 79 153 114.5t153 35.5q170 0 237 -143q14 9 54.5 40.5t68 50t76 35.5t98.5 17 q127 0 201 -74.5t74 -208.5v-307q0 -115 23.5 -149.5t96.5 -34.5v-33h-385v33q73 0 97 34.5t24 149.5v287q0 119 -42.5 170t-133.5 51q-120 0 -236 -98v-410q0 -116 26 -150t110 -34v-33h-418v33q87 0 113 34t26 150v293q0 122 -42.5 174.5t-131.5 52.5q-113 0 -238 -135 v-385q0 -115 24.5 -149.5t102.5 -34.5v-33h-395z" />
<glyph unicode="n" horiz-adv-x="1062" d="M51 0v33q84 0 109.5 34t25.5 150v383q0 34 -9 47t-40 33q-24 15 -24 27q0 11 7 17.5t27 16.5q5 3 13 8q114 70 139 70q23 0 23 -24v-84q32 21 49.5 31.5t55 29t79 27t88.5 8.5q40 0 76 -6.5t74.5 -25t66 -49t45.5 -83t18 -121.5v-305q0 -115 24 -149.5t97 -34.5v-33h-385 v33q73 0 97 34.5t24 149.5v270q0 250 -213 250q-56 0 -105.5 -31.5t-82.5 -70.5v-418q0 -115 24.5 -149.5t100.5 -34.5v-33h-404z" />
<glyph unicode="o" horiz-adv-x="948" d="M57 395q0 94 35 173.5t94 130.5t133 79.5t154 28.5t154 -28.5t133 -79.5t94 -130.5t35 -173.5q0 -125 -60.5 -220.5t-154 -143t-201.5 -47.5t-201.5 47.5t-154 143t-60.5 220.5zM221 395q0 -370 252 -370t252 370q0 371 -252 371t-252 -371z" />
<glyph unicode="p" horiz-adv-x="1024" d="M63 -451q84 19 103.5 36.5t19.5 72.5v932q0 35 -8.5 58t-21 33t-25 15.5t-21 11.5t-8.5 15q0 4 1.5 7t6 6.5t9 6t13 6.5t15 6t19 7t20.5 8q5 2 34.5 16t54 23.5t38.5 9.5q17 0 17 -22v-105q36 29 54.5 42.5t55 34t76.5 29.5t88 9q44 0 89 -10.5t94 -38.5t86 -71 t61 -114.5t24 -162.5q0 -85 -25 -159.5t-74.5 -135t-133.5 -96t-193 -35.5q-107 0 -202 45v-371q0 -31 3.5 -46t21 -28t45 -19.5t85.5 -15.5v-32h-422v32zM330 381q0 -100 8.5 -162t32.5 -108.5t68 -66t114 -19.5q69 0 121 27.5t82 74.5t44.5 104t14.5 123q0 99 -24.5 176.5 t-65.5 123t-89 68.5t-101 23q-91 0 -205 -98v-266z" />
<glyph unicode="q" horiz-adv-x="1062" d="M61 375q0 78 28 153t80 138t138.5 102t192.5 39q95 0 185.5 -20.5t119.5 -20.5q25 0 39 9t28 32l29 -4q-4 -78 -4 -150v-921q0 -113 23.5 -148t93.5 -35v-32h-408v32q93 0 120.5 34t27.5 149v307q-115 -55 -267 -55q-181 0 -303.5 115.5t-122.5 275.5zM213 424 q0 -84 34 -158t86.5 -121t112.5 -73.5t115 -26.5q77 0 150 39q27 15 35 32t8 60v367q0 104 -74 163.5t-201 59.5q-109 0 -187.5 -103.5t-78.5 -238.5z" />
<glyph unicode="r" horiz-adv-x="757" d="M86 0v33q75 0 99 34.5t24 149.5v365q0 37 -10 56t-39 32q-5 2 -11.5 5t-9.5 4.5t-6.5 3.5t-5.5 3.5t-3.5 3t-2 3.5t-0.5 5q0 11 15.5 20.5t78.5 37.5q30 13 52.5 26t31.5 20.5t17 12t16 4.5q20 0 20 -22v-68q0 -24 21 -24q5 0 40 25.5t87 51t98 25.5q42 0 66 -18.5 t24 -53.5q0 -69 -94 -69q-12 0 -52.5 3t-60.5 3q-129 0 -129 -148v-336q0 -94 24 -123t103 -32v-33h-393z" />
<glyph unicode="s" horiz-adv-x="681" d="M78 90q0 5 10 53t10 58q0 20 23 20q8 0 22 -30.5t30.5 -67.5t57 -67.5t95.5 -30.5q54 0 97.5 38t43.5 107q0 48 -27.5 86.5t-69 63t-90 52t-90 53.5t-69 68t-27.5 95q0 88 74.5 153.5t202.5 65.5q74 0 157 -27q15 -4 15 -16l4 -135q0 -17 -12 -17t-21 13 q-76 141 -174 141q-48 0 -79.5 -31.5t-31.5 -87.5q0 -41 20.5 -73.5t53.5 -54.5t72.5 -42t79.5 -42t73 -48t53.5 -66.5t20.5 -91.5q0 -38 -18.5 -79t-53 -79t-91.5 -62.5t-126 -24.5q-55 0 -111.5 18.5t-90 43t-33.5 44.5z" />
<glyph unicode="t" horiz-adv-x="606" d="M66 754q0 4 1.5 8t6 9.5t7 8.5t10 10t9.5 9q26 26 51.5 52.5t40 42t28.5 30t21.5 21.5t14.5 13t11.5 7.5t8.5 1.5q23 0 23 -33v-143h256v-70h-143q-66 0 -89.5 -28t-23.5 -120v-395q0 -64 35 -94.5t96 -30.5q32 0 143 17v-41q-6 -2 -24 -8.5t-26 -9.5t-25 -8t-29.5 -7.5 t-29.5 -5.5t-35 -4.5t-37 -1.5q-61 0 -104.5 17.5t-65.5 48.5t-31.5 64.5t-9.5 73.5v455q0 49 -4.5 62.5t-20.5 19.5q-4 1 -22.5 5t-30.5 9.5t-12 14.5z" />
<glyph unicode="u" horiz-adv-x="1062" d="M61 758v33l263 16v-545q0 -103 49.5 -156t130.5 -53q70 0 140.5 43.5t84.5 89.5v334q0 102 -10.5 147t-35.5 63t-85 28v33l274 16v-623q0 -96 52 -96q22 0 75 16v-47l-258 -65v125q-32 -30 -53.5 -47t-60.5 -40.5t-88 -34.5t-109 -11q-62 0 -108 15.5t-73 39.5t-43 61 t-21 74t-5 84v203q0 131 -10 188.5t-32 78t-77 30.5z" />
<glyph unicode="v" horiz-adv-x="948" d="M57 758v33h340v-33q-52 -1 -73 -16.5t-21 -49.5q0 -23 37.5 -112t91.5 -214t80 -202q184 462 184 532q0 53 -94 62v33h246v-33q-27 -3 -43.5 -17t-41 -63.5t-65.5 -157.5l-202 -536h-45l-275 651q-32 79 -50.5 98t-68.5 25z" />
<glyph unicode="w" horiz-adv-x="1478" d="M70 758v33h356v-33q-56 -4 -77 -21t-21 -51q0 -73 184 -504q51 91 125 238t74 170q0 8 -11 41l-24 53q-13 31 -41.5 51t-56.5 23v33h374v-33q-23 -4 -35.5 -7.5t-32 -12t-29 -23t-9.5 -35.5q0 -40 66 -210t126 -306q2 3 19.5 43.5t32 73.5t37 85t39.5 94.5t33 86.5 t25 75.5t9 47.5q0 37 -18.5 56t-67.5 32v33h274v-33q-56 -21 -87.5 -66.5t-98.5 -199.5l-223 -508h-49l-209 567l-267 -567h-45l-274 680q-36 86 -98 94z" />
<glyph unicode="x" horiz-adv-x="948" d="M57 0v33q60 10 95.5 30t83.5 80l182 232l-217 299q-34 47 -63.5 65.5t-65.5 18.5v33h368v-33q-57 0 -75.5 -8.5t-18.5 -28.5q0 -18 24.5 -55.5t68.5 -94t63 -84.5q5 6 20.5 25t23.5 28.5t22.5 28t23.5 30t21 27.5t19 27t14 23t10 20.5t3 14.5q0 47 -81 47v33h276v-33 q-34 -3 -65 -26.5t-93 -96.5l-166 -197l213 -284q69 -92 148 -121v-33h-369v33q107 0 107 43q0 16 -29.5 56.5t-78 100t-70.5 89.5q-144 -174 -168 -216q-11 -18 -11 -26q0 -44 84 -47v-33h-299z" />
<glyph unicode="y" d="M37 758v33h371v-33q-56 -1 -78.5 -18.5t-22.5 -55.5q0 -30 36 -119t85.5 -211.5t71.5 -208.5h4q21 69 66.5 203.5t71.5 219t26 110.5q0 39 -22.5 55t-67.5 25v33h253v-33q-38 -15 -59 -45.5t-57 -126.5l-299 -807q-20 -56 -39.5 -96.5t-46 -81.5t-60.5 -62.5t-73 -21.5 t-60.5 21t-21.5 50q0 37 30.5 57t110.5 38q33 7 47 14.5t30.5 34.5t37.5 86q49 133 49 153q0 11 -14 43l-261 637q-22 50 -43 73t-65 34z" />
<glyph unicode="z" horiz-adv-x="948" d="M90 0l4 27l553 714h-235q-183 0 -283 -188h-37l70 238h678l-553 -742h270q62 0 107.5 13t80.5 44.5t56 60.5t53 83h33l-62 -250h-735z" />
<glyph unicode="{" horiz-adv-x="569" d="M66 510q86 27 116.5 78t30.5 153v361q0 88 20.5 145.5t62.5 86.5t90 39.5t118 10.5v-22q-86 -22 -121 -82t-35 -168v-342q0 -117 -34 -175t-140 -83v-4q106 -25 140 -83t34 -175v-342q0 -108 35 -168t121 -82v-23q-70 0 -118 10.5t-90 39.5t-62.5 87t-20.5 146v361 q0 102 -30.5 153t-116.5 78z" />
<glyph unicode="|" horiz-adv-x="454" d="M182 0v1384h90v-1384h-90z" />
<glyph unicode="}" horiz-adv-x="569" d="M66 -342q86 22 120.5 81.5t34.5 168.5v342q0 117 34 175t140 83v4q-106 25 -140 83t-34 175v342q0 109 -34.5 168.5t-120.5 81.5v22q70 0 118 -10.5t89.5 -39.5t62 -86.5t20.5 -145.5v-361q0 -102 30.5 -153t117.5 -78q-87 -27 -117.5 -78t-30.5 -153v-361 q0 -88 -20.5 -146t-62 -87t-89.5 -39.5t-118 -10.5v23z" />
<glyph unicode="~" horiz-adv-x="1228" d="M254 358q72 136 195 136q65 0 174 -50q3 -2 18.5 -9t20 -9t18 -8.5t19.5 -8.5t17.5 -7t18.5 -6.5t16 -4t16.5 -3.5t14.5 -1q28 0 55.5 19t43 38.5t39.5 55.5l55 -66q-28 -41 -50 -66t-61 -47t-84 -22q-66 0 -159 53q-98 54 -179 54q-47 0 -77 -30.5t-56 -82.5z" />
<glyph unicode="&#xa1;" horiz-adv-x="681" d="M246 -432q0 35 3 73.5t9 95t8 81.5l70 702h35l18 -332q3 -50 24 -304.5t21 -301.5q0 -63 -23.5 -101t-70.5 -38q-94 0 -94 125zM252 719q0 37 25.5 62.5t62.5 25.5t62.5 -25.5t25.5 -62.5t-25.5 -62.5t-62.5 -25.5t-62.5 25.5t-25.5 62.5z" />
<glyph unicode="&#xa2;" d="M113 377q0 100 39 184t102 136.5t139 81t154 28.5q20 0 26 -2l86 252h66l-88 -260q57 -12 92 -40t35 -67q0 -26 -19 -40.5t-43 -14.5q-20 0 -40 8.5t-30.5 16.5t-33.5 26l-197 -573q68 -47 146 -47q57 0 110.5 26t85 52t35.5 26q15 0 15 -10q0 -14 -27.5 -42.5 t-69.5 -58.5t-103 -52.5t-118 -22.5t-113 18l-100 -289h-65l108 312q-86 43 -139 131t-53 221zM256 416q0 -161 94 -262l195 567q-29 16 -70 16q-95 0 -157 -90t-62 -231z" />
<glyph unicode="&#xa3;" d="M33 43q0 22 3 37.5t6.5 27.5t15.5 20t22 13t34 9.5t42.5 7t56.5 6.5q18 85 18 160q0 140 -28 319h-164v70h158q-13 115 -13 192q0 189 90 299.5t238 110.5q63 0 114 -20t79.5 -51t43.5 -63.5t15 -62.5q0 -41 -22.5 -66.5t-65.5 -25.5q-32 0 -54 23t-22 59q0 20 8 40t8 34 q0 40 -26 66t-72 26q-91 0 -136.5 -69.5t-45.5 -188.5q0 -114 24 -303h218v-70h-211q0 -156 -14 -247.5t-64 -227.5q58 4 71 4q54 0 161.5 -18.5t144.5 -18.5q42 0 71.5 7.5t50 26t30.5 32t26 41.5l24 -6q-4 -42 -19 -83t-41.5 -80.5t-73 -64t-105.5 -24.5q-90 0 -203 67 q-11 6 -34 19t-34 18.5t-26.5 13t-26.5 10.5t-20 3q-5 0 -11 -3t-14.5 -10.5t-14.5 -13.5t-17.5 -18t-18.5 -19q-67 -67 -127 -67q-49 0 -49 59z" />
<glyph unicode="&#xa4;" d="M57 319l88 89q-84 108 -84 241q0 134 84 242l-88 88l68 68l88 -89q108 84 242 84q137 0 241 -84l88 89l68 -68l-88 -88q84 -108 84 -242q0 -133 -84 -241l88 -89l-68 -67l-88 88q-108 -84 -241 -84q-134 0 -242 84l-88 -88zM164 649q0 -127 83 -215t208 -88t207.5 88 t82.5 215t-82.5 215t-207.5 88t-208 -88t-83 -215z" />
<glyph unicode="&#xa5;" d="M-25 1257v41h394v-41q-65 -7 -80 -15q-23 -13 -23 -46q0 -19 7 -42.5t28.5 -71.5t43 -90.5t70 -141.5t89.5 -182q45 90 91.5 179t70.5 133.5t45.5 88t29 70t7.5 51.5q0 37 -19.5 49.5t-66.5 17.5v41h294v-41q-27 -3 -38.5 -6t-33.5 -18t-45 -48.5t-53 -90.5l-149 -287 h227v-70h-262l-76 -143h338v-70h-338v-299q0 -46 2 -74.5t9.5 -50t16 -32t29.5 -17t41 -8t58 -2.5v-41h-463v41q41 1 62 2t43 8t30.5 17.5t16.5 32.5t10 50t2 74v299h-338v70h338v16l-66 127h-272v70h236l-168 319q-38 74 -63.5 95.5t-74.5 35.5z" />
<glyph unicode="&#xa6;" horiz-adv-x="454" d="M182 0v518h90v-518h-90zM182 866v518h90v-518h-90z" />
<glyph unicode="&#xa7;" horiz-adv-x="1024" d="M143 516q0 74 36 132.5t91 84.5q53 25 156 25q-116 98 -161.5 169t-45.5 144q0 99 77 171.5t206 72.5q65 0 118 -18.5t84.5 -48t48.5 -63t17 -65.5q0 -48 -30 -77t-70 -29q-39 0 -63.5 20t-24.5 58q0 24 11 43t23.5 28t23.5 19.5t11 21.5q0 24 -42 47t-101 23 q-94 0 -140 -48t-46 -108q0 -43 30.5 -90t80 -90.5t109 -90t118.5 -96t108.5 -99t80 -108t30.5 -116.5q3 -115 -74 -178t-205 -66q41 -34 66.5 -58t61 -64t53.5 -83.5t18 -89.5q0 -47 -17.5 -91.5t-53 -83.5t-96 -63t-138.5 -24q-117 0 -195 55.5t-78 143.5q0 49 32 76.5 t73 27.5q36 0 60 -22.5t24 -57.5q0 -22 -10 -39.5t-22 -26.5t-22 -21t-10 -25q0 -36 46.5 -53t111.5 -17q77 0 134.5 44.5t57.5 111.5q0 48 -30.5 96.5t-79.5 91.5t-107.5 87.5t-117.5 91.5t-108 96t-79.5 108.5t-30.5 120.5zM233 571q0 -69 70 -152t162 -138.5t156 -55.5 q76 0 121.5 39.5t45.5 104.5q0 62 -65 145t-161 143t-175 60q-69 0 -111.5 -40.5t-42.5 -105.5z" />
<glyph unicode="&#xa8;" horiz-adv-x="530" d="M-12 1063q0 40 28 68t68 28t68 -28t28 -68t-28 -68t-68 -28t-68 28t-28 68zM352 1063q0 40 28.5 68t68.5 28t68 -28t28 -68t-28 -68t-68 -28t-68.5 28t-28.5 68z" />
<glyph unicode="&#xa9;" horiz-adv-x="1638" d="M170 649q0 182 86 335t235.5 242t327.5 89t327.5 -89t235.5 -242t86 -335q0 -136 -51 -259t-137.5 -212t-207 -141.5t-253.5 -52.5t-253.5 52.5t-207 141.5t-137.5 212t-51 259zM268 649q0 -151 73.5 -285t201.5 -216t276 -82t276 82t201.5 216t73.5 285q0 113 -44 220 t-117.5 187t-176 128.5t-213.5 48.5t-213.5 -48.5t-176 -128.5t-117.5 -187t-44 -220zM455 668q0 49 15 99.5t48.5 99t81 86t117.5 60.5t153 23q101 0 199 -32q43 -15 43 -41v-136h-33q-5 74 -56.5 125.5t-158.5 51.5q-136 0 -206 -90t-72 -238q-2 -163 71.5 -260t221.5 -97 q165 0 233 168h31l-31 -133q-3 -14 -14 -21.5t-37 -15.5q-93 -30 -201 -30q-85 0 -156 22t-128 66t-89 119t-32 174z" />
<glyph unicode="&#xaa;" horiz-adv-x="524" d="M16 918q0 61 50.5 89.5t181.5 59.5l71 18v109q0 80 -90 80q-34 0 -54.5 -12t-29 -29t-14.5 -33.5t-18 -28.5t-33 -12q-39 0 -39 33q0 37 73.5 80t147.5 43q72 0 112 -33.5t40 -101.5v-281q0 -19 10 -29t22 -10q19 0 50 23l10 -15q-14 -20 -44 -34.5t-59 -14.5 q-32 0 -56.5 20.5t-27.5 53.5q-89 -74 -174 -74q-56 0 -92.5 29t-36.5 70zM115 946q0 -26 23.5 -47.5t64.5 -21.5q52 0 116 57v119l-53 -13q-151 -35 -151 -94z" />
<glyph unicode="&#xab;" horiz-adv-x="1024" d="M172 395v4q196 157 303 281q17 20 37 20q14 0 14 -16q0 -21 -101 -150t-101 -137t101 -138.5t101 -152.5q0 -16 -16 -16q-11 0 -54.5 43t-125.5 122t-158 140zM498 395v4q196 157 303 281q17 20 37 20q14 0 14 -16q0 -21 -101.5 -150t-101.5 -137t101.5 -138.5 t101.5 -152.5q0 -16 -16 -16q-11 0 -54.5 43t-125.5 122t-158 140z" />
<glyph unicode="&#xac;" horiz-adv-x="1228" d="M219 518v90h791v-426h-90v336h-701z" />
<glyph unicode="&#xad;" horiz-adv-x="681" d="M90 326v90q248 33 508 49v-90q-246 -28 -508 -49z" />
<glyph unicode="&#xae;" horiz-adv-x="1638" d="M170 649q0 182 86 335t235.5 242t327.5 89t327.5 -89t235.5 -242t86 -335q0 -136 -51 -259t-137.5 -212t-207 -141.5t-253.5 -52.5t-253.5 52.5t-207 141.5t-137.5 212t-51 259zM268 649q0 -151 73.5 -285t201.5 -216t276 -82t276 82t201.5 216t73.5 285q0 113 -44 220 t-117.5 187t-176 128.5t-213.5 48.5t-213.5 -48.5t-176 -128.5t-117.5 -187t-44 -220zM510 301v33q69 8 80 16q14 10 14 51v29v453v10q0 57 -10.5 68t-72.5 17q-7 1 -11 1v33h334q93 0 158 -44.5t65 -129.5q0 -74 -42.5 -127t-111.5 -76l111 -154q96 -127 154 -164v-16h-115 q-19 0 -37 13t-40 43.5t-41.5 63t-55 90t-68.5 105.5h-102v-186v-10q0 -54 8 -64q10 -13 63 -19q4 -1 12 -2q7 -1 11 -1v-33h-303zM719 649h92q69 0 105 47.5t36 132.5q0 79 -41 114.5t-106 35.5h-86v-330z" />
<glyph unicode="&#xaf;" horiz-adv-x="530" d="M-8 995v111h545v-111h-545z" />
<glyph unicode="&#xb0;" horiz-adv-x="819" d="M115 1022q0 123 86 208t209 85t209 -85t86 -208t-86 -208t-209 -85t-209 85t-86 208zM193 1022q0 -91 63.5 -157t153.5 -66t153.5 66t63.5 157t-63.5 157t-153.5 66t-153.5 -66t-63.5 -157z" />
<glyph unicode="&#xb1;" horiz-adv-x="1228" d="M219 0v90h791v-90h-791zM219 426v90h350v275h90v-275h351v-90h-351v-274h-90v274h-350z" />
<glyph unicode="&#xb2;" horiz-adv-x="544" d="M33 524v37q44 42 99.5 105t117 142.5t102.5 160t41 135.5q0 64 -42.5 102.5t-104.5 38.5q-117 0 -180 -88l-23 19q38 58 104.5 98.5t139.5 40.5q99 0 152 -53.5t53 -126.5q0 -79 -68.5 -188t-253.5 -294q-6 -6 -17.5 -16.5t-17.5 -16t-6 -8.5q0 -6 16 -6h215q71 0 101 27 q25 22 31 22q14 0 14 -14q0 -3 -7.5 -22.5t-18.5 -48.5t-17 -46h-430z" />
<glyph unicode="&#xb3;" horiz-adv-x="544" d="M23 569q0 8 6.5 15.5t15.5 7.5q19 0 63.5 -18t84.5 -17q33 -1 67.5 7.5t69.5 27.5t57.5 57.5t22.5 89.5q0 82 -69.5 130.5t-156.5 48.5q-34 0 -34 10q0 2 0.5 3.5t3 3t4.5 3.5t7 4.5t10 5.5t13.5 7.5t16.5 9.5l9 5q9 6 15.5 10l19.5 12t22.5 15.5t22.5 18.5t23 21t20 23 t17 25.5t11 27t4 28.5q0 56 -33 85.5t-88 29.5q-37 0 -67 -16t-70 -48l-17 23q90 90 213 90q72 0 118 -34t46 -91q0 -52 -46 -107.5t-122 -101.5q37 -13 59 -22t54.5 -28t50.5 -40t31.5 -54.5t13.5 -74.5q0 -38 -17.5 -78t-54 -79t-106 -64t-160.5 -25q-62 0 -106.5 15.5 t-44.5 37.5z" />
<glyph unicode="&#xb4;" horiz-adv-x="530" d="M106 909l213 279q30 38 49.5 51.5t51.5 13.5q31 0 49 -13.5t18 -37.5q0 -28 -75 -89q-8 -7 -13 -11l-229 -193h-64z" />
<glyph unicode="&#xb5;" horiz-adv-x="1062" d="M61 -451q54 10 76 30t32.5 78.5t10.5 188.5v615q0 131 -10 188.5t-32 78t-77 30.5v33l263 16v-545q0 -103 49.5 -156t130.5 -53q70 0 140.5 43.5t84.5 89.5v334q0 102 -10.5 147t-35.5 63t-85 28v33l274 16v-623q0 -96 52 -96q22 0 75 16v-47l-258 -65v125 q-32 -30 -53.5 -47t-60.5 -40.5t-88 -34.5t-109 -11q-67 0 -106 16v-483h-263v32z" />
<glyph unicode="&#xb6;" horiz-adv-x="1228" d="M164 893q0 215 99.5 310t328.5 95h508v-49q-59 -2 -90 -7t-50 -22t-23.5 -41.5t-4.5 -72.5v-1380q0 -48 5.5 -73t27 -40.5t48.5 -20.5t87 -10v-49h-287v1704h-125v-1704h-287v49q111 9 139.5 31.5t28.5 112.5v731q-203 0 -304 117t-101 319z" />
<glyph unicode="&#xb7;" horiz-adv-x="454" d="M119 395q0 44 32 76.5t76 32.5t76.5 -32.5t32.5 -76.5t-32.5 -76t-76.5 -32t-76 32t-32 76z" />
<glyph unicode="&#xb8;" horiz-adv-x="530" d="M-45 -344l31 55q99 -51 172 -51q47 0 79.5 19t32.5 59q0 42 -26 64t-92 22q-27 0 -48 -6l52 166l49 4l-25 -107q39 -4 64.5 -8.5t55 -14t46 -23t28 -36t11.5 -53.5q0 -56 -54 -95.5t-149 -39.5q-108 0 -227 45z" />
<glyph unicode="&#xb9;" horiz-adv-x="544" d="M117 1212v33q109 10 178 62q8 8 20 8q17 0 17 -15v-641q0 -64 18.5 -83t81.5 -19v-33h-311v33q63 0 81.5 19t18.5 83v484q0 44 -18 56.5t-86 12.5z" />
<glyph unicode="&#xba;" horiz-adv-x="569" d="M16 1067q0 113 81 180.5t190 67.5q108 0 188 -67.5t80 -180.5t-80 -180.5t-188 -67.5q-109 0 -190 67.5t-81 180.5zM123 1067q0 -41 7.5 -75.5t25 -65.5t51 -48.5t80.5 -17.5q46 0 79 17.5t50.5 48.5t25 65.5t7.5 75.5t-7.5 75.5t-25 65.5t-50.5 48.5t-79 17.5 q-47 0 -80.5 -17.5t-51 -48.5t-25 -65.5t-7.5 -75.5z" />
<glyph unicode="&#xbb;" horiz-adv-x="1024" d="M172 106q0 21 101.5 150t101.5 137t-101.5 138.5t-101.5 152.5q0 16 16 16q11 0 54.5 -43t125.5 -122t158 -140v-4q-199 -159 -303 -280q-18 -21 -37 -21q-14 0 -14 16zM498 106q0 21 101 150t101 137t-101 138.5t-101 152.5q0 16 16 16q11 0 54.5 -43t125.5 -122 t158 -140v-4q-199 -159 -303 -280q-18 -21 -37 -21q-14 0 -14 16z" />
<glyph unicode="&#xbc;" horiz-adv-x="1363" d="M117 1212v33q109 10 178 62q8 8 20 8q17 0 17 -15v-641q0 -64 18.5 -83t81.5 -19v-33h-311v33q63 0 81.5 19t18.5 83v484q0 44 -18 56.5t-86 12.5zM231 -16l926 1331h100l-925 -1331h-101zM825 287v37l338 467h70v-435h90v-69h-90v-287h-98v287h-310zM889 356h246v334h-5 z" />
<glyph unicode="&#xbd;" horiz-adv-x="1363" d="M117 1212v33q109 10 178 62q8 8 20 8q17 0 17 -15v-641q0 -64 18.5 -83t81.5 -19v-33h-311v33q63 0 81.5 19t18.5 83v484q0 44 -18 56.5t-86 12.5zM170 -16l926 1331h100l-926 -1331h-100zM852 0v37q44 42 99.5 105t117 142.5t102.5 160t41 135.5q0 64 -42.5 102.5 t-104.5 38.5q-117 0 -180 -88l-23 18q38 58 104.5 99t139.5 41q99 0 152 -54t53 -127q0 -79 -68 -187t-254 -294q-6 -6 -17.5 -16.5t-17.5 -16t-6 -8.5q0 -6 17 -6h215q70 0 100 27q25 22 31 22q14 0 14 -14q0 -3 -7.5 -22.5t-18.5 -48.5t-17 -46h-430z" />
<glyph unicode="&#xbe;" horiz-adv-x="1363" d="M23 569q0 8 6.5 15.5t15.5 7.5q19 0 63.5 -18t84.5 -17q33 -1 67.5 7.5t69.5 27.5t57.5 57.5t22.5 89.5q0 82 -69.5 130.5t-156.5 48.5q-34 0 -34 10q0 2 0.5 3.5t3 3t4.5 3.5t7 4.5t10 5.5t13.5 7.5t16.5 9.5l9 5q9 6 15.5 10l19.5 12t22.5 15.5t22.5 18.5t23 21t20 23 t17 25.5t11 27t4 28.5q0 56 -33 85.5t-88 29.5q-37 0 -67 -16t-70 -48l-17 23q90 90 213 90q72 0 118 -34t46 -91q0 -52 -46 -107.5t-122 -101.5q37 -13 59 -22t54.5 -28t50.5 -40t31.5 -54.5t13.5 -74.5q0 -38 -17.5 -78t-54 -79t-106 -64t-160.5 -25q-62 0 -106.5 15.5 t-44.5 37.5zM231 -16l926 1331h100l-925 -1331h-101zM825 287v37l338 467h70v-435h90v-69h-90v-287h-98v287h-310zM889 356h246v334h-5z" />
<glyph unicode="&#xbf;" horiz-adv-x="948" d="M246 -137q0 121 52.5 201.5t150.5 87.5q93 6 120.5 18.5t30.5 54.5q11 87 14 287h39l-4 -512q-31 2 -98 2q-101 0 -157.5 -15t-77.5 -43.5t-21 -76.5q0 -31 7.5 -59.5t17 -50.5t29 -43t33.5 -34.5t42 -29.5t42 -23.5t45.5 -19.5t41 -15.5t39.5 -13.5q42 -14 60 -30.5 t18 -45.5q0 -59 -72 -59q-50 0 -97.5 13.5t-94.5 45.5t-82 79t-56.5 120t-21.5 162zM545 719q0 37 25.5 62.5t62.5 25.5t62.5 -25.5t25.5 -62.5t-25.5 -62.5t-62.5 -25.5t-62.5 25.5t-25.5 62.5z" />
<glyph unicode="&#xc0;" horiz-adv-x="1478" d="M78 0v41q43 5 70.5 17t55 36.5t57 81t62 131t83.5 205.5l159 410q8 21 20.5 51.5t20 49t15 39t11 33t3.5 19.5q0 22 10 37l92 139q17 25 35 25q11 0 18 -6.5t13.5 -25t13 -39.5t19.5 -61.5t28 -80.5l307 -789q30 -76 50 -119t39.5 -75t43 -46t47.5 -21t66 -11v-41h-510 v41q81 9 110.5 25.5t29.5 48.5q0 52 -33 139l-96 254h-457l-86 -234q-37 -96 -37 -137q0 -49 33.5 -71t99.5 -25v-41h-393zM483 565h414l-176 453q-20 54 -29 90h-4q-11 -36 -31.5 -91.5t-43 -113t-25.5 -65.5zM504 1665q0 24 18 37.5t49 13.5q32 0 51.5 -13.5t49.5 -51.5 l213 -279h-64l-229 193q-65 53 -76 69q-12 16 -12 31z" />
<glyph unicode="&#xc1;" horiz-adv-x="1478" d="M78 0v41q43 5 70.5 17t55 36.5t57 81t62 131t83.5 205.5l159 410q8 21 20.5 51.5t20 49t15 39t11 33t3.5 19.5q0 22 10 37l92 139q17 25 35 25q11 0 18 -6.5t13.5 -25t13 -39.5t19.5 -61.5t28 -80.5l307 -789q30 -76 50 -119t39.5 -75t43 -46t47.5 -21t66 -11v-41h-510 v41q81 9 110.5 25.5t29.5 48.5q0 52 -33 139l-96 254h-457l-86 -234q-37 -96 -37 -137q0 -49 33.5 -71t99.5 -25v-41h-393zM483 565h414l-176 453q-20 54 -29 90h-4q-11 -36 -31.5 -91.5t-43 -113t-25.5 -65.5zM606 1372l213 279q30 38 49.5 51.5t51.5 13.5q31 0 49 -13.5 t18 -37.5q0 -28 -75 -89q-2 -2 -4 -3.5t-4.5 -3.5t-4.5 -4l-229 -193h-64z" />
<glyph unicode="&#xc2;" horiz-adv-x="1478" d="M78 0v41q43 5 70.5 17t55 36.5t57 81t62 131t83.5 205.5l159 410q8 21 20.5 51.5t20 49t15 39t11 33t3.5 19.5q0 22 10 37l92 139q17 25 35 25q11 0 18 -6.5t13.5 -25t13 -39.5t19.5 -61.5t28 -80.5l307 -789q30 -76 50 -119t39.5 -75t43 -46t47.5 -21t66 -11v-41h-510 v41q81 9 110.5 25.5t29.5 48.5q0 52 -33 139l-96 254h-457l-86 -234q-37 -96 -37 -137q0 -49 33.5 -71t99.5 -25v-41h-393zM483 565h414l-176 453q-20 54 -29 90h-4q-11 -36 -31.5 -91.5t-43 -113t-25.5 -65.5zM483 1372l222 344h110l221 -344h-57l-219 219l-219 -219h-58z " />
<glyph unicode="&#xc3;" horiz-adv-x="1478" d="M78 0v41q43 5 70.5 17t55 36.5t57 81t62 131t83.5 205.5l159 410q8 21 20.5 51.5t20 49t15 39t11 33t3.5 19.5q0 22 10 37l92 139q17 25 35 25q11 0 18 -6.5t13.5 -25t13 -39.5t19.5 -61.5t28 -80.5l307 -789q30 -76 50 -119t39.5 -75t43 -46t47.5 -21t66 -11v-41h-510 v41q81 9 110.5 25.5t29.5 48.5q0 52 -33 139l-96 254h-457l-86 -234q-37 -96 -37 -137q0 -49 33.5 -71t99.5 -25v-41h-393zM483 565h414l-176 453q-20 54 -29 90h-4q-11 -36 -31.5 -91.5t-43 -113t-25.5 -65.5zM487 1434q10 184 164 184q40 0 111 -23q68 -22 147 -22 q65 0 90 78h41q-1 -24 -2.5 -40.5t-11.5 -48.5t-27 -52t-51 -36t-80 -16q-48 0 -131 27q-84 26 -119 26q-26 0 -43.5 -6t-26.5 -19t-12.5 -23t-7.5 -29h-41z" />
<glyph unicode="&#xc4;" horiz-adv-x="1478" d="M78 0v41q43 5 70.5 17t55 36.5t57 81t62 131t83.5 205.5l159 410q8 21 20.5 51.5t20 49t15 39t11 33t3.5 19.5q0 22 10 37l92 139q17 25 35 25q11 0 18 -6.5t13.5 -25t13 -39.5t19.5 -61.5t28 -80.5l307 -789q30 -76 50 -119t39.5 -75t43 -46t47.5 -21t66 -11v-41h-510 v41q81 9 110.5 25.5t29.5 48.5q0 52 -33 139l-96 254h-457l-86 -234q-37 -96 -37 -137q0 -49 33.5 -71t99.5 -25v-41h-393zM483 565h414l-176 453q-20 54 -29 90h-4q-11 -36 -31.5 -91.5t-43 -113t-25.5 -65.5zM487 1526q0 40 28.5 68t68.5 28t68 -28t28 -68t-28 -68 t-68 -28t-68.5 28t-28.5 68zM852 1526q0 40 28 68t68 28t68 -28t28 -68t-28 -68t-68 -28t-68 28t-28 68z" />
<glyph unicode="&#xc5;" horiz-adv-x="1478" d="M78 0v41q43 5 70.5 17t55 36.5t57 81t62 131t83.5 205.5l159 410q8 21 20.5 51.5t20 49t15 39t11 33t3.5 19.5q0 22 10 37l92 139q17 25 35 25q11 0 18 -6.5t13.5 -25t13 -39.5t19.5 -61.5t28 -80.5l307 -789q30 -76 50 -119t39.5 -75t43 -46t47.5 -21t66 -11v-41h-510 v41q81 9 110.5 25.5t29.5 48.5q0 52 -33 139l-96 254h-457l-86 -234q-37 -96 -37 -137q0 -49 33.5 -71t99.5 -25v-41h-393zM483 565h414l-176 453q-20 54 -29 90h-4q-11 -36 -31.5 -91.5t-43 -113t-25.5 -65.5zM575 1540q0 78 55.5 133.5t133.5 55.5t133 -55.5t55 -133.5 t-55 -133t-133 -55t-133.5 55t-55.5 133zM633 1540q0 -54 38.5 -92.5t92.5 -38.5t92.5 38.5t38.5 92.5t-38.5 92.5t-92.5 38.5t-92.5 -38.5t-38.5 -92.5z" />
<glyph unicode="&#xc6;" horiz-adv-x="1857" d="M41 0v41q36 7 57.5 12.5t45 18.5t37 25.5t36 43.5t40.5 60t52 88l420 715q84 141 84 186q0 26 -14.5 39t-63 20.5t-145.5 7.5v41h1073l43 -233h-33q-35 43 -54 65t-51 49.5t-62.5 39.5t-75 21t-101.5 9h-110q-77 0 -99 -14.5t-22 -67.5v-446h145q46 0 75.5 2t53.5 10.5 t37 19t24.5 33.5t17.5 46.5t15 66.5h45v-446h-45q-17 121 -56 159.5t-148 38.5h-164v-516q0 -52 27.5 -69t103.5 -17h205q51 0 85.5 3t66.5 15t53.5 27t49 47.5t50.5 67.5t59 96h39q-16 -43 -70 -305h-1015v41q57 9 86 18.5t50.5 29.5t27.5 50.5t6 85.5v385h-357 q-86 -127 -161.5 -271t-75.5 -194q0 -77 147 -104v-41h-434zM588 659h334v558h-4z" />
<glyph unicode="&#xc7;" horiz-adv-x="1366" d="M66 616q0 195 82 353t239 252t363 94q116 0 266.5 -46t222.5 -114l-10 -254h-37q-15 49 -36.5 94t-60 98t-87 91.5t-121 64t-158.5 25.5q-90 0 -170.5 -39t-146 -115t-104 -201.5t-38.5 -283.5q0 -178 65 -317t181 -216t264 -77q152 0 269 92.5t180 244.5h41l-29 -204 q-54 -67 -187 -120.5t-302 -53.5q-40 0 -58 2l-24 -105q50 -5 80 -11.5t62 -20.5t47 -39.5t15 -63.5q0 -56 -53.5 -95.5t-148.5 -39.5q-109 0 -228 45l31 55q99 -51 172 -51q47 0 80 19t33 59q0 42 -26.5 64t-92.5 22q-26 0 -47 -6l55 172q-139 16 -252 74t-184 144 t-109 190.5t-38 217.5z" />
<glyph unicode="&#xc8;" horiz-adv-x="1290" d="M66 0v41q87 0 125.5 14.5t52 50.5t14.5 119q8 532 8 848q0 118 -32 151t-148 33v41h987l43 -233h-33q-35 43 -54 65t-51 49.5t-62.5 39.5t-75 21t-101.5 9h-176q-77 0 -99 -14.5t-22 -67.5v-446h211q55 0 88 4.5t57 13.5t38 32.5t22.5 50t18.5 77.5h45v-446h-45 q-17 121 -56.5 159.5t-148.5 38.5h-230v-516q0 -52 27.5 -69t103.5 -17h271q51 0 85.5 3t66.5 15t53.5 27t49 47.5t50.5 67.5t59 96h39q-14 -37 -69 -305h-1112zM410 1665q0 24 18 37.5t49 13.5q32 0 51.5 -13.5t49.5 -51.5l213 -279h-64l-229 193q-65 53 -76 69 q-12 16 -12 31z" />
<glyph unicode="&#xc9;" horiz-adv-x="1290" d="M66 0v41q87 0 125.5 14.5t52 50.5t14.5 119q8 532 8 848q0 118 -32 151t-148 33v41h987l43 -233h-33q-35 43 -54 65t-51 49.5t-62.5 39.5t-75 21t-101.5 9h-176q-77 0 -99 -14.5t-22 -67.5v-446h211q55 0 88 4.5t57 13.5t38 32.5t22.5 50t18.5 77.5h45v-446h-45 q-17 121 -56.5 159.5t-148.5 38.5h-230v-516q0 -52 27.5 -69t103.5 -17h271q51 0 85.5 3t66.5 15t53.5 27t49 47.5t50.5 67.5t59 96h39q-14 -37 -69 -305h-1112zM512 1372l213 279q30 38 49 51.5t51 13.5q31 0 49.5 -13.5t18.5 -37.5q0 -28 -75 -89q-2 -2 -4 -3.5t-4.5 -3.5 t-4.5 -4l-230 -193h-63z" />
<glyph unicode="&#xca;" horiz-adv-x="1290" d="M66 0v41q87 0 125.5 14.5t52 50.5t14.5 119q8 532 8 848q0 118 -32 151t-148 33v41h987l43 -233h-33q-35 43 -54 65t-51 49.5t-62.5 39.5t-75 21t-101.5 9h-176q-77 0 -99 -14.5t-22 -67.5v-446h211q55 0 88 4.5t57 13.5t38 32.5t22.5 50t18.5 77.5h45v-446h-45 q-17 121 -56.5 159.5t-148.5 38.5h-230v-516q0 -52 27.5 -69t103.5 -17h271q51 0 85.5 3t66.5 15t53.5 27t49 47.5t50.5 67.5t59 96h39q-14 -37 -69 -305h-1112zM389 1372l221 344h111l221 -344h-57l-219 219l-220 -219h-57z" />
<glyph unicode="&#xcb;" horiz-adv-x="1290" d="M66 0v41q87 0 125.5 14.5t52 50.5t14.5 119q8 532 8 848q0 118 -32 151t-148 33v41h987l43 -233h-33q-35 43 -54 65t-51 49.5t-62.5 39.5t-75 21t-101.5 9h-176q-77 0 -99 -14.5t-22 -67.5v-446h211q55 0 88 4.5t57 13.5t38 32.5t22.5 50t18.5 77.5h45v-446h-45 q-17 121 -56.5 159.5t-148.5 38.5h-230v-516q0 -52 27.5 -69t103.5 -17h271q51 0 85.5 3t66.5 15t53.5 27t49 47.5t50.5 67.5t59 96h39q-14 -37 -69 -305h-1112zM393 1526q0 40 28 68t68 28t68.5 -28t28.5 -68t-28.5 -68t-68.5 -28t-68 28t-28 68zM758 1526q0 40 28 68 t68 28t68 -28t28 -68t-28 -68t-68 -28t-68 28t-28 68z" />
<glyph unicode="&#xcc;" horiz-adv-x="720" d="M86 0v41q101 0 130.5 33.5t29.5 150.5v848q0 117 -29.5 150.5t-130.5 33.5v41h520v-41q-119 0 -151.5 -33t-32.5 -151v-848q0 -117 28.5 -150.5t127.5 -33.5v-41h-492zM100 1665q0 24 18.5 37.5t49.5 13.5q32 0 51 -13.5t49 -51.5l213 -279h-63l-230 193q-65 53 -76 69 q-12 16 -12 31z" />
<glyph unicode="&#xcd;" horiz-adv-x="720" d="M86 0v41q101 0 130.5 33.5t29.5 150.5v848q0 117 -29.5 150.5t-130.5 33.5v41h520v-41q-119 0 -151.5 -33t-32.5 -151v-848q0 -117 28.5 -150.5t127.5 -33.5v-41h-492zM203 1372l213 279q30 38 49 51.5t51 13.5q31 0 49.5 -13.5t18.5 -37.5q0 -28 -75 -89q-8 -7 -13 -11 l-230 -193h-63z" />
<glyph unicode="&#xce;" horiz-adv-x="720" d="M80 1372l221 344h111l221 -344h-58l-219 219l-219 -219h-57zM86 0v41q101 0 130.5 33.5t29.5 150.5v848q0 117 -29.5 150.5t-130.5 33.5v41h520v-41q-119 0 -151.5 -33t-32.5 -151v-848q0 -117 28.5 -150.5t127.5 -33.5v-41h-492z" />
<glyph unicode="&#xcf;" horiz-adv-x="720" d="M84 1526q0 40 28 68t68 28t68 -28t28 -68t-28 -68t-68 -28t-68 28t-28 68zM86 0v41q101 0 130.5 33.5t29.5 150.5v848q0 117 -29.5 150.5t-130.5 33.5v41h520v-41q-119 0 -151.5 -33t-32.5 -151v-848q0 -117 28.5 -150.5t127.5 -33.5v-41h-492zM449 1526q0 40 28 68 t68 28t68 -28t28 -68t-28 -68t-68 -28t-68 28t-28 68z" />
<glyph unicode="&#xd0;" horiz-adv-x="1554" d="M53 643v70h203v360q0 117 -27 150.5t-120 33.5v41h534q83 0 172 -15t184 -46.5t178.5 -85.5t150.5 -125.5t106 -174.5t39 -224q0 -118 -39 -220.5t-106 -176t-156 -126t-190.5 -78.5t-207.5 -26h-713v41q67 0 103 6t58 28t28 55t6 95v418h-203zM432 197q0 -53 18.5 -85 t74 -51.5t153.5 -19.5q272 0 431 155t159 427q0 292 -173 463t-466 171q-119 0 -158 -34t-39 -150v-360h461v-70h-461v-446z" />
<glyph unicode="&#xd1;" horiz-adv-x="1630" d="M59 1257v41h324q45 -54 145.5 -166t225 -247.5t231.5 -251t210.5 -226.5t115.5 -124q10 403 10 788q0 93 -39 133t-152 53v41h441v-41q-108 -13 -148.5 -54t-40.5 -132q0 -145 -26 -1071h-37q-35 56 -155 188.5t-256 273.5t-301 323.5t-271 316.5h-6v-797q0 -72 5 -114.5 t14 -72t32.5 -44t50 -21.5t76.5 -12v-41h-416v41q56 6 84 15t52 36t32 77t8 136v764q0 56 -12 91.5t-41 55t-63.5 28t-92.5 13.5zM563 1434q10 184 164 184q40 0 111 -23q68 -22 147 -22q65 0 90 78h41q-1 -24 -2.5 -40.5t-11.5 -48.5t-27 -52t-51 -36t-80 -16 q-48 0 -131 27q-84 26 -119 26q-26 0 -43.5 -6t-26.5 -19t-12.5 -23t-7.5 -29h-41z" />
<glyph unicode="&#xd2;" horiz-adv-x="1517" d="M80 649q0 292 188 479t490 187t490 -187t188 -479t-188 -478.5t-490 -186.5t-490 186.5t-188 478.5zM268 649q0 -298 122 -461t368 -163t367.5 163t121.5 461t-121.5 461.5t-367.5 163.5t-368 -163.5t-122 -461.5zM498 1665q0 24 18 37.5t49 13.5q32 0 51.5 -13.5 t49.5 -51.5l213 -279h-64l-229 193q-65 53 -76 69q-12 16 -12 31z" />
<glyph unicode="&#xd3;" horiz-adv-x="1517" d="M80 649q0 292 188 479t490 187t490 -187t188 -479t-188 -478.5t-490 -186.5t-490 186.5t-188 478.5zM268 649q0 -298 122 -461t368 -163t367.5 163t121.5 461t-121.5 461.5t-367.5 163.5t-368 -163.5t-122 -461.5zM600 1372l213 279q30 38 49 51.5t51 13.5 q31 0 49.5 -13.5t18.5 -37.5q0 -28 -75 -89q-2 -2 -4 -3.5t-4.5 -3.5t-4.5 -4l-229 -193h-64z" />
<glyph unicode="&#xd4;" horiz-adv-x="1517" d="M80 649q0 292 188 479t490 187t490 -187t188 -479t-188 -478.5t-490 -186.5t-490 186.5t-188 478.5zM268 649q0 -298 122 -461t368 -163t367.5 163t121.5 461t-121.5 461.5t-367.5 163.5t-368 -163.5t-122 -461.5zM477 1372l221 344h111l221 -344h-57l-219 219l-219 -219 h-58z" />
<glyph unicode="&#xd5;" horiz-adv-x="1517" d="M80 649q0 292 188 479t490 187t490 -187t188 -479t-188 -478.5t-490 -186.5t-490 186.5t-188 478.5zM268 649q0 -298 122 -461t368 -163t367.5 163t121.5 461t-121.5 461.5t-367.5 163.5t-368 -163.5t-122 -461.5zM481 1434q10 184 164 184q40 0 111 -23q68 -22 147 -22 q65 0 90 78h41q-1 -24 -2.5 -40.5t-11.5 -48.5t-27 -52t-51 -36t-80 -16q-48 0 -131 27q-84 26 -119 26q-26 0 -43.5 -6t-26.5 -19t-12.5 -23t-7.5 -29h-41z" />
<glyph unicode="&#xd6;" horiz-adv-x="1517" d="M80 649q0 292 188 479t490 187t490 -187t188 -479t-188 -478.5t-490 -186.5t-490 186.5t-188 478.5zM268 649q0 -298 122 -461t368 -163t367.5 163t121.5 461t-121.5 461.5t-367.5 163.5t-368 -163.5t-122 -461.5zM481 1526q0 40 28.5 68t68.5 28t68 -28t28 -68t-28 -68 t-68 -28t-68.5 28t-28.5 68zM846 1526q0 40 28 68t68 28t68 -28t28 -68t-28 -68t-68 -28t-68 28t-28 68z" />
<glyph unicode="&#xd7;" horiz-adv-x="1228" d="M219 66l332 329l-332 330l64 66l331 -332l332 332l64 -66l-332 -330l332 -329l-64 -66l-332 332l-331 -332z" />
<glyph unicode="&#xd8;" horiz-adv-x="1517" d="M80 649q0 292 188 479t490 187q138 0 248 -39l116 246h82l-129 -275q168 -77 264.5 -235.5t96.5 -362.5q0 -292 -188 -478.5t-490 -186.5q-134 0 -258 43l-138 -291h-81l151 319q-165 80 -258.5 236.5t-93.5 357.5zM268 649q0 -382 193 -532l522 1110q-92 47 -225 47 q-246 0 -368 -163.5t-122 -461.5zM524 76q102 -51 234 -51q246 0 367.5 163t121.5 461q0 394 -200 539z" />
<glyph unicode="&#xd9;" horiz-adv-x="1517" d="M61 1257v41h555v-41q-77 0 -117.5 -6t-65 -28t-30.5 -54.5t-6 -95.5v-647q0 -161 110 -260.5t300 -99.5q106 0 179 28.5t115.5 86.5t62.5 134.5t24 184.5l20 573q4 103 -44 143.5t-150 40.5v41h440v-41q-46 -5 -73 -15t-48 -28t-31 -55t-15.5 -86t-8.5 -131l-16 -479 q-2 -79 -14 -142t-45.5 -128.5t-87 -109t-144 -71.5t-211.5 -28q-257 0 -392 111t-135 335v643q0 117 -31 150.5t-141 33.5zM498 1665q0 24 18 37.5t49 13.5q32 0 51.5 -13.5t49.5 -51.5l213 -279h-64l-229 193q-65 53 -76 69q-12 16 -12 31z" />
<glyph unicode="&#xda;" horiz-adv-x="1517" d="M61 1257v41h555v-41q-77 0 -117.5 -6t-65 -28t-30.5 -54.5t-6 -95.5v-647q0 -161 110 -260.5t300 -99.5q106 0 179 28.5t115.5 86.5t62.5 134.5t24 184.5l20 573q4 103 -44 143.5t-150 40.5v41h440v-41q-46 -5 -73 -15t-48 -28t-31 -55t-15.5 -86t-8.5 -131l-16 -479 q-2 -79 -14 -142t-45.5 -128.5t-87 -109t-144 -71.5t-211.5 -28q-257 0 -392 111t-135 335v643q0 117 -31 150.5t-141 33.5zM600 1372l213 279q30 38 49 51.5t51 13.5q31 0 49.5 -13.5t18.5 -37.5q0 -28 -75 -89q-2 -2 -4 -3.5t-4.5 -3.5t-4.5 -4l-229 -193h-64z" />
<glyph unicode="&#xdb;" horiz-adv-x="1517" d="M61 1257v41h555v-41q-77 0 -117.5 -6t-65 -28t-30.5 -54.5t-6 -95.5v-647q0 -161 110 -260.5t300 -99.5q106 0 179 28.5t115.5 86.5t62.5 134.5t24 184.5l20 573q4 103 -44 143.5t-150 40.5v41h440v-41q-46 -5 -73 -15t-48 -28t-31 -55t-15.5 -86t-8.5 -131l-16 -479 q-2 -79 -14 -142t-45.5 -128.5t-87 -109t-144 -71.5t-211.5 -28q-257 0 -392 111t-135 335v643q0 117 -31 150.5t-141 33.5zM477 1372l221 344h111l221 -344h-57l-219 219l-219 -219h-58z" />
<glyph unicode="&#xdc;" horiz-adv-x="1517" d="M61 1257v41h555v-41q-77 0 -117.5 -6t-65 -28t-30.5 -54.5t-6 -95.5v-647q0 -161 110 -260.5t300 -99.5q106 0 179 28.5t115.5 86.5t62.5 134.5t24 184.5l20 573q4 103 -44 143.5t-150 40.5v41h440v-41q-46 -5 -73 -15t-48 -28t-31 -55t-15.5 -86t-8.5 -131l-16 -479 q-2 -79 -14 -142t-45.5 -128.5t-87 -109t-144 -71.5t-211.5 -28q-257 0 -392 111t-135 335v643q0 117 -31 150.5t-141 33.5zM481 1526q0 40 28.5 68t68.5 28t68 -28t28 -68t-28 -68t-68 -28t-68.5 28t-28.5 68zM846 1526q0 40 28 68t68 28t68 -28t28 -68t-28 -68t-68 -28 t-68 28t-28 68z" />
<glyph unicode="&#xdd;" horiz-adv-x="1366" d="M59 1257v41h498v-41q-127 0 -127 -61q0 -13 4.5 -29.5t17.5 -42t27 -50.5t42 -70.5t54 -86t71 -113t85 -136.5q56 89 115.5 178.5t90 134t57.5 88.5t36.5 70t9.5 51q0 36 -24.5 51.5t-83.5 15.5v41h375v-41q-57 -5 -102.5 -36.5t-112.5 -126.5l-338 -486v-383 q0 -46 2.5 -74t12.5 -50t21.5 -32.5t39 -17.5t54.5 -8t79 -2v-41h-594v41q52 1 79 2t54.5 8t39 17.5t21.5 32.5t12.5 50t2.5 74v385l-345 516q-50 74 -82 95.5t-92 35.5zM500 1372l213 279q30 38 49 51.5t51 13.5q31 0 49.5 -13.5t18.5 -37.5q0 -28 -75 -89q-2 -2 -4 -3.5 t-4.5 -3.5t-4.5 -4l-230 -193h-63z" />
<glyph unicode="&#xde;" horiz-adv-x="1175" d="M92 0v41q101 0 130.5 33.5t29.5 150.5v848q0 117 -29.5 150.5t-130.5 33.5v41h520v-41q-119 0 -151.5 -33t-32.5 -151v-41h205q67 0 131 -10t128.5 -35t112 -63.5t77.5 -100t30 -139.5q0 -110 -49 -190t-136.5 -124.5t-192 -64.5t-232.5 -20v49q434 0 434 340 q0 70 -23 125.5t-58.5 89t-82.5 55.5t-91 30.5t-89 8.5q-103 0 -133.5 -33.5t-30.5 -150.5v-574q0 -117 28.5 -150.5t127.5 -33.5v-41h-492z" />
<glyph unicode="&#xdf;" horiz-adv-x="1024" d="M57 0v33q90 0 117 34t27 150v809q0 167 75.5 262.5t239.5 95.5q150 0 249 -85.5t99 -215.5q0 -44 -14.5 -87.5t-45 -88t-89 -82t-137.5 -59.5v-4q57 -10 105 -25.5t99 -45.5t86 -70t57.5 -103t22.5 -141q0 -103 -39.5 -191t-121 -145t-189.5 -57q-71 0 -125 36l23 70 q50 -57 110 -57q100 -3 145.5 79t45.5 234q0 171 -60.5 277t-179.5 106q-17 0 -49 -4v76q10 -2 29 -2q22 0 45.5 7t50.5 25.5t47.5 46t34.5 73t14 102.5q0 136 -52.5 213t-154.5 77q-35 0 -66.5 -12t-59 -36t-44 -68t-16.5 -101v-1126h-279z" />
<glyph unicode="&#xe0;" horiz-adv-x="872" d="M61 143q0 35 9 62.5t31 50t48 39.5t70.5 33.5t88 29t110.5 29.5l110 29v166q0 100 -34.5 138t-104.5 38q-44 0 -74 -15.5t-42.5 -39t-24 -51t-19 -51t-25.5 -39t-46 -15.5q-27 0 -43.5 14t-16.5 41q0 38 51.5 86t133.5 83.5t157 35.5q108 0 170 -59.5t62 -186.5v-448 q0 -32 15 -46t36 -14q38 0 72 31l20 -23q-21 -33 -67.5 -55t-92.5 -22q-50 0 -87 32.5t-40 87.5q-131 -120 -268 -120q-87 0 -143 45.5t-56 113.5zM176 1202q0 24 18.5 37.5t49.5 13.5q32 0 51 -13.5t49 -51.5l213 -279h-63l-230 193q-65 53 -76 69q-12 16 -12 31zM213 190 q0 -60 34.5 -98.5t100.5 -38.5q73 0 180 84v246l-82 -21q-120 -30 -176.5 -70t-56.5 -102z" />
<glyph unicode="&#xe1;" horiz-adv-x="872" d="M61 143q0 35 9 62.5t31 50t48 39.5t70.5 33.5t88 29t110.5 29.5l110 29v166q0 100 -34.5 138t-104.5 38q-44 0 -74 -15.5t-42.5 -39t-24 -51t-19 -51t-25.5 -39t-46 -15.5q-27 0 -43.5 14t-16.5 41q0 38 51.5 86t133.5 83.5t157 35.5q108 0 170 -59.5t62 -186.5v-448 q0 -32 15 -46t36 -14q38 0 72 31l20 -23q-21 -33 -67.5 -55t-92.5 -22q-50 0 -87 32.5t-40 87.5q-131 -120 -268 -120q-87 0 -143 45.5t-56 113.5zM213 190q0 -60 34.5 -98.5t100.5 -38.5q73 0 180 84v246l-82 -21q-120 -30 -176.5 -70t-56.5 -102zM279 909l213 279 q30 38 49 51.5t51 13.5q31 0 49 -13.5t18 -37.5q0 -28 -75 -89q-2 -2 -4 -3.5t-4.5 -3.5t-4.5 -4l-229 -193h-63z" />
<glyph unicode="&#xe2;" horiz-adv-x="872" d="M61 143q0 35 9 62.5t31 50t48 39.5t70.5 33.5t88 29t110.5 29.5l110 29v166q0 100 -34.5 138t-104.5 38q-44 0 -74 -15.5t-42.5 -39t-24 -51t-19 -51t-25.5 -39t-46 -15.5q-27 0 -43.5 14t-16.5 41q0 38 51.5 86t133.5 83.5t157 35.5q108 0 170 -59.5t62 -186.5v-448 q0 -32 15 -46t36 -14q38 0 72 31l20 -23q-21 -33 -67.5 -55t-92.5 -22q-50 0 -87 32.5t-40 87.5q-131 -120 -268 -120q-87 0 -143 45.5t-56 113.5zM156 909l221 344h110l222 -344h-58l-219 219l-219 -219h-57zM213 190q0 -60 34.5 -98.5t100.5 -38.5q73 0 180 84v246 l-82 -21q-120 -30 -176.5 -70t-56.5 -102z" />
<glyph unicode="&#xe3;" horiz-adv-x="872" d="M61 143q0 35 9 62.5t31 50t48 39.5t70.5 33.5t88 29t110.5 29.5l110 29v166q0 100 -34.5 138t-104.5 38q-44 0 -74 -15.5t-42.5 -39t-24 -51t-19 -51t-25.5 -39t-46 -15.5q-27 0 -43.5 14t-16.5 41q0 38 51.5 86t133.5 83.5t157 35.5q108 0 170 -59.5t62 -186.5v-448 q0 -32 15 -46t36 -14q38 0 72 31l20 -23q-21 -33 -67.5 -55t-92.5 -22q-50 0 -87 32.5t-40 87.5q-131 -120 -268 -120q-87 0 -143 45.5t-56 113.5zM160 971q10 184 164 184q42 0 110 -22q71 -23 148 -23q65 0 90 78h41q-1 -24 -2.5 -40.5t-11.5 -48.5t-27 -52t-51 -36 t-80 -16q-48 0 -131 27q-87 27 -119 27q-26 0 -43.5 -6t-26.5 -19.5t-12.5 -23.5t-7.5 -29h-41zM213 190q0 -60 34.5 -98.5t100.5 -38.5q73 0 180 84v246l-82 -21q-120 -30 -176.5 -70t-56.5 -102z" />
<glyph unicode="&#xe4;" horiz-adv-x="872" d="M61 143q0 35 9 62.5t31 50t48 39.5t70.5 33.5t88 29t110.5 29.5l110 29v166q0 100 -34.5 138t-104.5 38q-44 0 -74 -15.5t-42.5 -39t-24 -51t-19 -51t-25.5 -39t-46 -15.5q-27 0 -43.5 14t-16.5 41q0 38 51.5 86t133.5 83.5t157 35.5q108 0 170 -59.5t62 -186.5v-448 q0 -32 15 -46t36 -14q38 0 72 31l20 -23q-21 -33 -67.5 -55t-92.5 -22q-50 0 -87 32.5t-40 87.5q-131 -120 -268 -120q-87 0 -143 45.5t-56 113.5zM160 1063q0 40 28 68t68 28t68 -28t28 -68t-28 -68t-68 -28t-68 28t-28 68zM213 190q0 -60 34.5 -98.5t100.5 -38.5 q73 0 180 84v246l-82 -21q-120 -30 -176.5 -70t-56.5 -102zM524 1063q0 40 28.5 68t68.5 28t68 -28t28 -68t-28 -68t-68 -28t-68.5 28t-28.5 68z" />
<glyph unicode="&#xe5;" horiz-adv-x="872" d="M61 143q0 35 9 62.5t31 50t48 39.5t70.5 33.5t88 29t110.5 29.5l110 29v166q0 100 -34.5 138t-104.5 38q-44 0 -74 -15.5t-42.5 -39t-24 -51t-19 -51t-25.5 -39t-46 -15.5q-27 0 -43.5 14t-16.5 41q0 38 51.5 86t133.5 83.5t157 35.5q108 0 170 -59.5t62 -186.5v-448 q0 -32 15 -46t36 -14q38 0 72 31l20 -23q-21 -33 -67.5 -55t-92.5 -22q-50 0 -87 32.5t-40 87.5q-131 -120 -268 -120q-87 0 -143 45.5t-56 113.5zM213 190q0 -60 34.5 -98.5t100.5 -38.5q73 0 180 84v246l-82 -21q-120 -30 -176.5 -70t-56.5 -102zM248 1077q0 78 55 133.5 t133 55.5t133.5 -55.5t55.5 -133.5t-55.5 -133t-133.5 -55t-133 55t-55 133zM305 1077q0 -54 38.5 -92.5t92.5 -38.5t92.5 38.5t38.5 92.5t-38.5 92.5t-92.5 38.5t-92.5 -38.5t-38.5 -92.5z" />
<glyph unicode="&#xe6;" horiz-adv-x="1214" d="M90 141q0 71 75.5 129t258.5 121l104 37v207q0 56 -35 93.5t-87 37.5q-45 0 -75 -20t-44 -49t-25.5 -57.5t-31 -48.5t-50.5 -20q-47 0 -47 45q0 41 42.5 85.5t111.5 75t139 30.5q50 0 96.5 -15t69 -29t51.5 -36q2 2 13 10t15 10.5t15.5 10t18 11t19.5 10t22.5 9.5t24 7.5 t28 6.5t30.5 3.5t35 1.5q55 0 101 -17.5t74.5 -42.5t48.5 -54.5t28 -52.5t8 -36q0 -12 -30 -22q-56 -19 -200.5 -61.5t-221.5 -69.5v-117q0 -134 52 -207.5t181 -73.5q100 0 191 51l20 -28q-40 -36 -109.5 -64t-162.5 -28q-58 0 -103 10t-80.5 31.5t-53 36.5t-46.5 44 q-152 -122 -295 -122q-86 0 -131 47.5t-45 109.5zM233 174q0 -49 34.5 -85t88.5 -36q52 0 91.5 31.5t80.5 91.5v189q-126 -19 -210.5 -68.5t-84.5 -122.5zM672 492l157 47q100 30 126 48t26 54q0 56 -36 90.5t-111 34.5q-77 0 -119.5 -52t-42.5 -147v-75z" />
<glyph unicode="&#xe7;" horiz-adv-x="796" d="M61 377q0 81 25.5 151.5t69 120.5t99.5 86.5t117.5 54t123.5 17.5q90 0 153.5 -32t63.5 -85q0 -26 -19 -40.5t-43 -14.5q-28 0 -56 16t-48 35t-53 35t-70 16q-95 0 -157 -90t-62 -231q0 -83 25.5 -151.5t68 -110.5t93.5 -65t104 -23q57 0 110.5 26t85 52t35.5 26 q14 0 14 -10q0 -20 -43.5 -60.5t-121 -78t-152.5 -37.5q-8 0 -12 2l-27 -105q39 -4 64.5 -8.5t55 -14t46 -23t28 -36t11.5 -53.5q0 -56 -54 -95.5t-149 -39.5q-108 0 -227 45l30 55q99 -51 172 -51q47 0 80 19t33 59q0 42 -26.5 64t-92.5 22q-26 0 -47 -6l53 172 q-58 9 -109 35t-95.5 71t-70.5 117.5t-26 163.5z" />
<glyph unicode="&#xe8;" horiz-adv-x="833" d="M57 373q0 190 115.5 312t280.5 122q125 0 216 -84.5t91 -183.5q0 -11 -21 -11h-524q-14 -54 -14 -120q0 -143 82 -242.5t219 -99.5q59 0 113 21t124 69l25 -33q-85 -69 -155 -104t-160 -35q-88 0 -163.5 35.5t-124.5 92t-76.5 125t-27.5 136.5zM180 1202q0 24 18.5 37.5 t49.5 13.5q32 0 51 -13.5t49 -51.5l213 -279h-63l-230 193q-65 53 -76 69q-12 16 -12 31zM225 578h391q-6 84 -56.5 136t-127.5 52q-83 0 -135 -54.5t-72 -133.5z" />
<glyph unicode="&#xe9;" horiz-adv-x="833" d="M57 373q0 190 115.5 312t280.5 122q125 0 216 -84.5t91 -183.5q0 -11 -21 -11h-524q-14 -54 -14 -120q0 -143 82 -242.5t219 -99.5q59 0 113 21t124 69l25 -33q-85 -69 -155 -104t-160 -35q-88 0 -163.5 35.5t-124.5 92t-76.5 125t-27.5 136.5zM225 578h391 q-6 84 -56.5 136t-127.5 52q-83 0 -135 -54.5t-72 -133.5zM283 909l213 279q30 38 49 51.5t51 13.5q31 0 49.5 -13.5t18.5 -37.5q0 -5 -1 -9.5t-2.5 -8.5t-5.5 -9t-6.5 -8.5t-8.5 -9.5t-10 -9.5t-12 -10t-12.5 -10.5t-14.5 -12t-16 -13l-229 -193h-63z" />
<glyph unicode="&#xea;" horiz-adv-x="833" d="M57 373q0 190 115.5 312t280.5 122q125 0 216 -84.5t91 -183.5q0 -11 -21 -11h-524q-14 -54 -14 -120q0 -143 82 -242.5t219 -99.5q59 0 113 21t124 69l25 -33q-85 -69 -155 -104t-160 -35q-88 0 -163.5 35.5t-124.5 92t-76.5 125t-27.5 136.5zM160 909l221 344h111 l221 -344h-58l-219 219l-219 -219h-57zM225 578h391q-6 84 -56.5 136t-127.5 52q-83 0 -135 -54.5t-72 -133.5z" />
<glyph unicode="&#xeb;" horiz-adv-x="833" d="M57 373q0 190 115.5 312t280.5 122q125 0 216 -84.5t91 -183.5q0 -11 -21 -11h-524q-14 -54 -14 -120q0 -143 82 -242.5t219 -99.5q59 0 113 21t124 69l25 -33q-85 -69 -155 -104t-160 -35q-88 0 -163.5 35.5t-124.5 92t-76.5 125t-27.5 136.5zM164 1063q0 40 28 68 t68 28t68 -28t28 -68t-28 -68t-68 -28t-68 28t-28 68zM225 578h391q-6 84 -56.5 136t-127.5 52q-83 0 -135 -54.5t-72 -133.5zM528 1063q0 40 28.5 68t68.5 28t68 -28t28 -68t-28 -68t-68 -28t-68.5 28t-28.5 68z" />
<glyph unicode="&#xec;" horiz-adv-x="530" d="M4 1202q0 24 18.5 37.5t49.5 13.5q32 0 51 -13.5t49 -51.5l213 -279h-63l-230 193q-65 53 -76 69q-12 16 -12 31zM74 0v33q72 0 95.5 34t23.5 146v281q0 107 -12 139.5t-56 38.5q-25 3 -34 8.5t-9 17.5q0 22 29 35q13 4 61 23.5t89.5 35t51.5 15.5q25 0 25 -23 q0 -4 -1 -58.5t-1 -94.5v-418q0 -112 24 -146t97 -34v-33h-383z" />
<glyph unicode="&#xed;" horiz-adv-x="530" d="M74 0v33q72 0 95.5 34t23.5 146v281q0 107 -12 139.5t-56 38.5q-25 3 -34 8.5t-9 17.5q0 22 29 35q13 4 61 23.5t89.5 35t51.5 15.5q25 0 25 -23q0 -4 -1 -58.5t-1 -94.5v-418q0 -112 24 -146t97 -34v-33h-383zM106 909l213 279q30 38 49.5 51.5t51.5 13.5q31 0 49 -13.5 t18 -37.5q0 -28 -75 -89q-8 -7 -13 -11l-229 -193h-64z" />
<glyph unicode="&#xee;" horiz-adv-x="530" d="M-16 909l221 344h110l222 -344h-58l-219 219l-219 -219h-57zM74 0v33q72 0 95.5 34t23.5 146v281q0 107 -12 139.5t-56 38.5q-25 3 -34 8.5t-9 17.5q0 22 29 35q13 4 61 23.5t89.5 35t51.5 15.5q25 0 25 -23q0 -4 -1 -58.5t-1 -94.5v-418q0 -112 24 -146t97 -34v-33h-383 z" />
<glyph unicode="&#xef;" horiz-adv-x="530" d="M-12 1063q0 40 28 68t68 28t68 -28t28 -68t-28 -68t-68 -28t-68 28t-28 68zM74 0v33q72 0 95.5 34t23.5 146v281q0 107 -12 139.5t-56 38.5q-25 3 -34 8.5t-9 17.5q0 22 29 35q13 4 61 23.5t89.5 35t51.5 15.5q25 0 25 -23q0 -4 -1 -58.5t-1 -94.5v-418q0 -112 24 -146 t97 -34v-33h-383zM352 1063q0 40 28.5 68t68.5 28t68 -28t28 -68t-28 -68t-68 -28t-68.5 28t-28.5 68z" />
<glyph unicode="&#xf0;" horiz-adv-x="948" d="M55 391q0 99 39 180.5t101 131.5t135.5 77t146.5 27q128 0 234 -76q-45 190 -142 320l-233 -138l-37 45l236 140q-112 135 -322 176l8 41q230 -20 393 -170l230 135l37 -45l-224 -133q112 -120 171 -285.5t59 -341.5q0 -102 -26 -186t-68 -139.5t-97.5 -93.5t-113.5 -55 t-117 -17q-78 0 -151 28t-131 79t-93 129t-35 171zM219 397q0 -372 244 -372q115 0 187.5 94t72.5 274q0 373 -244 373q-115 0 -187.5 -94.5t-72.5 -274.5z" />
<glyph unicode="&#xf1;" horiz-adv-x="1062" d="M51 0v33q84 0 109.5 34t25.5 150v383q0 34 -9 47t-40 33q-24 15 -24 27q0 11 7 17.5t27 16.5q5 3 13 8q114 70 139 70q23 0 23 -24v-84q32 21 49.5 31.5t55 29t79 27t88.5 8.5q40 0 76 -6.5t74.5 -25t66 -49t45.5 -83t18 -121.5v-305q0 -115 24 -149.5t97 -34.5v-33h-385 v33q73 0 97 34.5t24 149.5v270q0 250 -213 250q-56 0 -105.5 -31.5t-82.5 -70.5v-418q0 -115 24.5 -149.5t100.5 -34.5v-33h-404zM254 971q10 184 164 184q42 0 110 -22q71 -23 148 -23q65 0 90 78h41q-1 -24 -2.5 -40.5t-11.5 -48.5t-27 -52t-51 -36t-80 -16q-48 0 -131 27 q-87 27 -119 27q-26 0 -43.5 -6t-26.5 -19.5t-12.5 -23.5t-7.5 -29h-41z" />
<glyph unicode="&#xf2;" horiz-adv-x="948" d="M57 395q0 94 35 173.5t94 130.5t133 79.5t154 28.5t154 -28.5t133 -79.5t94 -130.5t35 -173.5q0 -125 -60.5 -220.5t-154 -143t-201.5 -47.5t-201.5 47.5t-154 143t-60.5 220.5zM213 1202q0 24 18.5 37.5t49.5 13.5q32 0 51 -13.5t49 -51.5l213 -279h-64l-229 193 q-65 53 -76 69q-12 16 -12 31zM221 395q0 -370 252 -370t252 370q0 371 -252 371t-252 -371z" />
<glyph unicode="&#xf3;" horiz-adv-x="948" d="M57 395q0 94 35 173.5t94 130.5t133 79.5t154 28.5t154 -28.5t133 -79.5t94 -130.5t35 -173.5q0 -125 -60.5 -220.5t-154 -143t-201.5 -47.5t-201.5 47.5t-154 143t-60.5 220.5zM221 395q0 -370 252 -370t252 370q0 371 -252 371t-252 -371zM315 909l213 279 q30 38 49.5 51.5t51.5 13.5q31 0 49 -13.5t18 -37.5q0 -28 -75 -89q-2 -2 -4 -3.5t-4.5 -3.5t-4.5 -4l-229 -193h-64z" />
<glyph unicode="&#xf4;" horiz-adv-x="948" d="M57 395q0 94 35 173.5t94 130.5t133 79.5t154 28.5t154 -28.5t133 -79.5t94 -130.5t35 -173.5q0 -125 -60.5 -220.5t-154 -143t-201.5 -47.5t-201.5 47.5t-154 143t-60.5 220.5zM193 909l221 344h110l221 -344h-57l-219 219l-219 -219h-57zM221 395q0 -370 252 -370 t252 370q0 371 -252 371t-252 -371z" />
<glyph unicode="&#xf5;" horiz-adv-x="948" d="M57 395q0 94 35 173.5t94 130.5t133 79.5t154 28.5t154 -28.5t133 -79.5t94 -130.5t35 -173.5q0 -125 -60.5 -220.5t-154 -143t-201.5 -47.5t-201.5 47.5t-154 143t-60.5 220.5zM197 971q10 184 163 184q43 0 111 -22q71 -23 147 -23q66 0 91 78h41q-1 -24 -2.5 -40.5 t-11.5 -48.5t-27 -52t-51 -36t-80 -16q-49 0 -132 27q-87 27 -118 27q-26 0 -43.5 -6t-26.5 -19.5t-12.5 -23.5t-7.5 -29h-41zM221 395q0 -370 252 -370t252 370q0 371 -252 371t-252 -371z" />
<glyph unicode="&#xf6;" horiz-adv-x="948" d="M57 395q0 94 35 173.5t94 130.5t133 79.5t154 28.5t154 -28.5t133 -79.5t94 -130.5t35 -173.5q0 -125 -60.5 -220.5t-154 -143t-201.5 -47.5t-201.5 47.5t-154 143t-60.5 220.5zM197 1063q0 40 28 68t68 28t68 -28t28 -68t-28 -68t-68 -28t-68 28t-28 68zM221 395 q0 -370 252 -370t252 370q0 371 -252 371t-252 -371zM561 1063q0 40 28 68t68 28t68.5 -28t28.5 -68t-28.5 -68t-68.5 -28t-68 28t-28 68z" />
<glyph unicode="&#xf7;" horiz-adv-x="1228" d="M219 350v90h791v-90h-791zM520 72q0 38 28 66t66 28t66.5 -28t28.5 -66t-28.5 -66.5t-66.5 -28.5t-66 28.5t-28 66.5zM520 719q0 38 28 66t66 28t66.5 -28t28.5 -66t-28.5 -66t-66.5 -28t-66 28t-28 66z" />
<glyph unicode="&#xf8;" horiz-adv-x="948" d="M57 395q0 94 35 173.5t94 130.5t133 79.5t154 28.5q83 0 162 -31l92 182h70l-105 -210q90 -53 143.5 -144t53.5 -209q0 -125 -60.5 -220.5t-154 -143t-201.5 -47.5q-80 0 -151 26l-95 -184h-69l106 211q-94 50 -150.5 142.5t-56.5 215.5zM221 395q0 -200 76 -293l313 623 q-56 41 -137 41q-252 0 -252 -371zM346 59q49 -34 127 -34q252 0 252 370q0 192 -68 283z" />
<glyph unicode="&#xf9;" horiz-adv-x="1062" d="M61 758v33l263 16v-545q0 -103 49.5 -156t130.5 -53q70 0 140.5 43.5t84.5 89.5v334q0 102 -10.5 147t-35.5 63t-85 28v33l274 16v-623q0 -96 52 -96q22 0 75 16v-47l-258 -65v125q-32 -30 -53.5 -47t-60.5 -40.5t-88 -34.5t-109 -11q-62 0 -108 15.5t-73 39.5t-43 61 t-21 74t-5 84v203q0 131 -10 188.5t-32 78t-77 30.5zM270 1202q0 24 18.5 37.5t49.5 13.5q32 0 51 -13.5t49 -51.5l213 -279h-63l-230 193q-65 53 -76 69q-12 16 -12 31z" />
<glyph unicode="&#xfa;" horiz-adv-x="1062" d="M61 758v33l263 16v-545q0 -103 49.5 -156t130.5 -53q70 0 140.5 43.5t84.5 89.5v334q0 102 -10.5 147t-35.5 63t-85 28v33l274 16v-623q0 -96 52 -96q22 0 75 16v-47l-258 -65v125q-32 -30 -53.5 -47t-60.5 -40.5t-88 -34.5t-109 -11q-62 0 -108 15.5t-73 39.5t-43 61 t-21 74t-5 84v203q0 131 -10 188.5t-32 78t-77 30.5zM373 909l213 279q30 38 49 51.5t51 13.5q31 0 49.5 -13.5t18.5 -37.5q0 -28 -75 -89q-2 -2 -4 -3.5t-4.5 -3.5t-4.5 -4l-230 -193h-63z" />
<glyph unicode="&#xfb;" horiz-adv-x="1062" d="M61 758v33l263 16v-545q0 -103 49.5 -156t130.5 -53q70 0 140.5 43.5t84.5 89.5v334q0 102 -10.5 147t-35.5 63t-85 28v33l274 16v-623q0 -96 52 -96q22 0 75 16v-47l-258 -65v125q-32 -30 -53.5 -47t-60.5 -40.5t-88 -34.5t-109 -11q-62 0 -108 15.5t-73 39.5t-43 61 t-21 74t-5 84v203q0 131 -10 188.5t-32 78t-77 30.5zM250 909l221 344h111l221 -344h-58l-219 219l-219 -219h-57z" />
<glyph unicode="&#xfc;" horiz-adv-x="1062" d="M61 758v33l263 16v-545q0 -103 49.5 -156t130.5 -53q70 0 140.5 43.5t84.5 89.5v334q0 102 -10.5 147t-35.5 63t-85 28v33l274 16v-623q0 -96 52 -96q22 0 75 16v-47l-258 -65v125q-32 -30 -53.5 -47t-60.5 -40.5t-88 -34.5t-109 -11q-62 0 -108 15.5t-73 39.5t-43 61 t-21 74t-5 84v203q0 131 -10 188.5t-32 78t-77 30.5zM254 1063q0 40 28 68t68 28t68 -28t28 -68t-28 -68t-68 -28t-68 28t-28 68zM618 1063q0 40 28.5 68t68.5 28t68 -28t28 -68t-28 -68t-68 -28t-68.5 28t-28.5 68z" />
<glyph unicode="&#xfd;" d="M37 758v33h371v-33q-56 -1 -78.5 -18.5t-22.5 -55.5q0 -30 36 -119t85.5 -211.5t71.5 -208.5h4q21 69 66.5 203.5t71.5 219t26 110.5q0 39 -22.5 55t-67.5 25v33h253v-33q-38 -15 -59 -45.5t-57 -126.5l-299 -807q-20 -56 -39.5 -96.5t-46 -81.5t-60.5 -62.5t-73 -21.5 t-60.5 21t-21.5 50q0 37 30.5 57t110.5 38q33 7 47 14.5t30.5 34.5t37.5 86q49 133 49 153q0 11 -14 43l-261 637q-22 50 -43 73t-65 34zM297 909l213 279q30 38 49 51.5t51 13.5q31 0 49.5 -13.5t18.5 -37.5q0 -28 -75 -89q-2 -2 -4 -3.5t-4.5 -3.5t-4.5 -4l-230 -193h-63z " />
<glyph unicode="&#xfe;" horiz-adv-x="1024" d="M63 -451q87 19 105 34t18 75v1427q0 35 -8.5 58.5t-21 33t-25 15.5t-21 12t-8.5 15q0 3 1 5.5t3.5 5.5t5 5t7.5 4.5l9 4.5t11 4.5t12 4.5t14 5.5t15 5.5q10 4 39.5 18t54 23.5t35.5 9.5q21 0 21 -25v-602q33 29 54 44.5t56 36t75.5 29.5t88.5 9q44 0 89 -10.5t94 -38.5 t86 -71t61 -114.5t24 -162.5q0 -85 -25 -159.5t-74.5 -135t-133.5 -96t-193 -35.5q-107 0 -202 45v-371q0 -31 3.5 -46t21 -28t45 -19.5t85.5 -15.5v-32h-422v32zM330 381q0 -100 8.5 -162t32.5 -108.5t68 -66t114 -19.5q69 0 121 27.5t82 74.5t44.5 104t14.5 123 q0 99 -24.5 176.5t-65.5 123t-89 68.5t-101 23q-91 0 -205 -98v-266z" />
<glyph unicode="&#xff;" d="M37 758v33h371v-33q-56 -1 -78.5 -18.5t-22.5 -55.5q0 -30 36 -119t85.5 -211.5t71.5 -208.5h4q21 69 66.5 203.5t71.5 219t26 110.5q0 39 -22.5 55t-67.5 25v33h253v-33q-38 -15 -59 -45.5t-57 -126.5l-299 -807q-20 -56 -39.5 -96.5t-46 -81.5t-60.5 -62.5t-73 -21.5 t-60.5 21t-21.5 50q0 37 30.5 57t110.5 38q33 7 47 14.5t30.5 34.5t37.5 86q49 133 49 153q0 11 -14 43l-261 637q-22 50 -43 73t-65 34zM178 1063q0 40 28 68t68 28t68.5 -28t28.5 -68t-28.5 -68t-68.5 -28t-68 28t-28 68zM543 1063q0 40 28 68t68 28t68 -28t28 -68 t-28 -68t-68 -28t-68 28t-28 68z" />
<glyph unicode="&#x152;" horiz-adv-x="2048" d="M78 625q0 202 80 357.5t234.5 244t361.5 88.5q58 0 164 -8q115 -9 172 -9h757l43 -233h-32q-35 43 -54.5 65t-51.5 49.5t-62 39.5t-75 21t-102 9h-135q-77 0 -99 -14.5t-22 -67.5v-446h170q55 0 88 4.5t57 13.5t38 32.5t22.5 50t18.5 77.5h45v-446h-45 q-17 121 -56.5 159.5t-148.5 38.5h-189v-516q0 -52 27.5 -69t104.5 -17h229q51 0 85.5 3t66.5 15t53.5 27t49 47.5t50.5 67.5t59 96h39q-14 -37 -69 -305h-953q-53 0 -143 -8q-86 -8 -137 -8q-126 0 -233.5 37.5t-181 100.5t-125.5 146t-76.5 173.5t-24.5 183.5zM266 643 q0 -71 4 -129.5t17 -124t34.5 -116.5t58.5 -99t87 -79.5t122.5 -50.5t162.5 -19q167 0 248 65t81 203v713q0 138 -81 203t-248 65q-107 0 -191.5 -34.5t-139 -92.5t-90 -140t-50.5 -171.5t-15 -192.5z" />
<glyph unicode="&#x153;" horiz-adv-x="1402" d="M66 389q0 178 115.5 298t307.5 120q61 0 123.5 -22.5t103.5 -45t50 -22.5t48 22.5t97 45t113 22.5q73 0 128.5 -20.5t88.5 -53t54 -78.5t28.5 -89.5t7.5 -92.5h-504q-4 -37 -4 -121q2 -141 67.5 -220t180.5 -79q76 0 131 27.5t111 75.5l16 -23q-48 -61 -125.5 -105 t-179.5 -44q-60 0 -110 16.5t-76 36.5t-46.5 36.5t-27.5 16.5q-6 0 -30.5 -16.5t-56.5 -36.5t-90 -36.5t-122 -16.5q-174 0 -286.5 118t-112.5 287zM229 414q0 -181 69 -285t179 -104q61 0 106 30.5t69.5 84.5t36 118t11.5 141q0 188 -50 277.5t-173 89.5q-104 0 -176 -96 t-72 -256zM834 522h374q0 124 -38 184t-140 60q-96 0 -145 -63.5t-51 -180.5z" />
<glyph unicode="&#x178;" horiz-adv-x="1366" d="M59 1257v41h498v-41q-127 0 -127 -61q0 -13 4.5 -29.5t17.5 -42t27 -50.5t42 -70.5t54 -86t71 -113t85 -136.5q56 89 115.5 178.5t90 134t57.5 88.5t36.5 70t9.5 51q0 36 -24.5 51.5t-83.5 15.5v41h375v-41q-57 -5 -102.5 -36.5t-112.5 -126.5l-338 -486v-383 q0 -46 2.5 -74t12.5 -50t21.5 -32.5t39 -17.5t54.5 -8t79 -2v-41h-594v41q52 1 79 2t54.5 8t39 17.5t21.5 32.5t12.5 50t2.5 74v385l-345 516q-50 74 -82 95.5t-92 35.5zM381 1526q0 40 28 68t68 28t68 -28t28 -68t-28 -68t-68 -28t-68 28t-28 68zM745 1526q0 40 28.5 68 t68.5 28t68 -28t28 -68t-28 -68t-68 -28t-68.5 28t-28.5 68z" />
<glyph unicode="&#x2c6;" horiz-adv-x="530" d="M-16 909l221 344h110l222 -344h-58l-219 219l-219 -219h-57z" />
<glyph unicode="&#x2dc;" horiz-adv-x="530" d="M-12 971q10 184 164 184q42 0 110 -22q71 -23 148 -23q65 0 90 78h41q-1 -24 -2.5 -40.5t-11.5 -48.5t-27 -52t-51 -36t-80 -16q-48 0 -131 27q-87 27 -119 27q-26 0 -43.5 -6t-26.5 -19.5t-12.5 -23.5t-7.5 -29h-41z" />
<glyph unicode="&#x2000;" horiz-adv-x="864" />
<glyph unicode="&#x2001;" horiz-adv-x="1729" />
<glyph unicode="&#x2002;" horiz-adv-x="864" />
<glyph unicode="&#x2003;" horiz-adv-x="1729" />
<glyph unicode="&#x2004;" horiz-adv-x="576" />
<glyph unicode="&#x2005;" horiz-adv-x="432" />
<glyph unicode="&#x2006;" horiz-adv-x="288" />
<glyph unicode="&#x2007;" horiz-adv-x="288" />
<glyph unicode="&#x2008;" horiz-adv-x="216" />
<glyph unicode="&#x2009;" horiz-adv-x="345" />
<glyph unicode="&#x200a;" horiz-adv-x="96" />
<glyph unicode="&#x2010;" horiz-adv-x="681" d="M90 326v90q248 33 508 49v-90q-246 -28 -508 -49z" />
<glyph unicode="&#x2011;" horiz-adv-x="681" d="M90 326v90q248 33 508 49v-90q-246 -28 -508 -49z" />
<glyph unicode="&#x2012;" horiz-adv-x="681" d="M90 326v90q248 33 508 49v-90q-246 -28 -508 -49z" />
<glyph unicode="&#x2013;" horiz-adv-x="1024" d="M0 354v82h1024v-82h-1024z" />
<glyph unicode="&#x2014;" horiz-adv-x="2048" d="M0 354v82h2048v-82h-2048z" />
<glyph unicode="&#x2018;" horiz-adv-x="454" d="M106 1090q0 93 68.5 167t167.5 111v-33q-60 -34 -102.5 -85t-42.5 -91q0 -18 4 -30t15 -19.5t16.5 -9.5t23.5 -8q53 -18 69 -35q23 -23 23 -64q0 -39 -24.5 -63.5t-79.5 -24.5q-68 0 -103 53t-35 132z" />
<glyph unicode="&#x2019;" horiz-adv-x="454" d="M106 1260q0 39 25 63.5t80 24.5q68 0 102.5 -52.5t34.5 -132.5q0 -93 -68.5 -167t-166.5 -111v33q60 34 102.5 85t42.5 91q0 18 -4 30t-15 19.5t-16.5 9.5t-23.5 8q-52 18 -69 34q-24 23 -24 65z" />
<glyph unicode="&#x201a;" horiz-adv-x="454" d="M106 100q0 39 25 63.5t80 24.5q68 0 102.5 -52.5t34.5 -131.5q0 -93 -68.5 -167t-166.5 -111v32q60 34 102.5 85t42.5 91q0 18 -4 30t-14.5 19.5t-17 10.5t-23.5 8q-1 0 -12.5 4t-13 4.5t-12 5t-13 6.5t-11 7t-11 9.5t-8 11.5t-7 14t-3.5 16t-2 20z" />
<glyph unicode="&#x201c;" horiz-adv-x="833" d="M106 1090q0 93 68.5 167t167.5 111v-33q-60 -34 -102.5 -85t-42.5 -91q0 -18 4 -30t15 -19.5t16.5 -9.5t23.5 -8q53 -18 69 -35q23 -23 23 -64q0 -39 -24.5 -63.5t-79.5 -24.5q-68 0 -103 53t-35 132zM485 1090q0 93 68.5 167t167.5 111v-33q-60 -34 -103 -85.5 t-43 -90.5q0 -18 4 -30t15.5 -19.5t17 -9.5t23.5 -8q53 -18 69 -35q23 -23 23 -64q0 -39 -24.5 -63.5t-79.5 -24.5q-68 0 -103 53t-35 132z" />
<glyph unicode="&#x201d;" horiz-adv-x="833" d="M106 1260q0 39 25 63.5t80 24.5q68 0 102.5 -52.5t34.5 -132.5q0 -93 -68.5 -167t-166.5 -111v33q60 34 102.5 85t42.5 91q0 18 -4 30t-15 19.5t-16.5 9.5t-23.5 8q-52 18 -69 34q-24 23 -24 65zM485 1260q0 39 25 63.5t80 24.5q68 0 102.5 -52.5t34.5 -132.5 q0 -93 -68.5 -167t-166.5 -111v33q60 34 102.5 85t42.5 91q0 18 -4 30t-15 19.5t-16.5 9.5t-23.5 8q-52 18 -69 34q-24 24 -24 65z" />
<glyph unicode="&#x201e;" horiz-adv-x="833" d="M106 100q0 39 25 63.5t80 24.5q68 0 102.5 -52.5t34.5 -131.5q0 -93 -68.5 -167t-166.5 -111v32q60 34 102.5 85t42.5 91q0 18 -4 30t-14.5 19.5t-17 10.5t-23.5 8q-1 0 -12.5 4t-13 4.5t-12 5t-13 6.5t-11 7t-11 9.5t-8 11.5t-7 14t-3.5 16t-2 20zM485 100q0 39 25 63.5 t80 24.5q68 0 102.5 -52.5t34.5 -131.5q0 -93 -68.5 -167t-166.5 -111v32q60 34 102.5 85t42.5 91q0 18 -4 30t-14.5 19.5t-17 10.5t-23.5 8q-1 0 -12.5 4t-13 4.5t-12 5t-13 6.5t-11 7t-11 9.5t-8 11.5t-7 14t-3.5 16t-2 20z" />
<glyph unicode="&#x2022;" horiz-adv-x="1024" d="M186 651q0 135 95.5 230.5t230.5 95.5t230.5 -95.5t95.5 -230.5t-95.5 -230t-230.5 -95t-230.5 95t-95.5 230z" />
<glyph unicode="&#x2026;" horiz-adv-x="2048" d="M231 92q0 44 32.5 76.5t76.5 32.5t76.5 -32.5t32.5 -76.5t-32.5 -76t-76.5 -32t-76.5 32t-32.5 76zM915 92q0 44 32.5 76.5t76.5 32.5t76.5 -32.5t32.5 -76.5t-32.5 -76t-76.5 -32t-76.5 32t-32.5 76zM1599 92q0 44 32.5 76.5t76.5 32.5t76.5 -32.5t32.5 -76.5t-32.5 -76 t-76.5 -32t-76.5 32t-32.5 76z" />
<glyph unicode="&#x202f;" horiz-adv-x="345" />
<glyph unicode="&#x2039;" horiz-adv-x="681" d="M164 395v4q196 157 303 281q17 20 37 20q14 0 14 -16q0 -21 -101.5 -150t-101.5 -137t101.5 -138.5t101.5 -152.5q0 -16 -16 -16q-11 0 -54.5 43t-125.5 122t-158 140z" />
<glyph unicode="&#x203a;" horiz-adv-x="681" d="M164 106q0 21 101.5 150t101.5 137t-101.5 138.5t-101.5 152.5q0 16 16 16q11 0 54.5 -43t125.5 -122t158 -140v-4q-199 -159 -303 -280q-18 -21 -37 -21q-14 0 -14 16z" />
<glyph unicode="&#x205f;" horiz-adv-x="432" />
<glyph unicode="&#x2122;" horiz-adv-x="2027" d="M172 1137v161h623v-161h-33q-33 129 -127 129h-94v-572q0 -66 7 -78q8 -15 52 -22q8 -1 33 -4v-33h-299v33q70 9 81 21t11 83v572h-94q-54 0 -82.5 -34.5t-44.5 -94.5h-33zM877 1266v32h210l289 -577l301 577h181v-32q-56 -3 -80.5 -29.5t-24.5 -75.5v-467q0 -66 7 -78 q8 -15 52 -22q8 -1 33 -4v-33h-299v33q70 9 81 21t11 83v434h-4l-284 -577h-17l-280 571h2h-4v-413q0 -61 18.5 -86.5t75.5 -32.5v-33h-238v33q57 7 75.5 32.5t18.5 86.5v462q0 39 -41 67t-83 28z" />
<glyph unicode="&#x25fc;" horiz-adv-x="788" d="M0 0v788h788v-788h-788z" />
<glyph unicode="&#xfb01;" horiz-adv-x="1099" d="M39 0v33q81 0 106 34t25 150v504h-119q0 38 22 52t97 30q5 58 11.5 105t21.5 109.5t35 111t54.5 98.5t77.5 82.5t105.5 53.5t138.5 21q55 0 109 -10t96.5 -36.5t42.5 -63.5q0 -32 -18.5 -50t-48.5 -18q-23 0 -52.5 18.5t-56 40t-69 40t-87.5 18.5q-101 0 -159 -85 t-58 -265v-182h398q44 0 102 8q54 8 57 8q27 0 27 -31v-559q0 -115 24.5 -149.5t102.5 -34.5v-33h-408v33q86 0 112 34t26 150v389q0 81 -19 98t-102 17h-320v-504q0 -115 24 -149.5t99 -34.5v-33h-397z" />
<glyph unicode="&#xfb02;" horiz-adv-x="1099" d="M47 0v33q85 0 111 34t26 150v504h-118q0 38 21.5 52t96.5 30q47 581 490 581q30 0 89.5 -6t90.5 -6q48 0 68 4v-1159q0 -110 23 -145.5t79 -38.5v-33h-393v33q93 0 120 33.5t27 150.5v504h-450v-504q0 -114 21.5 -149t86.5 -35v-33h-389zM328 791h450v403 q-30 27 -45.5 40t-50.5 38.5t-70 38t-69 12.5q-95 0 -155 -88.5t-60 -271.5v-172z" />
</font>
</defs>
</svg>
