<?xml version="1.0" standalone="no"?>
<!DOCTYPE svg PUBLIC "-//W3C//DTD SVG 1.1//EN" "http://www.w3.org/Graphics/SVG/1.1/DTD/svg11.dtd" >
<svg xmlns="http://www.w3.org/2000/svg">
<metadata></metadata>
<defs>
<font id="jeanne_moderno_ot_boldbold" horiz-adv-x="1581" >
<font-face units-per-em="2048" ascent="1587" descent="-461" />
<missing-glyph horiz-adv-x="563" />
<glyph unicode="ffl" horiz-adv-x="1781" d="M55 1044v37h113v193q0 138 94 226.5t266 88.5q112 0 203 -47l-20 -31q-53 29 -117 29q-79 0 -116.5 -53.5t-37.5 -122.5v-283h324v197q0 138 94 226.5t266 88.5q112 0 203 -47h309v-1476q0 -26 17.5 -42t40.5 -16q51 0 73 60h35q-41 -97 -153 -97h-25q-133 0 -196.5 58 t-63.5 186v825h-328v-1013h88v-31h-446v31h86v1013h-324v-1013h88v-31h-446v31h86v1013h-113zM1036 1081h328v435h-57q-51 28 -117 28q-79 0 -116.5 -53.5t-37.5 -122.5v-287z" />
<glyph unicode="&#xfb01;" horiz-adv-x="1196" d="M55 1044v37h113v197q0 138 94 226.5t266 88.5q112 0 203 -47l-16 -33q-57 31 -121 31q-79 0 -116.5 -53.5t-37.5 -122.5v-287h600v-1011q0 -26 17.5 -42t40.5 -16q51 0 73 60h35q-41 -97 -153 -97h-25q-133 0 -195.5 58t-62.5 186v825h-330v-1013h88v-31h-446v31h86v1013 h-113zM752 1448q0 58 38 96.5t97 38.5t97 -38.5t38 -96.5t-38 -96.5t-97 -38.5t-97 38.5t-38 96.5z" />
<glyph unicode="&#xfb02;" horiz-adv-x="1196" d="M55 1044v37h113v197q0 138 94 226.5t266 88.5q112 0 203 -47h309v-1476q0 -26 17.5 -42t40.5 -16q51 0 73 60h35q-41 -97 -153 -97h-25q-133 0 -196.5 58t-63.5 186v825h-328v-1013h88v-31h-446v31h86v1013h-113zM440 1081h328v435h-57q-51 28 -117 28 q-79 0 -116.5 -53.5t-37.5 -122.5v-287z" />
<glyph horiz-adv-x="0" />
<glyph horiz-adv-x="0" />
<glyph horiz-adv-x="682" />
<glyph unicode="&#xd;" horiz-adv-x="563" />
<glyph unicode=" "  horiz-adv-x="563" />
<glyph unicode="&#x09;" horiz-adv-x="563" />
<glyph unicode="&#xa0;" horiz-adv-x="563" />
<glyph unicode="!" horiz-adv-x="653" d="M164 1352q0 74 49 115.5t115 41.5t113.5 -40.5t47.5 -114.5q0 -80 -36 -199q-2 -7 -23.5 -71t-32 -109.5t-27.5 -133.5t-24.5 -207t-7.5 -265h-27q0 154 -8 277.5t-23 207t-27 133.5t-30 103t-22 69q-4 17 -12 46t-12.5 47t-8.5 45.5t-4 54.5zM190 109q0 58 38.5 96.5 t97.5 38.5q58 0 96.5 -38t38.5 -97t-38.5 -97.5t-96.5 -38.5t-97 38.5t-39 97.5z" />
<glyph unicode="&#x22;" horiz-adv-x="518" d="M113 963v565h61v-565h-61zM344 963v565h62v-565h-62z" />
<glyph unicode="#" horiz-adv-x="1304" d="M92 444l35 138h231l109 325h-285l33 137h291l166 537l55 -14l-160 -523h379l160 537l59 -14l-155 -523h202l-34 -137h-211l-103 -325h258l-32 -138h-267l-143 -460l-64 14l142 446h-373l-139 -460l-62 14l133 446h-225zM426 582h373l104 325h-373z" />
<glyph unicode="$" horiz-adv-x="1204" d="M102 311q0 64 39 99.5t92 35.5t92.5 -35t39.5 -96q0 -55 -34.5 -83.5t-84.5 -28.5q-49 0 -49 -21q0 -85 145 -143l164 536q-95 33 -160 70.5t-116 91.5t-75.5 129t-25.5 174q0 180 129 306q135 129 336 129q82 0 180 -29l68 229l30 -10l-71 -229q223 -105 223 -260 q0 -64 -33 -108t-104 -44q-50 0 -84.5 32t-34.5 89q0 53 31 79.5t80 28.5q20 1 30.5 11.5t10.5 23.5q0 48 -127 113l-140 -447q43 -14 73 -24.5t71 -27t69.5 -32t62.5 -39t57.5 -47.5t47 -57t37.5 -70t22.5 -83t8.5 -99q0 -107 -32.5 -197t-96.5 -159.5t-170.5 -108.5 t-245.5 -39q-116 0 -199 29l-84 -270l-28 6l88 272q-106 39 -169 119.5t-63 183.5zM307 1178q0 -19 4.5 -36t10.5 -30.5t20 -26.5t24.5 -22t32.5 -19.5t35.5 -17t43 -16.5t45 -15t50.5 -16t52 -16l137 450q-80 31 -168 31q-128 0 -207.5 -73t-79.5 -193zM369 31 q85 -27 194 -27q167 0 264 71.5t97 182.5q0 108 -95.5 179t-293.5 128z" />
<glyph unicode="%" horiz-adv-x="1871" d="M92 1135q0 158 110.5 264t293.5 106q129 0 239 -65q121 -74 320 -74q135 0 286 51q36 -21 42 -30.5t-5 -22.5q-153 -235 -462 -709t-463 -710l-52 35l906 1384q-140 -37 -238 -37q-147 0 -244 27q74 -103 74 -219q0 -167 -111 -272t-294 -105q-182 0 -292 108.5 t-110 268.5zM336 1042q0 -124 37 -189t123 -65q85 0 121 65t36 189v168q0 142 -35 203.5t-124 61.5q-88 0 -123 -59.5t-35 -205.5v-168zM973 350q0 158 110 264.5t293 106.5q184 0 294 -106t110 -265q0 -167 -111.5 -272t-294.5 -105q-182 0 -291.5 108.5t-109.5 268.5z M1219 258q0 -124 37 -189t122 -65t121.5 65t36.5 189v168q0 141 -35.5 202.5t-124.5 61.5q-88 0 -122.5 -58.5t-34.5 -205.5v-168z" />
<glyph unicode="&#x26;" horiz-adv-x="1406" d="M102 379q0 85 33 156t90 117.5t127.5 76t151.5 39.5q7 0 4 5q-2 2 -6 3q-109 27 -185.5 110.5t-76.5 205.5q0 74 23.5 134t65 99t91 66.5t108 42t109.5 20.5t102 6q132 0 240 -45l-16 -22q-93 37 -224 37q-49 0 -92 -17t-82 -55t-61.5 -109.5t-22.5 -169.5 q0 -133 56.5 -218t171.5 -85h573l-4 -31h-84v-929q0 -61 19 -83t51 -22q65 0 90 60h32q-23 -47 -59 -72t-115 -25h-30q-66 0 -122.5 24t-96 81t-39.5 139v242q-49 -104 -127 -145.5t-197 -41.5q-99 0 -188.5 27t-158.5 77t-110 128.5t-41 173.5zM426 395q0 -73 13 -138.5 t39 -120.5t70.5 -87.5t102.5 -32.5q80 0 144 43t96.5 106.5t32.5 131.5v448h-203q-81 0 -141 -30.5t-92 -82.5t-47 -111t-15 -126z" />
<glyph unicode="'" horiz-adv-x="284" d="M113 963v565h59v-565h-59z" />
<glyph unicode="(" horiz-adv-x="868" d="M154 621q0 113 18 230t53 232t91.5 217t127.5 182.5t166.5 131t204.5 59.5v-31q-99 -19 -187.5 -94t-158 -198.5t-110 -307t-40.5 -401.5q0 -74 3.5 -144.5t11.5 -160t25 -169.5t41.5 -165.5t63 -157t87.5 -133t117 -105t149 -63.5v-30q-109 7 -201.5 49.5t-159.5 108 t-120 154.5t-86.5 185t-55.5 204.5t-31 207.5t-9 199z" />
<glyph unicode=")" horiz-adv-x="858" d="M51 -457q81 20 149 63.5t117 105t87.5 133t63 157t41.5 165.5t25 169.5t11.5 160t3.5 144.5q0 218 -40.5 401.5t-110 307t-158 198.5t-187.5 94v31q109 -9 204.5 -59.5t167 -131t127.5 -182.5t91.5 -217t53.5 -232t18 -230q0 -100 -9 -199t-31 -207.5t-56 -204.5 t-87 -185t-120 -154.5t-159.5 -108t-201.5 -49.5v30z" />
<glyph unicode="*" horiz-adv-x="1028" d="M125.5 913q8.5 39 48.5 62q31 17 71.5 21.5t100 14.5t129.5 40q13 7 13 8.5t-5 3.5q-68 28 -131 36.5t-104.5 13.5t-73.5 26q-38 24 -46 65t13 72q19 32 52.5 43.5t78.5 -10.5q26 -15 46.5 -40.5t35.5 -51t50.5 -63t84.5 -73.5q13 -10 13 2q-8 79 -29.5 138t-39 97.5 t-17.5 76.5q0 46 28.5 71t65.5 25q39 0 70 -26t32 -70q2 -39 -15 -79.5t-40 -100t-33 -130.5q-1 -7 2.5 -7.5t8.5 3.5q51 37 87.5 75t51.5 63.5t36.5 51.5t47.5 42q45 20 77.5 8.5t51.5 -43.5q22 -31 14 -72t-45 -63q-33 -21 -75 -26.5t-103 -14.5t-127 -37q-22 -8 -2 -16 q72 -32 131.5 -42.5t101 -14.5t74.5 -21q39 -23 47 -62t-12 -67q-20 -36 -56 -48.5t-77 7.5q-28 14 -51 39.5t-38.5 51.5t-49.5 64t-80 72q-3 3 -5.5 4t-4.5 1.5t-3 -1.5t0 -6q10 -72 32.5 -130.5t39 -97.5t14.5 -77q-1 -44 -32 -70t-70 -26q-37 0 -65.5 25t-28.5 71 q0 37 17 75t39 96t30 136q0 11 -10 4q-46 -35 -80.5 -73.5t-50.5 -64.5t-39 -50.5t-50 -38.5q-43 -19 -79 -6.5t-56 47.5q-20 28 -11.5 67z" />
<glyph unicode="+" horiz-adv-x="1366" d="M113 553v47h546v547h48v-547h546v-47h-546v-553h-48v553h-546z" />
<glyph unicode="," horiz-adv-x="552" d="M133 94q0 54 39.5 95.5t95.5 41.5q72 0 112 -74.5t40 -164.5q0 -54 -17 -103q-22 -60 -57.5 -106.5t-105.5 -89.5l-17 18q68 40 117 107t49 147q0 55 -24 55q-17 0 -43 -26q-27 -27 -66 -27q-48 0 -85.5 38t-37.5 89z" />
<glyph unicode="-" horiz-adv-x="710" d="M113 436v168h485l-2 -168h-483z" />
<glyph unicode="." horiz-adv-x="536" d="M133 109q0 59 38.5 97t96.5 38t96.5 -38t38.5 -97t-38.5 -97.5t-96.5 -38.5t-96.5 38.5t-38.5 97.5z" />
<glyph unicode="/" horiz-adv-x="645" d="M41 -33l504 1645l59 -23l-502 -1644z" />
<glyph unicode="0" horiz-adv-x="1302" d="M92 549q0 110 39.5 211.5t110.5 180t177.5 125t231.5 46.5q126 0 232.5 -46.5t177 -125t110 -180t39.5 -211.5q0 -157 -69.5 -286.5t-199 -206t-294.5 -76.5q-126 0 -232 47.5t-176 127t-108.5 182t-38.5 212.5zM403 385q0 -62 13.5 -124t41 -119.5t78 -93.5t115.5 -36 t114.5 34.5t76.5 91t40 119t13 128.5v307q0 192 -56.5 288.5t-189.5 96.5q-131 0 -188.5 -99t-57.5 -286v-307z" />
<glyph unicode="1" horiz-adv-x="772" d="M82 641q92 88 149.5 203.5t65.5 228.5q168 0 274 25v-1067h88v-31h-448v31h84v874q0 18 -6 0q-48 -140 -178 -276z" />
<glyph unicode="2" horiz-adv-x="1230" d="M66 0q68 54 154 120.5t134.5 103.5t109 86t92.5 78t69.5 68.5t55.5 69t35 67.5t23 76t6 83v22q0 52 -2.5 87t-13.5 79.5t-31 71.5t-58.5 46t-92.5 19q-66 0 -128.5 -19.5t-102.5 -47t-64.5 -56t-24.5 -47.5q0 -25 49 -28q43 -5 77 -40t34 -77q0 -135 -139 -135 q-46 0 -84.5 35t-38.5 86q0 155 124.5 258.5t303.5 103.5q91 0 178 -26.5t155 -72.5t109 -114t41 -145q0 -52 -35 -107.5t-87 -101.5t-125 -95.5t-135.5 -85t-132.5 -75.5t-103 -62q-25 -15 -5 -17l25 -1h649v63h31v-270h-1052z" />
<glyph unicode="3" horiz-adv-x="1030" d="M61 811v270h797l-461 -528q27 8 70 8q56 0 117.5 -16t126 -54.5t115.5 -93.5t83.5 -141t32.5 -190q0 -127 -27.5 -229t-84 -179t-150.5 -118.5t-219 -41.5q-53 0 -102 10.5t-96 34t-75 69.5t-28 109q0 47 37 89.5t92 42.5q61 0 94 -34t33 -89q0 -53 -35.5 -82t-77.5 -29 q-16 0 -27.5 -6t-11.5 -16q0 -13 17 -27q56 -43 186 -43q42 0 74 20t51 52t31 76.5t16 88t4 93.5v295q0 200 -48.5 289t-170.5 89q-51 0 -74 -30l-22 14l270 311q21 24 24.5 34.5t-4 12.5t-32.5 2h-494v-63h-31z" />
<glyph unicode="4" horiz-adv-x="1271" d="M72 1051v30h358v-637q0 -226 24.5 -291t141.5 -65h186v481h-86v31h359v-512h166v-37h-166v-500h88v-30h-447v30h86v500h-192q-86 0 -154 13t-112.5 33.5t-76.5 54.5t-48.5 65.5t-25.5 78.5t-11 81.5t-2 85.5v588h-88z" />
<glyph unicode="5" horiz-adv-x="1157" d="M102 -150q0 57 38.5 94.5t90.5 37.5q62 0 100 -31t38 -94q0 -56 -35 -84.5t-88 -28.5q-49 0 -49 -33q0 -31 49 -80q49 -44 130 -76t163 -32q43 0 77 14t55.5 34.5t37 54.5t23.5 63t12.5 72t5 69.5t0.5 67.5v292q0 52 -6.5 98.5t-24.5 93t-46 79.5t-74.5 53.5t-106.5 20.5 q-26 0 -51.5 -3.5t-69.5 -16t-86.5 -45t-73.5 -81.5l-27 6l105 543q28 52 93.5 85.5t152.5 33.5q53 0 121 -28.5t123 -56.5t77 -28q32 0 51 25t19 59q0 21 -11 47l17 25q26 -42 26 -99q0 -31 -9 -63t-29 -65.5t-60 -54.5t-94 -21q-69 0 -154 30.5t-139 30.5 q-55 0 -108.5 -24.5t-79.5 -57.5l-64 -327q35 41 68 63q88 59 209 59q89 0 169 -17t151.5 -55t123.5 -95t82.5 -141.5t30.5 -188.5q0 -141 -40.5 -252.5t-112 -181.5t-164.5 -106t-201 -36q-93 0 -176 31.5t-138.5 81.5t-88 113t-32.5 126z" />
<glyph unicode="6" horiz-adv-x="1265" d="M133 522v471q0 120 33.5 228t95 190.5t156 131t207.5 48.5q193 0 305 -67l-15 -27q-102 51 -227 51q-51 0 -92 -15.5t-69 -40.5t-48.5 -64.5t-32 -79.5t-18 -94t-8.5 -100t-2 -105v-97q31 65 98 112.5t178 47.5q98 0 177.5 -29t133 -79.5t90 -122t52.5 -153.5t16 -177 q0 -84 -14 -161t-49 -153.5t-88.5 -132t-138.5 -90t-193 -34.5q-142 0 -250.5 45t-171.5 122.5t-94 171.5t-31 203zM418 414q0 -78 12.5 -147t39 -127t73.5 -92t110 -34q53 0 91.5 19t61.5 51t36.5 83t18.5 105.5t5 128.5v281v65t-1.5 62t-4.5 62t-9 54.5t-14.5 51t-22 40.5 t-30.5 33t-40.5 19t-51.5 8q-58 0 -105.5 -17.5t-78 -45t-51.5 -62.5t-30 -67.5t-9 -61.5v-409z" />
<glyph unicode="7" horiz-adv-x="1015" d="M92 809v272h883l-682 -1652l-31 12l559 1354q21 55 18.5 66t-32.5 11h-684v-63h-31z" />
<glyph unicode="8" horiz-adv-x="1198" d="M102 422q0 42 12.5 93t38.5 106t73 104.5t108 77.5q-81 57 -122.5 146t-41.5 190q0 85 29.5 165.5t83 145t139 104t188.5 39.5q162 0 260.5 -98t98.5 -258q0 -186 -166 -289h2q153 -73 230 -193.5t77 -258.5q0 -98 -39 -190.5t-108 -165t-173.5 -116.5t-226.5 -44 q-212 0 -337.5 121.5t-125.5 320.5zM137 422q0 -182 117 -297t313 -115q63 0 129 17.5t125 51t97 91t38 129.5q0 51 -25.5 98.5t-63.5 83.5t-103 77.5t-121 71t-143.5 75.5t-145.5 79q-93 -40 -155 -143.5t-62 -218.5zM303 1296q1 -29 11.5 -54.5t24.5 -45.5t40.5 -41 t48.5 -35t59.5 -32.5t63 -29.5t69 -29.5t68.5 -29.5q56 -24 86 -36q74 36 119 112t45 162q0 45 -11 89.5t-36 87.5t-61.5 76t-93.5 53t-126 20q-152 0 -232 -77.5t-75 -189.5z" />
<glyph unicode="9" horiz-adv-x="1265" d="M102 541q0 84 14 161.5t49.5 153.5t89 131.5t138.5 90t193 34.5q114 0 207 -30t155.5 -81t104.5 -121t61 -147.5t19 -163.5v-444q0 -100 -20 -192t-61.5 -170.5t-99.5 -137t-138 -92t-173 -33.5q-191 0 -305 68l14 26q102 -51 228 -51q51 0 92 15.5t69 40.5t48.5 64.5 t32 79.5t18 94.5t8.5 100.5t2 105v96q-31 -65 -98.5 -112t-178.5 -47q-98 0 -177.5 29t-133 79.5t-90 122t-52.5 153.5t-16 177zM399 345q0 -22 1.5 -62t4.5 -62t9 -55t14.5 -51t22 -40.5t30.5 -33.5t40.5 -19t51.5 -8q71 0 127 26.5t86.5 66.5t46 82t15.5 79v410 q0 78 -13 146.5t-39.5 127t-73.5 92t-110 33.5q-53 0 -91.5 -19t-61.5 -51t-36.5 -83t-18.5 -105.5t-5 -128.5v-280v-65z" />
<glyph unicode=":" horiz-adv-x="536" d="M133 109q0 59 38.5 97t96.5 38t96.5 -38t38.5 -97t-38.5 -97.5t-96.5 -38.5t-96.5 38.5t-38.5 97.5zM133 719q0 59 38.5 97t96.5 38t96.5 -38t38.5 -97t-38.5 -97t-96.5 -38t-96.5 38t-38.5 97z" />
<glyph unicode=";" horiz-adv-x="552" d="M133 94q0 54 39.5 95.5t95.5 41.5q72 0 112 -74.5t40 -164.5q0 -54 -17 -103q-22 -60 -57.5 -106.5t-105.5 -89.5l-17 18q68 40 117 107t49 147q0 55 -24 55q-17 0 -43 -26q-27 -27 -66 -27q-48 0 -85.5 38t-37.5 89zM133 719q0 59 38.5 97t96.5 38t96.5 -38t38.5 -97 t-38.5 -97t-96.5 -38t-96.5 38t-38.5 97z" />
<glyph unicode="&#x3c;" horiz-adv-x="903" d="M139 530l578 463l49 -80l-485 -383l485 -383l-49 -77z" />
<glyph unicode="=" horiz-adv-x="1296" d="M139 371v47h1020v-47h-1020zM139 606v47h1020v-47h-1020z" />
<glyph unicode="&#x3e;" horiz-adv-x="903" d="M139 147l486 383l-486 383l49 80l578 -463l-578 -460z" />
<glyph unicode="?" horiz-adv-x="993" d="M90 1278q0 96 88 155.5t223 59.5q116 0 219 -43.5t168 -134.5q82 -116 82 -295q0 -101 -29 -185.5t-76 -140t-108 -94.5t-123 -56.5t-124 -19.5h-33v-159h-29v190q124 0 182 83t58 288v200q0 157 -50.5 248.5t-158.5 91.5q-53 0 -96 -19t-43 -44q0 -13 12.5 -27.5t27 -26 t27 -33.5t12.5 -48q0 -47 -36 -81t-86 -34q-46 0 -76.5 36.5t-30.5 88.5zM227 109q0 59 38.5 97t96.5 38q59 0 97.5 -38.5t38.5 -96.5q0 -59 -39 -97.5t-97 -38.5t-96.5 38.5t-38.5 97.5z" />
<glyph unicode="@" horiz-adv-x="2115" d="M143 518q0 171 69.5 331t190 281t294 194t368.5 73q145 0 280 -38t250.5 -114t202 -182t135.5 -250.5t49 -310.5q0 -130 -53 -263.5t-143 -238.5h-449v137q-35 -77 -107 -120.5t-149 -43.5q-106 0 -193 32t-153.5 97.5t-103.5 174.5t-37 255q0 77 13.5 148.5t49.5 145 t91 127.5t145.5 88t206.5 34q267 0 386.5 -150t119.5 -436v-456h143q74 84 120 210t46 257q0 188 -69.5 346.5t-187 264.5t-272 165t-325.5 59q-154 0 -290.5 -68.5t-229.5 -181t-147 -258t-54 -297.5q0 -132 32.5 -252t88.5 -213t132.5 -169t164.5 -125.5t184 -76 t191 -26.5q59 0 98.5 2.5t110 17.5t137.5 44v-37q-174 -72 -394 -72q-179 0 -351 71.5t-302 191t-209.5 286t-79.5 346.5zM881 422q0 -210 44 -312t156 -102q103 0 179.5 78.5t76.5 185.5v375q0 172 -62.5 282.5t-176.5 110.5q-65 0 -110 -31.5t-67 -89t-31 -120t-9 -142.5 v-235z" />
<glyph unicode="A" d="M106 707q0 163 34.5 294.5t119.5 237.5q82 102 215 161.5t281 59.5h20q317 0 479 -183.5t162 -586.5v-659h90v-31h-413v186q-108 -105 -202 -160t-194 -55q-146 0 -262.5 64.5t-186.5 171t-106.5 234.5t-36.5 266zM473 526q0 -93 1.5 -143t8.5 -120.5t23 -108t42.5 -76 t69.5 -54.5t103 -16q52 0 111.5 25.5t110 64.5t83.5 69.5t55 55.5q13 13 13 37v629q0 119 -17 213.5t-53.5 169t-99.5 115t-150 40.5h-16q-72 0 -124 -26t-82.5 -68.5t-48.5 -111t-24 -138t-6 -163.5v-394z" />
<glyph unicode="B" horiz-adv-x="1441" d="M76 0v31h88v794q0 83 5.5 150t21 134.5t41 118.5t66.5 95.5t96.5 73t132.5 45t173 16.5q60 0 122 -9t133 -34.5t125 -64.5t90 -106.5t36 -153.5q0 -122 -79.5 -200t-202.5 -116q-6 -2 -6 -5t6 -3q107 -2 204 -49t161.5 -138.5t64.5 -207.5q0 -189 -151 -294.5 t-406 -105.5q-234 0 -320 166v-137h-401zM479 1063q0 -21 1 -66t1 -69v-140q0 -6 1 -8.5t7.5 -4t20.5 -1.5h250q93 0 142.5 81t49.5 210q0 80 -11 142t-31.5 100.5t-43.5 63.5t-54 36.5t-56 15.5t-56 4q-58 0 -98.5 -18.5t-64.5 -48t-37 -79t-17 -98.5t-4 -120zM481 256 q7 -106 91 -176t196 -70q69 0 125 28t84 85q31 61 31 217q0 58 -1.5 96t-8 83.5t-18 74.5t-32.5 59t-51 47t-74.5 29t-101.5 14h-211q-20 0 -24.5 -3.5t-4.5 -12.5v-471z" />
<glyph unicode="C" horiz-adv-x="1300" d="M106 721q0 74 8.5 144.5t29.5 145t53.5 139t84 122.5t116.5 99t156 65t198 24q86 0 158 -16t119 -40.5t83.5 -58.5t56.5 -66t32.5 -66.5t16 -57.5t3.5 -41q0 -75 -44.5 -115.5t-115.5 -40.5q-68 0 -111 39t-43 109q0 38 14 65.5t33.5 42t39.5 25.5t34 24t14 29 q0 67 -83 102.5t-195 35.5q-62 0 -108.5 -16t-77 -50.5t-49.5 -76t-28.5 -106.5t-12.5 -126t-3 -150v-526q0 -176 81.5 -273.5t217.5 -99.5q78 0 149 29t122 76.5t87.5 102t57.5 112.5l29 -13q-24 -69 -62.5 -127t-96 -108.5t-141 -79.5t-184.5 -29q-166 0 -290.5 56 t-199.5 158t-112 236.5t-37 301.5z" />
<glyph unicode="D" d="M74 0v31h90v659q0 403 162 586.5t479 183.5h20q147 0 278.5 -59.5t217.5 -161.5q154 -200 154 -532q0 -138 -36.5 -266t-106.5 -234.5t-186.5 -171t-262.5 -64.5q-100 0 -194 55t-202 160v-186h-413zM487 260q0 -24 13 -37q22 -25 55 -55.5t83.5 -69.5t110 -64.5 t111.5 -25.5q60 0 103 16t69.5 54.5t42.5 76t23 108t8.5 120.5t1.5 143v394q0 94 -6 163.5t-24 138t-48.5 111t-82.5 68.5t-124 26h-16q-87 0 -150 -40.5t-99.5 -115t-53.5 -169t-17 -213.5v-629z" />
<glyph unicode="E" horiz-adv-x="1224" d="M106 727q0 119 24 226t74.5 200.5t124 162t179.5 107.5t233 39q75 0 144.5 -19t115 -46.5t80 -55t50.5 -46.5l16 -19l-27 -19q-73 84 -166 126t-192 42q-77 0 -129.5 -28t-81 -84t-40 -126t-11.5 -167v-246h409l-2 -37h-407v-278q0 -103 12 -179.5t41.5 -141t86 -98.5 t138.5 -34q95 0 199.5 53t167.5 146l24 -19q-68 -97 -182.5 -157t-277.5 -60q-61 0 -118 9.5t-118.5 33.5t-113.5 61.5t-99.5 97.5t-81 137t-53 184t-19.5 235z" />
<glyph unicode="F" horiz-adv-x="1159" d="M74 0v31h88v839q0 138 31 239.5t122 193.5q68 70 181 115.5t239 45.5q80 0 153 -19.5t120 -47t83 -55t52 -46.5l16 -20l-26 -19q-75 86 -174 128t-205 42q-42 0 -77 -9.5t-61 -24t-45.5 -41t-32.5 -50t-22 -63t-13.5 -67.5t-7 -76t-3 -76.5t-0.5 -79.5v-166h430l-2 -37 h-428v-737h-418z" />
<glyph unicode="G" horiz-adv-x="1560" d="M106 786q0 311 176.5 492.5t485.5 181.5q137 0 255.5 -47t206 -132.5t137.5 -213.5t50 -281v-763q0 -84 -18 -152.5t-46 -114t-69.5 -79.5t-81.5 -52.5t-88.5 -29.5t-84.5 -14t-75 -3q-219 0 -348 109q-74 67 -74 137q0 53 48 92q47 35 98 35q46 0 83.5 -36.5t37.5 -82.5 q0 -28 -15 -50t-33.5 -33t-33.5 -28t-15 -36q0 -28 62.5 -49t128.5 -21q52 0 88.5 16.5t56 41t31 65t14 75.5t2.5 85v469q-53 -116 -153 -177t-230 -61q-269 0 -432.5 182t-163.5 475zM449 987q0 -56 1 -200.5t1 -176.5q0 -59 1 -97t7 -89t17 -84t31.5 -69t49.5 -56 t72.5 -33.5t99.5 -13.5q78 0 147.5 36t118.5 93q45 52 67.5 114t22.5 169v350q0 41 -0.5 66t-3.5 70t-8.5 74.5t-16.5 71t-26.5 68.5t-39.5 57t-55 47.5t-73.5 29t-93.5 11.5q-75 0 -131.5 -21.5t-91.5 -59t-57 -94t-30.5 -120t-8.5 -143.5z" />
<glyph unicode="H" horiz-adv-x="1542" d="M98 0v31h88v1362h-88v30h490v-30h-88v-619h542v619h-86v30h488v-30h-86v-1362h86v-31h-488v31h86v706h-542v-706h88v-31h-490z" />
<glyph unicode="I" horiz-adv-x="681" d="M98 0v31h88v1362h-88v30h486v-30h-86v-1362h86v-31h-486z" />
<glyph unicode="J" horiz-adv-x="1198" d="M31 143l26 19q64 -73 169 -113.5t206 -40.5q61 0 108 14.5t79 37.5t55 62.5t35.5 78t19 96.5t8.5 105t2 116v875h-88v30h414v-872q0 -125 -34 -229.5t-101.5 -184.5t-178 -125t-253.5 -45q-94 0 -176.5 18t-133 44t-88.5 52t-54 44z" />
<glyph unicode="K" horiz-adv-x="1394" d="M98 0v31h88v1362h-88v30h418v-647q156 11 309 86q109 51 194 126.5t85 139.5q0 46 -51 80q-21 16 -32.5 27t-22.5 31.5t-11 44.5q0 57 37 96t92 39q67 0 105 -49q31 -40 31 -91q0 -11 -1 -22q-22 -176 -196.5 -321.5t-423.5 -192.5q-7 -1 -8 -5q1 -2 4 -3 q93 -3 170.5 -18.5t153 -47t132.5 -85.5t101 -129.5t67 -184t23 -244.5q0 -11 4.5 -16t9 -5.5t15.5 -0.5h61v-31h-504v31h55q18 0 25.5 5.5t7.5 22.5q0 255 -45 403.5t-137.5 213.5t-249.5 65v-710h88v-31h-506z" />
<glyph unicode="L" horiz-adv-x="1196" d="M74 1393v30h413v-954q0 -66 4 -117t14.5 -107t31.5 -96t53 -73.5t81.5 -50.5t114.5 -17q102 0 210.5 40.5t172.5 113.5l27 -19q-5 -7 -16 -19t-52 -42.5t-90 -53.5t-132 -42t-177 -19q-143 0 -253.5 45t-178 125t-101.5 184.5t-34 229.5v842h-88z" />
<glyph unicode="M" horiz-adv-x="2412" d="M98 0v31h88v1362h-88v30h420v-194q54 112 167 173.5t249 61.5q149 0 261 -75t157 -201q37 104 149 186t240 82q255 0 373 -148t118 -438v-839h90v-31h-507v31h86v925q0 63 -1 106.5t-5.5 94.5t-13 85t-23 68.5t-35 54t-50.5 32t-69 12.5q-59 0 -117.5 -26.5t-106 -73 t-77 -116.5t-29.5 -151v-1011h88v-31h-504v31h89v925q0 74 -2 124t-8.5 107.5t-20.5 94.5t-36 69.5t-57 48t-81 15.5q-123 0 -223.5 -114.5t-100.5 -276.5v-993h88v-31h-508z" />
<glyph unicode="N" d="M98 0v31h88v1362h-88v30h418v-206q10 31 36.5 69t69 79t108.5 68t140 27q90 0 166 -17t145.5 -58t118 -105.5t77 -165.5t28.5 -231v-852h86v-31h-506v31h88v975q0 207 -51 312t-164 105q-92 0 -171 -53.5t-125 -142.5t-46 -189v-1007h88v-31h-506z" />
<glyph unicode="O" horiz-adv-x="1560" d="M106 721q0 159 38 289.5t117 232.5t211 158.5t308 56.5q142 0 255.5 -37t191 -103t129 -159t75 -202t23.5 -236q0 -123 -25.5 -233.5t-79.5 -206t-132.5 -165t-191 -109.5t-247.5 -40q-171 0 -302 58t-210.5 161.5t-119.5 238t-40 296.5zM471 473q0 -49 2.5 -91.5t11 -92 t22 -90t37.5 -79t55 -64.5t77 -42t102 -16q57 0 103.5 16t78.5 43t56 68t38 84t22 98t11 104t3 107v354q0 102 -7 179t-27 150.5t-53.5 121t-89.5 76t-133 28.5q-58 0 -103.5 -15t-77.5 -40t-55.5 -65.5t-37.5 -84t-22 -104t-10.5 -117t-2.5 -129.5v-399z" />
<glyph unicode="P" horiz-adv-x="1564" d="M143 -326v1143q0 181 81.5 327.5t230.5 231t338 84.5h20q327 0 508 -219q83 -103 110 -223.5t27 -276.5q0 -176 -84.5 -317.5t-225.5 -219.5t-308 -79q-118 0 -216.5 62t-156.5 184v-666h88v-31h-412zM467 504q0 -60 28.5 -120.5t76 -108.5t115.5 -78.5t142 -30.5 q68 0 117.5 28.5t79.5 75.5t47.5 121t24 151.5t6.5 180.5v266q0 438 -293 438h-16q-154 0 -241 -107.5t-87 -272.5v-543z" />
<glyph unicode="Q" horiz-adv-x="1554" d="M106 723q0 166 41.5 301t122.5 232.5t207.5 150.5t290.5 53h20q135 0 245 -37.5t186.5 -104t128.5 -160t76 -202t24 -233.5t-24.5 -234.5t-78.5 -210t-149.5 -176.5t-226.5 -116q2 -55 4 -90.5t6.5 -82t12 -75.5t19 -56t29.5 -40t41 -13q28 0 62 21t63 71l29 -18 q-25 -39 -50.5 -63.5t-75 -43t-118.5 -18.5q-27 0 -52.5 3.5t-58.5 14t-61 28t-56.5 49t-48.5 73t-33 103.5t-15 137q-560 99 -560 737zM465 473q0 -82 12 -176q3 7 6.5 12.5t19 20t35 24.5t56 18.5t80.5 8.5q53 0 104 -24.5t92.5 -69t68 -115.5t28.5 -156q28 20 49 51 t33 74t19.5 79.5t10.5 91.5t3.5 82.5t0.5 78.5v414q0 101 -6.5 177t-26 148t-52 117.5t-86 73t-126.5 27.5h-14q-74 0 -129 -28t-89 -74.5t-54 -118.5t-27.5 -149t-7.5 -177v-410zM496 270q0 -72 49.5 -141t120.5 -104q-7 158 -22 212q-27 90 -91 91q-18 0 -37.5 -15.5 t-19.5 -42.5z" />
<glyph unicode="R" horiz-adv-x="1490" d="M68 0v31h88v796q0 134 39 248t113.5 199t190.5 133.5t261 48.5h28q162 0 299.5 -67t219.5 -189t82 -274q0 -47 -6.5 -95.5t-23 -103t-42 -103.5t-67 -95t-94.5 -79.5t-127.5 -54t-162.5 -22.5q21 -34 113 -168.5t98 -143.5q19 -30 43 -30h76v-31h-410l-264 418 q-32 53 -39 53q-4 0 -4 -25v-446h-411zM477 719q0 -93 17.5 -153t56.5 -93.5t91 -46t132 -12.5q52 0 93.5 18.5t68.5 47.5t47.5 73t31 86t16.5 96t7.5 93t1.5 87v48q0 100 -6 169t-22.5 127.5t-45.5 92.5t-74.5 52.5t-109.5 18.5h-16q-133 0 -211 -106t-78 -266v-332z" />
<glyph unicode="S" horiz-adv-x="1296" d="M98 1034q0 180 144 305q72 62 175.5 92.5t217.5 30.5q186 0 313 -69q16 -9 33.5 -21t27 -18t15.5 -6q25 0 25 75h30l-6 -243l-31 2q-5 52 -28.5 94t-59.5 68t-75.5 44t-84 26.5t-76.5 12t-61 3.5q-179 0 -269.5 -69.5t-90.5 -189.5q0 -92 78 -140q63 -39 252 -83 q25 -6 80 -18l133 -31q366 -88 366 -438q0 -107 -35.5 -195t-107.5 -155t-189.5 -104.5t-271.5 -37.5q-230 0 -393 129q-26 23 -37 23t-15.5 -24t-9.5 -97h-26v229l26 -2q65 -117 188.5 -170t274.5 -53q187 0 292.5 65.5t105.5 174.5q0 106 -91 177t-296 122q-96 24 -170 51 t-142 68t-112.5 92t-71 122t-27.5 158z" />
<glyph unicode="T" horiz-adv-x="1421" d="M61 1174l13 249h1278l8 -249h-31q0 125 -58.5 168.5t-180.5 43.5h-216v-1355h89v-31h-502v31h88v1355h-213q-59 0 -100.5 -8.5t-76 -30.5t-52 -65t-17.5 -108h-29z" />
<glyph unicode="U" horiz-adv-x="1568" d="M88 1393v30h418v-1005q0 -207 51 -312.5t164 -105.5q92 0 171 53.5t125 142.5t46 189v1008h-88v30h418v-1392h88v-31h-418v207q-10 -31 -36.5 -69t-69 -79t-108.5 -68.5t-140 -27.5q-90 0 -166 17t-145.5 58.5t-118 106t-77 165.5t-28.5 231v852h-86z" />
<glyph unicode="V" horiz-adv-x="1404" d="M76 1393v30h420v-1120q0 -54 2.5 -92.5t12.5 -79t27 -65t47 -40.5t72 -16q120 0 223 55.5t175 146t123 207t75.5 238.5t24.5 240q0 87 -11.5 148t-27.5 93.5t-44.5 50t-51.5 21.5t-58 4q-19 0 -59 -6t-65 -6q-76 0 -112 38t-36 95q0 61 48.5 94t109.5 33q71 0 127.5 -24 t92.5 -66t61.5 -92t38 -110t17.5 -110.5t5 -103.5q0 -88 -10 -178.5t-34.5 -189t-61 -186.5t-93.5 -168t-127.5 -138t-168 -92.5t-210.5 -34.5q-102 0 -178.5 24.5t-126.5 68t-81.5 111t-44.5 146.5t-13 181v893h-88z" />
<glyph unicode="W" horiz-adv-x="2097" d="M88 1393v30h508v-30h-86v-924q0 -67 1 -112.5t5.5 -99t13 -88.5t23 -70.5t35 -55.5t50.5 -32.5t69 -12.5q59 0 117.5 30.5t105.5 83.5t76.5 133t29.5 171v977h-88v30h504v-30h-88v-926q0 -95 4 -160t17 -128t35.5 -99.5t61 -59t93.5 -22.5q149 0 233 128t84 333v897 q0 25 -2.5 31t-13.5 6h-76v30h215v-30h-73q-10 0 -14.5 -7t-4.5 -30v-903q0 -70 -9.5 -134t-36 -130.5t-67.5 -114.5t-110 -78.5t-158 -30.5q-216 0 -334 81t-149 247q-27 -148 -132.5 -238t-236.5 -90q-133 0 -233.5 42t-160 116t-89 167.5t-29.5 205.5v897h-90z" />
<glyph unicode="X" horiz-adv-x="1509" d="M70 248q0 60 38.5 99.5t92.5 39.5q60 0 94.5 -41.5t34.5 -89.5q0 -34 -18 -58.5t-39.5 -35.5t-39.5 -25.5t-18 -30.5q0 -42 53.5 -73t126.5 -31q50 0 84.5 15t54 39t30 68t13.5 87t3 111v729q0 55 -1 93.5t-4.5 80t-10 69.5t-17.5 54.5t-26.5 41.5t-37.5 24t-51 9 q-68 0 -124.5 -28t-94 -75.5t-61 -100.5t-35.5 -111l-29 8q15 68 43 127t70.5 109t105 79t137.5 29q126 0 208 -27.5t147 -113.5q4 -6 5 -7t7 5q99 143 287 143q87 0 157 -31t109 -76t59.5 -89.5t20.5 -79.5q0 -60 -38.5 -100t-92.5 -40q-60 0 -94.5 41.5t-34.5 90.5 q0 34 18 58.5t39 35.5t39 25t18 30q0 42 -53.5 73.5t-126.5 31.5q-41 0 -72.5 -12t-51 -36t-32 -51.5t-18.5 -67.5t-8 -73.5t-2 -79.5v-743q0 -66 1.5 -109.5t6.5 -90t15 -75t26 -53t40.5 -35t57.5 -10.5q55 0 103 19t82.5 50t61.5 72.5t43.5 84.5t25.5 89l28 -8 q-75 -330 -340 -330q-264 0 -370 142q-5 7 -6.5 7.5t-6.5 -5.5q-94 -144 -286 -144q-87 0 -157 31t-109 76.5t-59.5 90t-20.5 79.5z" />
<glyph unicode="Y" horiz-adv-x="1542" d="M74 1393v30h418v-845q0 -223 50 -320.5t165 -97.5q92 0 171 53.5t125 142.5t46 189v848h-88v30h417v-1749h-417v31h88v662q-10 -31 -36.5 -69t-69.5 -79t-109 -68.5t-140 -27.5q-90 0 -166 17t-145.5 58t-117.5 105.5t-76.5 165.5t-28.5 231v693h-86z" />
<glyph unicode="Z" horiz-adv-x="1409" d="M61 0q515 835 707 1139q133 210 133 231q0 16 -16 16h-389q-96 0 -158.5 -13.5t-94.5 -41.5t-43.5 -61t-11.5 -82h-30l4 235h1124l-833 -1335q-13 -19 -16 -31t0.5 -16t11.5 -4h542q33 0 57.5 1.5t55 7.5t52 16t43.5 28.5t35.5 44t23 64t10.5 86.5h30l-8 -285h-1229z" />
<glyph unicode="[" horiz-adv-x="641" d="M195 -463v2118h387v-60h-328v-1998h328v-60h-387z" />
<glyph unicode="\" horiz-adv-x="819" d="M61 1589l60 23l504 -1645l-62 -22z" />
<glyph unicode="]" horiz-adv-x="641" d="M59 -401h328v1996h-328v60h387v-2118h-387v62z" />
<glyph unicode="^" horiz-adv-x="1308" d="M190 782l461 578l461 -578l-78 -49l-383 486l-383 -486z" />
<glyph unicode="_" horiz-adv-x="1144" d="M0 -139h1145v-62h-1145v62z" />
<glyph unicode="`" horiz-adv-x="655" d="M297 1434l29 12l166 -545l-29 -6z" />
<glyph unicode="a" horiz-adv-x="1286" d="M113 543q0 79 16.5 156t55 153t96 133t146.5 92t198 35q230 0 367.5 -153t137.5 -420v-469q0 -26 17.5 -42t40.5 -16q25 0 45 17t29 43h34q-41 -97 -157 -97h-11q-58 0 -104 10t-73 25t-47 37t-29 41t-15 43q-82 -158 -256 -158q-225 0 -358 155.5t-133 414.5zM397 444 q0 -94 5.5 -160.5t20 -121t40 -86.5t64.5 -49t94 -17q54 0 101 27.5t75.5 68t44.5 83t16 75.5v391q0 54 -1 90.5t-6 85t-14.5 80.5t-26.5 66.5t-41.5 55t-61.5 33.5t-84 13q-57 0 -98.5 -17.5t-65.5 -45t-38.5 -71.5t-19 -87.5t-4.5 -101.5v-312z" />
<glyph unicode="b" horiz-adv-x="1288" d="M72 1542v31h358v-621q31 65 98.5 112.5t178.5 47.5q125 0 228 -53.5t163 -149.5q78 -126 78 -358q0 -84 -14 -161.5t-49.5 -153.5t-89 -131.5t-138.5 -90t-193 -34.5q-114 0 -205.5 30t-152 80.5t-100.5 120.5t-57 147t-17 164v1020h-88zM430 377q0 -71 12 -132.5 t37.5 -115t73.5 -84.5t113 -31q213 0 213 324v250v81t-1 74.5t-3.5 71.5t-6.5 62.5t-10.5 58.5t-16 47t-22.5 41t-29 28t-37.5 19.5t-47.5 5.5q-71 0 -127 -26.5t-86.5 -66.5t-46 -82t-15.5 -79v-446z" />
<glyph unicode="c" horiz-adv-x="1091" d="M113 547v16q0 68 12.5 136.5t38.5 136t73 124t109 89.5q120 63 260 63q191 0 298.5 -75.5t107.5 -194.5q0 -58 -38.5 -101t-119.5 -43q-66 0 -109 41t-43 99q0 27 11 49q16 33 67 71q21 17 21 29q0 36 -30.5 59t-68 30t-81.5 7q-50 0 -88.5 -21.5t-60 -52t-35 -70.5 t-17.5 -71t-4 -59v-518q0 -114 61.5 -195.5t153.5 -81.5q121 0 197.5 54.5t125.5 181.5l31 -8q-13 -39 -28 -69.5t-45.5 -69t-70 -63.5t-103.5 -42.5t-144 -17.5q-114 0 -200 30.5t-138.5 80.5t-85.5 125t-45 154t-12 177z" />
<glyph unicode="d" horiz-adv-x="1261" d="M113 551q0 233 77 358q60 96 163.5 149.5t228.5 53.5q111 0 178 -47.5t98 -112.5v590h-88v31h358v-1051q0 -87 -17 -164t-57 -147t-100.5 -120.5t-152 -80.5t-205.5 -30q-108 0 -193 34.5t-138.5 90t-88.5 132t-49 153.5t-14 161zM410 338q0 -324 213 -324q65 0 113 31 t73.5 84.5t37 115t11.5 132.5v446q0 29 -9 61.5t-30 67.5t-51.5 62.5t-78 45t-105.5 17.5q-26 0 -47.5 -5.5t-37.5 -19.5t-29 -28t-22.5 -41t-16 -47t-10.5 -58.5t-6.5 -62.5t-3.5 -71.5t-1 -74.5v-81v-250z" />
<glyph unicode="e" horiz-adv-x="1157" d="M123 467v170q0 168 53 272q51 99 162 151t256 52q224 0 342.5 -118.5t118.5 -338.5v-45q0 -21 -11 -29t-45 -8h-571v-188q0 -178 64.5 -273.5t175.5 -95.5q72 0 129.5 18t113 73t88.5 147l33 -14q-28 -65 -60 -110t-79 -80t-114 -51.5t-158 -16.5q-250 0 -374 116.5 t-124 368.5zM428 606h311q30 0 36.5 7t6.5 42v23q0 69 -1 103.5t-6 91t-17 86t-32 62t-53 46.5t-79 14q-34 0 -61.5 -12t-44.5 -29t-29 -45t-18 -50.5t-9 -54.5t-3.5 -48t-0.5 -41v-195z" />
<glyph unicode="f" horiz-adv-x="659" d="M55 1044v37h113v197q0 138 94 226.5t266 88.5q112 0 203 -47l-20 -30q-51 28 -117 28q-79 0 -116.5 -53.5t-37.5 -122.5v-287h187l-2 -37h-185v-1013h88v-31h-446v31h86v1013h-113z" />
<glyph unicode="g" horiz-adv-x="1218" d="M78 -231q0 69 43 118t112 56q-33 10 -57.5 27t-39 39.5t-23.5 42.5t-12 47t-4 40.5t-1 34.5q0 239 248 254q-91 64 -125.5 138.5t-34.5 174.5q0 174 104 272.5t312 98.5q62 0 105 -6t99.5 -34t102.5 -79q-2 10 -2 33q0 77 47.5 141.5t108.5 67.5h8q46 0 82.5 -29.5 t36.5 -72.5q0 -39 -27 -66t-65 -27q-26 0 -44 14t-25 31t-16.5 31t-21.5 14q-22 0 -34.5 -30.5t-12.5 -67.5q0 -20 4 -40t8.5 -31.5t12.5 -29.5t10 -24q29 -73 29 -162q0 -143 -72 -245q-94 -135 -334 -135q-139 0 -219 43q-105 -3 -157 -34.5t-52 -70.5q0 -45 32.5 -58.5 t117.5 -13.5h444q63 0 115.5 -13.5t87.5 -34.5t62 -52t42 -58.5t26 -63t14.5 -57.5t6.5 -48q4 -50 4 -76q0 -80 -27 -144.5t-74.5 -107.5t-114.5 -72t-144.5 -42t-167.5 -13q-93 0 -164.5 7t-141 28t-114 55.5t-71.5 92.5t-27 137zM109 -242q0 -66 22.5 -114t76 -86 t150.5 -57t238 -19q124 0 224.5 26t167.5 87.5t67 150.5v12q0 56 -16 94.5t-45 56.5t-58 25t-66 7h-493q-30 0 -60.5 -3t-69.5 -15t-68 -30.5t-49.5 -53.5t-20.5 -81zM455 655q0 -153 30.5 -208.5t114.5 -55.5q59 0 93.5 35.5t45.5 89.5t11 137v150q0 155 -29 216.5 t-121 61.5q-37 0 -63.5 -12.5t-42.5 -34t-24.5 -58.5t-11.5 -76t-3 -97v-148z" />
<glyph unicode="h" horiz-adv-x="1263" d="M82 0v29h88v1513h-88v31h358v-639q7 16 15.5 32t30.5 44.5t48 49t68.5 36.5t91.5 16q115 0 198.5 -36t129 -99t66 -136.5t20.5 -160.5v-610q0 -26 17 -42t40 -16q25 0 45 17t29 43h35q-41 -97 -154 -97h-24q-133 0 -196.5 58t-63.5 186v588q0 32 -1.5 57.5t-5.5 59.5 t-14 59t-25 48.5t-39.5 35.5t-56.5 12q-56 0 -101 -21t-73 -53t-46.5 -74t-26 -81t-7.5 -76v-745h88v-29h-446z" />
<glyph unicode="i" horiz-adv-x="595" d="M82 1051v30h358v-1011q0 -26 17.5 -42t40.5 -16q51 0 73 60h35q-41 -97 -153 -97h-25q-133 0 -195.5 58t-62.5 186v832h-88zM152 1448q0 58 38 96.5t97 38.5t97 -38.5t38 -96.5t-38 -96.5t-97 -38.5t-97 38.5t-38 96.5z" />
<glyph unicode="j" horiz-adv-x="577" d="M0 -467q41 -96 154 -96h24q133 0 196.5 58t63.5 186v1400h-360v-30h88v-1520q0 -26 -17 -41.5t-40 -15.5q-25 0 -45 16.5t-29 42.5h-35zM147 1448q0 58 38.5 96.5t97.5 38.5t97 -38.5t38 -96.5t-38 -96.5t-97 -38.5t-97.5 38.5t-38.5 96.5z" />
<glyph unicode="k" horiz-adv-x="1200" d="M82 0v29h88v1513h-88v31h358v-983l359 356q67 67 67 86q0 12 -16.5 15.5t-58.5 3.5v30h276v-30q-66 0 -110.5 -17.5t-112.5 -85.5l-330 -330q88 27 156 27q55 0 100.5 -17.5t75.5 -41t54.5 -67.5t37.5 -75.5t24.5 -88.5t15.5 -83.5t10 -81.5q1 -5 1 -8q19 -170 121 -170 q63 0 98 74h33q-33 -66 -73.5 -88.5t-129.5 -22.5q-65 0 -118.5 21t-91 57t-68.5 82.5t-52.5 97.5t-40 102.5t-35.5 98t-34 82.5t-40 57t-50 21q-20 0 -41 -21l-14 -14q-9 -9 -11 -20.5t-2 -46.5v-463h88v-29h-446z" />
<glyph unicode="l" horiz-adv-x="595" d="M82 1542v31h358v-1503q0 -26 17.5 -42t40.5 -16q51 0 73 60h35q-41 -97 -153 -97h-25q-133 0 -195.5 58t-62.5 186v1323h-88z" />
<glyph unicode="m" horiz-adv-x="1869" d="M82 0v29h88v1022h-88v30h358v-143q5 26 35 65t89.5 74t125.5 35q148 0 240 -60t131 -188q4 32 16 63.5t34 64.5t52 58t75.5 40.5t98.5 15.5q200 0 288.5 -103t88.5 -315v-618q0 -26 17.5 -42t40.5 -16q51 0 73 60h35q-41 -97 -154 -97h-24q-133 0 -196.5 58t-63.5 186 v553q0 34 -0.5 55.5t-3 57t-6.5 58.5t-13 50.5t-21.5 43.5t-31.5 27t-43 11q-59 0 -107 -29.5t-76 -77.5t-42.5 -102.5t-14.5 -109.5v-727h91v-29h-447v29h88v755q0 41 -1 67.5t-4.5 65.5t-12 64t-22 49.5t-35.5 36.5t-52 12q-76 0 -134.5 -47t-86 -115.5t-27.5 -142.5v-745 h86v-29h-444z" />
<glyph unicode="n" horiz-adv-x="1263" d="M82 0v29h88v1022h-88v30h358v-147q7 16 15.5 32t30.5 44.5t48 49t68.5 36.5t91.5 16q115 0 198.5 -36t129 -99t66 -136.5t20.5 -160.5v-610q0 -26 17 -42t40 -16q25 0 45 17t29 43h35q-41 -97 -154 -97h-24q-133 0 -196.5 58t-63.5 186v588q0 32 -1.5 57.5t-5.5 59.5 t-14 59t-25 48.5t-39.5 35.5t-56.5 12q-56 0 -101 -21t-73 -53t-46.5 -74t-26 -81t-7.5 -76v-745h88v-29h-446z" />
<glyph unicode="o" horiz-adv-x="1267" d="M113 549q0 113 31.5 212t93 178.5t163.5 126t232 46.5q107 0 195 -31.5t147.5 -85.5t101 -126.5t60 -153t18.5 -166.5q0 -112 -33 -213t-96 -181t-164.5 -127.5t-228.5 -47.5q-106 0 -193.5 31t-147.5 84.5t-101 126.5t-59.5 155t-18.5 172zM414 360q0 -348 219 -348 q221 0 221 348v310q0 78 -4.5 134t-18 110.5t-37.5 88t-64.5 54t-96.5 20.5q-55 0 -95 -20.5t-63.5 -54t-37.5 -88t-18.5 -111t-4.5 -133.5v-310z" />
<glyph unicode="p" horiz-adv-x="1261" d="M133 -532v1099q0 87 17.5 164t57.5 147.5t100 121t152 80.5t206 30q108 0 193 -34.5t138.5 -90t88.5 -132t49 -153.5t14 -161q0 -233 -78 -359q-60 -96 -163 -149.5t-228 -53.5q-111 0 -178.5 47.5t-98.5 112.5v-639h89v-30h-359zM403 266q0 -37 15.5 -79t46 -82 t86.5 -66.5t127 -26.5q42 0 73 15t49.5 53t29.5 72t15.5 103.5t5.5 113t1 133.5v254q0 323 -213 323q-65 0 -113 -31t-73.5 -84t-37.5 -114.5t-12 -132.5v-451z" />
<glyph unicode="q" horiz-adv-x="1251" d="M113 539q0 84 14 161t49 153.5t88.5 132t138.5 90t193 34.5q114 0 205.5 -30t151.5 -80.5t100.5 -121t57.5 -147.5t17 -164v-1069h89v-30h-359v669q-31 -65 -98 -112.5t-178 -47.5q-125 0 -228.5 53.5t-163.5 149.5q-77 125 -77 359zM410 502q0 -90 1 -133.5t5.5 -113 t15.5 -103.5t29.5 -72t49.5 -53t73 -15q58 0 105.5 17.5t78 45t51.5 62.5t30 67.5t9 61.5v451q0 56 -7 106t-23.5 98t-42.5 82t-67.5 55t-94.5 21q-213 0 -213 -323v-254z" />
<glyph unicode="r" horiz-adv-x="937" d="M82 0v31h88v1020h-88v30h358v-266q36 107 124 203t186 96q78 0 117.5 -36t39.5 -83q0 -166 -133 -166q-42 0 -79.5 27.5t-37.5 65.5q0 18 8.5 41t8.5 34q0 8 -5.5 12.5t-11.5 4.5q-25 0 -49 -11.5t-40 -27.5t-32.5 -39.5t-24.5 -39.5t-17.5 -36.5t-10.5 -21.5h2 q-45 -122 -45 -242v-565h88v-31h-446z" />
<glyph unicode="s" horiz-adv-x="993" d="M111 0v213l34 -2q52 -101 131 -149t199 -48q307 0 307 181q0 81 -62.5 123t-236.5 90q-59 16 -97 28t-81 29.5t-69 36.5t-52 45.5t-39 60t-21.5 77.5t-8.5 99q0 68 22 125.5t68 103t124.5 71.5t182.5 26q146 0 244 -74q21 -14 26 -14q13 0 13 45v14h30l-4 -194l-41 2 q-16 94 -99 140t-194 46q-114 0 -192 -54t-78 -142q0 -19 5 -35.5t18 -30t26.5 -24.5t39 -21.5t46 -18.5t58 -18t65 -17t75 -19t81.5 -21q139 -35 201.5 -122t62.5 -210q0 -183 -98.5 -272.5t-321.5 -89.5q-91 0 -157.5 20.5t-124.5 75.5q-30 30 -37 30q-12 0 -15 -106h-30z " />
<glyph unicode="t" horiz-adv-x="677" d="M41 1044v37h129v320q131 23 272 117v-437h215l-2 -37h-213v-974q0 -26 17.5 -42t40.5 -16q51 0 73 60h35q-41 -97 -153 -97h-25q-133 0 -196.5 58t-63.5 186v825h-129z" />
<glyph unicode="u" horiz-adv-x="1253" d="M72 1051v30h358v-790q0 -33 1.5 -58.5t5.5 -60.5t14 -61t25 -50t40 -36.5t57 -12.5q56 0 101 21t73 53t46.5 74t26 81t7.5 76v736h-88v28h359v-1007q0 -26 17 -42t40 -16q25 0 45 17t29 43h35q-41 -96 -154 -96h-25q-124 0 -187 49.5t-71 128.5q-7 -16 -15.5 -32 t-30.5 -44.5t-48 -49t-68.5 -36.5t-91.5 -16q-93 0 -165.5 24t-118 64.5t-75.5 97t-42 117t-12 129.5v639h-88z" />
<glyph unicode="v" horiz-adv-x="1138" d="M78 1051v30h358v-850q0 -43 1.5 -71t8 -56.5t18.5 -44.5t33 -26t52 -10q136 0 243 94.5t162.5 244t55.5 322.5q0 122 -27.5 167.5t-79.5 45.5q-19 0 -62 -9t-71 -9q-52 0 -90.5 35t-38.5 92q0 49 47 77.5t105 28.5q254 0 254 -383q0 -82 -12 -164t-36.5 -168 t-67.5 -159.5t-100.5 -132t-140.5 -92t-182 -33.5q-71 0 -125.5 11.5t-91 27.5t-61 49.5t-37 59.5t-19 76t-7.5 82t-1 93v672h-88z" />
<glyph unicode="w" horiz-adv-x="1806" d="M78 1051v30h358v-790q0 -51 4 -90t17 -87t44 -75t79 -27q56 0 101 21t73 53t46.5 74t26 81t7.5 76v736h-89v28h359v-850q0 -43 1.5 -71t8 -56.5t18.5 -44.5t33 -26t52 -10q136 0 242.5 94.5t162 244t55.5 322.5q0 64 -7.5 107t-23 65.5t-33 31.5t-42.5 9q-19 0 -62 -9 t-71 -9q-52 0 -90.5 35t-38.5 92q0 49 46.5 77.5t104.5 28.5q254 0 254 -383q0 -69 -8 -139.5t-27 -145t-47.5 -141t-72 -126.5t-97.5 -103t-127.5 -68.5t-158.5 -25.5h-19q-134 0 -216.5 46.5t-106.5 131.5q-7 -16 -15.5 -32t-30.5 -44.5t-48 -49t-68.5 -36.5t-91.5 -16 q-115 0 -198.5 36t-129 99t-66 136.5t-20.5 160.5v639h-88z" />
<glyph unicode="x" horiz-adv-x="1173" d="M61 197q0 44 28.5 73t66.5 29q51 0 77.5 -32t26.5 -70q0 -30 -14 -49.5t-30 -26.5t-30 -17.5t-14 -23.5q0 -30 45 -47t86 -17q84 0 116 65.5t32 199.5v516q0 45 -1 75t-5 65.5t-12.5 58t-22 42.5t-34.5 29.5t-50 9.5q-173 0 -228 -233l-26 8q63 260 270 260 q57 0 112.5 -12t105 -44t61.5 -79q1 -6 5 -6t5 6q10 38 34.5 65.5t56.5 42t65 21t69 6.5q65 0 115 -19t76.5 -45.5t43.5 -59t22 -55t5 -38.5q0 -44 -28 -73t-66 -29q-51 0 -77.5 32t-26.5 70q0 30 14 49.5t30 26.5t30 17.5t14 23.5q0 31 -44.5 47t-86.5 16q-85 0 -116.5 -65 t-31.5 -199v-522q0 -121 35.5 -196t114.5 -75q42 0 77.5 15.5t58.5 37.5t42 55t29 60.5t20 61.5l27 -6q-13 -52 -33 -95.5t-51.5 -82.5t-79 -61.5t-107.5 -22.5q-71 0 -133.5 11.5t-112.5 43.5t-57 80q0 3 -2 4.5t-4.5 0.5t-3.5 -5q-11 -38 -35.5 -65.5t-56.5 -42t-64.5 -21 t-68.5 -6.5q-65 0 -115 19t-77 45.5t-44 59t-22 55t-5 38.5z" />
<glyph unicode="y" horiz-adv-x="1236" d="M72 1051v30h358v-798q0 -32 1.5 -57t5.5 -59.5t13.5 -59.5t24.5 -48t39.5 -35t56.5 -12q56 0 101 21t73 53t46.5 74t26 81t7.5 76v736h-88v28h357v-1194q0 -89 -14.5 -160.5t-36.5 -117t-56 -78.5t-63.5 -49.5t-70 -26t-65 -11t-57.5 -1.5q-154 0 -256 76t-102 184 q0 44 34 74t87 30q42 0 75 -31.5t33 -76.5q0 -24 -9.5 -43t-22.5 -30t-26 -20t-22.5 -19.5t-9.5 -22.5q0 -30 52 -59t104 -29q26 0 47 6t36.5 14.5t27.5 25t19.5 29.5t13 37.5t8 40t4 44.5t1.5 43.5v45.5v396q-7 -16 -15.5 -32t-30.5 -44.5t-48 -49t-68.5 -36.5t-91.5 -16 q-93 0 -165 24t-117.5 64t-75 96.5t-41.5 116t-12 127.5v643h-88z" />
<glyph unicode="z" horiz-adv-x="1003" d="M51 14l565 781q39 52 39 67q0 2 -1 4q-4 6 -23 6h-457v-63h-31v272h723l-645 -884q61 61 230 61q54 0 108.5 -19t91.5 -41.5t85 -41.5t91 -19q39 0 72 34t33 73q0 17 -10 37l22 18q19 -48 19 -109q0 -37 -16 -74t-47.5 -69.5t-87 -53t-126.5 -20.5q-65 0 -202 41t-205 41 q-40 0 -66 -2t-68.5 -15.5t-68.5 -39.5z" />
<glyph unicode="{" horiz-adv-x="788" d="M174 635v29q57 1 101 67.5t44 142.5q0 107 -47 295q-45 157 -45 226q0 72 27.5 129t72 90t96 50t105.5 17q73 0 127 -28l-26 -27q-53 21 -90 21q-84 0 -84 -95q0 -58 18 -121t39 -109t39 -112t18 -131q0 -130 -87 -252t-236 -174q-3 -1 -4 -2.5t0 -3t4 -2.5 q148 -56 235.5 -190.5t87.5 -274.5q0 -87 -28.5 -175t-57 -173t-28.5 -164q0 -104 90 -104q37 0 84 20l26 -24q-56 -29 -125 -29q-55 0 -107 18.5t-97 54t-72 97t-27 139.5q0 76 45 244q47 202 47 315q0 84 -44 159.5t-101 76.5z" />
<glyph unicode="|" horiz-adv-x="440" d="M205 -569v2142h31v-2142h-31z" />
<glyph unicode="}" horiz-adv-x="790" d="M133 -440l27 24q47 -20 84 -20q90 0 90 104q0 63 -18 131t-39.5 118.5t-39.5 122t-18 140.5q0 140 88 274.5t236 190.5q3 1 4 2.5t0 3t-4 2.5q-149 52 -236.5 174t-87.5 252q0 65 18 131t39.5 112t39.5 109t18 121q0 95 -84 95q-38 0 -90 -21l-27 27q54 28 127 28 q54 0 105.5 -17t96 -50t72 -90t27.5 -129q0 -69 -45 -226q-47 -188 -47 -295q0 -76 44 -142.5t101 -67.5v-29q-57 -1 -101 -76.5t-44 -159.5q0 -113 47 -315q45 -168 45 -244q0 -78 -27 -139.5t-72 -97t-97 -54t-107 -18.5q-69 0 -125 29z" />
<glyph unicode="~" horiz-adv-x="1318" d="M113 524q0 74 31 142t95 114.5t146 46.5q58 0 115.5 -21t106 -54.5t96 -74.5t92 -81.5t86.5 -74t87 -54.5t87 -21q52 0 85.5 41.5t33.5 100.5q0 6 -5 41l31 14q6 -60 6 -74q0 -118 -80.5 -203t-203.5 -85q-77 0 -147.5 26t-119.5 65t-100 85t-91 85t-90 65t-100 26 q-60 0 -93.5 -44t-33.5 -106v-20l-24 -17q-10 38 -10 78z" />
<glyph unicode="&#xa1;" horiz-adv-x="671" d="M174 -256q0 27 4 54.5t8.5 45.5t12.5 47t12 46t22 69t30.5 102.5t27.5 134t23 207t8 277.5h26q0 -146 7.5 -265t24.5 -207t27.5 -133.5t32 -109.5t23.5 -71q14 -45 19.5 -65.5t11.5 -58.5t6 -75q0 -74 -48 -115t-114 -41t-115 42t-49 116zM201 987q0 59 38.5 97t96.5 38 t96.5 -38t38.5 -97t-38.5 -97t-96.5 -38t-96.5 38t-38.5 97z" />
<glyph unicode="&#xa2;" horiz-adv-x="1056" d="M109 522v47q1 81 25 164t78.5 160.5t129.5 118.5q111 57 236 57q38 0 104 -8l70 209l28 -10l-67 -205q114 -27 174.5 -92.5t60.5 -151.5q0 -55 -28.5 -95t-98.5 -40q-61 0 -100 39.5t-39 93.5q0 59 72 109q20 16 20 28q0 48 -72 78l-286 -864q37 -115 166 -115 q126 0 203 61t120 179l31 -11q-90 -262 -365 -262q-103 0 -194 33l-92 -281l-31 7l94 286q-121 58 -180 181t-59 284zM399 295q0 -51 4 -74l269 811q-45 10 -80 10q-45 0 -80.5 -18.5t-56 -45.5t-34 -63t-18 -67.5t-4.5 -61.5v-491z" />
<glyph unicode="&#xa3;" horiz-adv-x="1189" d="M68 492v126h143v189q0 202 8 288.5t41 155.5q52 101 133.5 150t214.5 49q87 0 155 -25.5t107.5 -67.5t59.5 -88.5t20 -94.5q0 -60 -38.5 -100t-92.5 -40q-60 0 -94.5 41.5t-34.5 89.5q0 35 16.5 60t36 36.5t36 27t16.5 32.5q0 41 -46.5 71.5t-158.5 30.5 q-212 0 -299 -178q-33 -67 -41 -162.5t-8 -322.5v-142h297l-2 -126h-295v-416q0 -16 8 0q28 56 61 96t59.5 59.5t59.5 30.5t51 12.5t43 1.5q54 0 104 -15.5t88.5 -37.5t75.5 -44.5t79.5 -38t86.5 -15.5q45 0 78 37t33 82q0 23 -8 39l22 18q17 -53 17 -96q0 -99 -70.5 -165.5 t-216.5 -66.5q-113 0 -203 19.5t-159.5 39t-133.5 19.5q-26 0 -48.5 -11.5t-26.5 -39.5h-31v492h-143z" />
<glyph unicode="&#xa5;" horiz-adv-x="1497" d="M39 1393v30h520v-30h-88l403 -656l347 555q30 50 30 72q0 29 -47 29h-47v30h281v-30h-8q-32 0 -49 -2t-40 -12t-43.5 -32t-44.5 -59l-356 -577v-4h340l-2 -31h-338v-189h340l-2 -30h-338v-426h84v-31h-492v31h84v426h-350v30h350v166l-10 23h-340v31h324 q-67 112 -206.5 342.5t-207.5 343.5h-94z" />
<glyph unicode="&#xa6;" horiz-adv-x="440" d="M205 367h31v-893h-31v893zM205 797v893h31v-893h-31z" />
<glyph unicode="&#xa7;" horiz-adv-x="1259" d="M123 473v467q0 149 38.5 261.5t107 178.5t154.5 98.5t189 32.5q170 0 272.5 -77.5t102.5 -200.5q0 -54 -35 -88.5t-84 -34.5q-58 0 -94.5 29.5t-36.5 89.5q0 25 11 44.5t26.5 31.5t31.5 21.5t27 20.5t11 23q0 32 -24.5 56t-61.5 35.5t-70 16.5t-61 5q-105 0 -169.5 -85 t-64.5 -206v-387q31 65 98.5 112.5t178.5 47.5q109 0 191.5 -28t134 -75.5t84 -116.5t45 -143t12.5 -164v-467q0 -145 -32 -249.5t-92.5 -165t-140 -88t-182.5 -27.5q-170 0 -272.5 77.5t-102.5 200.5q0 54 35 88.5t84 34.5q58 0 94.5 -29t36.5 -89q0 -30 -16.5 -53.5 t-36.5 -34.5t-36.5 -25t-16.5 -29q0 -32 24.5 -56t61.5 -35t70 -16t61 -5q56 0 95 23t59.5 66t29 94t8.5 118v366q-31 -65 -98 -112.5t-178 -47.5q-469 0 -469 496zM393 502q0 -75 3 -132.5t10.5 -116t22 -100t36 -75t54 -50t75.5 -16.5q58 0 105.5 17.5t78 45t51.5 62.5 t30 67.5t9 61.5v174q0 91 -4 157.5t-16.5 132.5t-34 107.5t-58 67t-87.5 25.5q-71 0 -127 -26.5t-86.5 -66.5t-46 -82t-15.5 -79v-174z" />
<glyph unicode="&#xa8;" horiz-adv-x="927" d="M297 1169l90 291l31 -6l-90 -295zM512 1169l88 291l31 -6l-88 -295z" />
<glyph unicode="&#xa9;" horiz-adv-x="2078" d="M154 717q0 143 44.5 278t126.5 244t191 192t243.5 128t278.5 45q181 0 345.5 -71t283 -190t188.5 -283t70 -343q0 -180 -70 -343.5t-188.5 -282t-283 -189t-345.5 -70.5q-179 0 -343 70.5t-282.5 189t-188.5 282.5t-70 343zM276 717q0 -155 60.5 -298t162.5 -248 t243.5 -167.5t295.5 -62.5q207 0 383 106t277.5 284.5t101.5 385.5t-101.5 385.5t-277.5 284.5t-383 106q-154 0 -295.5 -62.5t-243.5 -167.5t-162.5 -248t-60.5 -298zM590 756q0 106 31.5 202.5t90.5 172t151 120.5t204 45q185 0 289 -77t104 -193q0 -55 -36.5 -97 t-114.5 -42q-65 0 -106.5 39t-41.5 96q0 27 10 47q16 33 66 70q18 14 18 28q0 35 -29.5 57t-66 29t-78.5 7q-48 0 -85 -21t-57 -50.5t-32.5 -69t-16 -69t-3.5 -57.5v-512q0 -119 43.5 -193.5t138.5 -74.5q80 0 140 19t97.5 55.5t60 74t40.5 89.5l31 -11q-20 -56 -45.5 -98 t-69 -82t-112 -61t-158.5 -21q-101 0 -181 31t-132.5 83.5t-86.5 127.5t-48.5 157.5t-14.5 178.5z" />
<glyph unicode="&#xaa;" horiz-adv-x="993" d="M113 1204q0 80 22 148t65.5 122.5t117 85.5t169.5 31q375 0 375 -391v-313q0 -18 11 -28.5t26 -10.5q35 0 49 41h25q-23 -68 -105 -68h-34q-150 0 -179 107q-56 -107 -176 -107q-58 0 -107.5 10t-98.5 36.5t-83.5 68t-55.5 110t-21 158.5zM346 1139q0 -160 30 -226.5 t120 -66.5q69 0 113 59.5t44 112.5v268q0 44 -1 71t-5.5 64.5t-15 60t-27 44.5t-44 32.5t-64.5 10.5q-47 0 -78 -16.5t-46 -48.5t-20.5 -67t-5.5 -85v-213z" />
<glyph unicode="&#xab;" horiz-adv-x="1081" d="M76 530l551 431l32 -54l-479 -377l479 -376l-32 -52zM422 530l551 431l33 -54l-480 -377l480 -376l-33 -52z" />
<glyph unicode="&#xad;" horiz-adv-x="710" d="M113 436v168h485l-2 -168h-483z" />
<glyph unicode="&#xae;" horiz-adv-x="2078" d="M154 717q0 143 44.5 278t126.5 244t191 192t243.5 128t278.5 45q181 0 345.5 -71t283 -190t188.5 -283t70 -343q0 -180 -70 -343.5t-188.5 -282t-283 -189t-345.5 -70.5q-179 0 -343 70.5t-282.5 189t-188.5 282.5t-70 343zM276 717q0 -155 60.5 -298t162.5 -248 t243.5 -167.5t295.5 -62.5q207 0 383 106t277.5 284.5t101.5 385.5t-101.5 385.5t-277.5 284.5t-383 106q-154 0 -295.5 -62.5t-243.5 -167.5t-162.5 -248t-60.5 -298zM535 205v31h77v589q0 231 118.5 351t348.5 120q94 0 177 -25.5t149.5 -75t105.5 -130t39 -182.5 q0 -29 -3 -58t-13.5 -69t-27.5 -75t-48.5 -71t-72.5 -62t-103 -43.5t-137 -19.5l123 -206q13 -20 23.5 -30t16 -11.5t15.5 -1.5h55v-31h-323l-176 336v-336h-344zM877 760q0 -37 6.5 -70.5t21.5 -65.5t37.5 -55.5t58 -38t80.5 -14.5q53 0 89.5 18t57.5 46.5t32.5 80 t14.5 101.5t3 127v45q0 330 -191 330q-118 0 -163 -74t-47 -223v-207z" />
<glyph unicode="&#xaf;" horiz-adv-x="1161" d="M297 1214v31h567v-31h-567z" />
<glyph unicode="&#xb0;" horiz-adv-x="774" d="M113 1196q0 116 79 196.5t193 80.5q115 0 196 -80.5t81 -196.5q0 -114 -80.5 -193t-196.5 -79q-114 0 -193 79t-79 193zM150 1196q0 -97 69 -166t166 -69q98 0 168 69t70 166q0 98 -70 168t-168 70q-97 0 -166 -70t-69 -168z" />
<glyph unicode="&#xb1;" horiz-adv-x="1417" d="M139 0v47h1141v-47h-1141zM139 829v48h547v546h47v-546h547v-48h-547v-553h-47v553h-547z" />
<glyph unicode="&#xb2;" horiz-adv-x="862" d="M70 827q41 33 104 82t92 71.5t74 59t63.5 55t46.5 47.5t38.5 48.5t23.5 46.5t16.5 53t3.5 56v16q0 36 -1.5 59t-9 53t-21 48t-40 30.5t-63.5 12.5q-87 0 -152 -41t-65 -72q0 -17 33 -20q38 -4 58 -26t20 -52q0 -36 -25.5 -64t-66.5 -28q-36 0 -62 25t-26 63q0 107 88 173 t202 66q138 0 234 -68t96 -175q0 -44 -26 -85t-73.5 -76.5t-91 -61.5t-101.5 -57t-81 -46q-28 -17 18 -19h17h371v43h22v-217h-716z" />
<glyph unicode="&#xb3;" horiz-adv-x="933" d="M125 1024q0 35 26 66.5t66 31.5q50 0 75 -24.5t25 -67.5q0 -33 -22 -57.5t-55 -24.5q-35 0 -35 -16q0 -17 37.5 -43t76.5 -35q60 -16 125 -16q98 0 133 39.5t35 142.5t-47.5 145t-165.5 43l4 25q95 6 119 14q50 17 61 78q5 26 5 64q0 96 -25.5 136t-101.5 40 q-97 0 -152 -27q-24 -11 -41.5 -27t-17.5 -28q0 -16 24 -19q30 -3 47 -23t17 -46q0 -37 -26 -67t-66 -30q-34 0 -59 26.5t-25 64.5q1 67 46 114.5t109 67.5t138 20q41 0 73.5 -2t76.5 -8t76.5 -20t62 -35.5t45.5 -57.5t16 -82q0 -39 -15 -68t-44 -46t-60 -26.5t-74 -16.5 q99 -6 166.5 -60t67.5 -141q0 -67 -32 -111.5t-90.5 -66t-119 -29.5t-139.5 -8q-82 0 -144.5 13t-98.5 33.5t-59 49.5t-30.5 56.5t-7.5 58.5z" />
<glyph unicode="&#xb4;" horiz-adv-x="788" d="M297 942l168 545l27 -12l-164 -539z" />
<glyph unicode="&#xb5;" horiz-adv-x="1243" d="M72 1051v30h358v-790q0 -33 1.5 -58.5t5.5 -60.5t14 -61t25 -50t40 -36.5t57 -12.5q56 0 101 21t73 53t46.5 74t26 81t7.5 76v736h-88v28h359v-1007q0 -26 17 -42t40 -16q25 0 45 17t29 43h35q-41 -96 -154 -96h-25q-124 0 -187 49.5t-71 128.5q-7 -16 -15.5 -32 t-30.5 -44.5t-48 -49t-68.5 -36.5t-91.5 -16q-292 0 -378 233q1 -113 16.5 -197t40.5 -131t54.5 -80.5t58.5 -55.5t53.5 -44.5t39.5 -59t15 -89.5q0 -74 -49.5 -116t-114.5 -42q-66 0 -112.5 42t-46.5 116q0 45 5 104.5t5 85.5v1305h-88z" />
<glyph unicode="&#xb6;" horiz-adv-x="1644" d="M92 772q0 138 53.5 263.5t143.5 216.5t215.5 144.5t263.5 53.5q134 0 258 -51v-1252q-124 -51 -258 -51q-138 0 -263.5 53.5t-215.5 143.5t-143.5 215.5t-53.5 263.5zM1116 -326v1680q60 -35 114.5 -86.5t105 -123t80.5 -168.5t30 -204v-1067h86v-31h-416z" />
<glyph unicode="&#xb7;" horiz-adv-x="536" d="M133 690q0 58 38.5 96.5t96.5 38.5t96.5 -38.5t38.5 -96.5t-38.5 -96.5t-96.5 -38.5t-96.5 38.5t-38.5 96.5z" />
<glyph unicode="&#xb8;" horiz-adv-x="950" d="M297 -360l27 16q56 -74 133 -74q64 0 114 47.5t50 112.5q0 57 -42 104t-102 56l4 32q75 -9 123.5 -64.5t48.5 -129.5t-57.5 -131.5t-136.5 -57.5q-46 0 -89 24t-73 65z" />
<glyph unicode="&#xb9;" horiz-adv-x="788" d="M164 1268q139 139 151 301q160 3 230 14v-723h61v-24h-348v24h61v588l-1 7q-1 -2 -1 -7q-37 -97 -127 -193z" />
<glyph unicode="&#xba;" horiz-adv-x="980" d="M113 1210q0 79 23 146.5t68 120.5t118 83.5t167 30.5q77 0 140.5 -21t107 -57t73.5 -85t44 -103.5t14 -114.5q0 -79 -24 -148.5t-70 -123.5t-119.5 -85.5t-165.5 -31.5q-96 0 -169.5 31.5t-118 86t-66.5 123t-22 148.5zM350 1094q0 -244 139 -244q142 0 142 244v182 q0 54 -3 93.5t-12 78t-24 62.5t-41 38.5t-62 14.5q-44 0 -72.5 -20.5t-42.5 -62.5t-19 -88.5t-5 -115.5v-182z" />
<glyph unicode="&#xbb;" horiz-adv-x="1081" d="M76 154l481 376l-481 377l33 54l550 -431l-550 -428zM422 154l481 376l-481 377l33 54l551 -431l-551 -428z" />
<glyph unicode="&#xbc;" horiz-adv-x="1705" d="M121 1268q139 139 151 301q160 3 230 14v-723h61v-24h-348v24h61v588l-1 7q-1 -2 -1 -7q-37 -97 -127 -193zM285 -51l1056 1698l39 -27l-1054 -1696zM829 229l486 543h153v-514h117v-29h-117v-206h62v-23h-346v23h63v206h-418zM895 258h352v393z" />
<glyph unicode="&#xbd;" horiz-adv-x="1734" d="M121 1268q139 139 151 301q160 3 230 14v-723h61v-24h-348v24h61v588l-1 7q-1 -2 -1 -7q-37 -97 -127 -193zM260 -51l1057 1698l39 -27l-1055 -1696zM897 0q40 32 95 74.5t84.5 65.5t70 55t61 51t48 45t40 44t28 41t21.5 44.5t10.5 46t4.5 51.5v17q0 36 -1.5 59t-9 53 t-21 47.5t-40 30t-63.5 12.5q-87 0 -152 -40.5t-65 -71.5q0 -18 32 -21q38 -4 58 -26t20 -52q0 -36 -25.5 -64t-66.5 -28q-36 0 -62 25t-26 63q0 107 88.5 173.5t202.5 66.5q138 0 234 -68.5t96 -175.5q0 -37 -20.5 -73t-50 -63.5t-73.5 -57t-80.5 -49.5t-81.5 -44t-67 -38 q-28 -17 18 -19h17h370v43h23v-217h-717z" />
<glyph unicode="&#xbe;" horiz-adv-x="1900" d="M121 1024q0 35 26 66.5t66 31.5q50 0 75 -24.5t25 -67.5q0 -33 -22 -57.5t-55 -24.5q-35 0 -35 -16q0 -17 37.5 -43t76.5 -35q60 -16 125 -16q98 0 133 39.5t35 142.5t-47.5 145t-165.5 43l4 25q95 6 119 14q50 17 61 78q5 26 5 64q0 96 -25.5 136t-101.5 40 q-97 0 -152 -27q-24 -11 -41.5 -27t-17.5 -28q0 -16 24 -19q30 -3 47 -23t17 -46q0 -37 -26 -67t-66 -30q-34 0 -59 26.5t-25 64.5q1 67 46 114.5t109 67.5t138 20q41 0 73.5 -2t76.5 -8t76.5 -20t62 -35.5t45.5 -57.5t16 -82q0 -39 -15 -68t-44 -46t-60 -26.5t-74 -16.5 q99 -6 166.5 -60t67.5 -141q0 -67 -32 -111.5t-90.5 -66t-119 -29.5t-139.5 -8q-82 0 -144.5 13t-98.5 33.5t-59 49.5t-30.5 56.5t-7.5 58.5zM479 -51l1057 1698l39 -27l-1055 -1696zM1024 229l485 543h154v-514h117v-29h-117v-206h61v-23h-346v23h64v206h-418zM1090 258 h352v393z" />
<glyph unicode="&#xbf;" horiz-adv-x="968" d="M117 68q0 101 29 185.5t76 139.5t108.5 94t123.5 56.5t124 19.5h32v160h29v-191q-124 0 -182 -82.5t-58 -287.5v-201q0 -157 50.5 -248.5t158.5 -91.5q53 0 96.5 19.5t43.5 44.5q0 16 -20 34t-40 42.5t-20 58.5q0 47 36.5 80.5t86.5 33.5q46 0 76 -36t30 -88 q0 -96 -88 -156t-223 -60q-116 0 -219 43.5t-168 135.5q-82 116 -82 295zM489 979q0 58 38.5 96.5t97.5 38.5t97 -38t38 -97t-38 -97t-97 -38t-97.5 38.5t-38.5 96.5z" />
<glyph unicode="&#xc0;" d="M106 707q0 332 154 532q112 134 293 191l-119 387l29 12l119 -391q86 22 174 22h20q317 0 479 -183.5t162 -586.5v-659h90v-31h-413v186q-108 -105 -202 -160t-194 -55q-146 0 -262.5 64.5t-186.5 171t-106.5 234.5t-36.5 266zM473 526q0 -93 1.5 -143t8.5 -120.5 t23 -108t42.5 -76t69.5 -54.5t103 -16q52 0 111.5 25.5t110 64.5t83.5 69.5t55 55.5q13 13 13 37v629q0 119 -17 213.5t-53.5 169t-99.5 115t-150 40.5h-16q-98 0 -160 -47l31 -96l-29 -6l-25 82q-60 -61 -81 -169t-21 -271v-394z" />
<glyph unicode="&#xc1;" d="M106 707q0 332 154 532q86 102 217.5 161.5t278.5 59.5h20q82 0 156 -12l119 381l28 -10l-116 -377q225 -48 339.5 -230.5t114.5 -521.5v-659h90v-31h-413v186q-108 -105 -202 -160t-194 -55q-146 0 -262.5 64.5t-186.5 171t-106.5 234.5t-36.5 266zM473 526 q0 -93 1.5 -143t8.5 -120.5t23 -108t42.5 -76t69.5 -54.5t103 -16q52 0 111.5 25.5t110 64.5t83.5 69.5t55 55.5q13 13 13 37v629q0 365 -152 483l-29 -94l-30 6l32 107q-56 36 -141 36h-16q-72 0 -124 -26t-82.5 -68.5t-48.5 -111t-24 -138t-6 -163.5v-394z" />
<glyph unicode="&#xc2;" d="M106 707q0 332 154 532q86 102 217.5 161.5t278.5 59.5h20q317 0 479 -183.5t162 -586.5v-659h90v-31h-413v186q-108 -105 -202 -160t-194 -55q-146 0 -262.5 64.5t-186.5 171t-106.5 234.5t-36.5 266zM473 526q0 -93 1.5 -143t8.5 -120.5t23 -108t42.5 -76t69.5 -54.5 t103 -16q52 0 111.5 25.5t110 64.5t83.5 69.5t55 55.5q13 13 13 37v629q0 119 -17 213.5t-53.5 169t-99.5 115t-150 40.5h-16q-72 0 -124 -26t-82.5 -68.5t-48.5 -111t-24 -138t-6 -163.5v-394zM578 1632l215 277l215 -277l-27 -16l-188 239l-189 -239z" />
<glyph unicode="&#xc3;" d="M106 707q0 332 154 532q86 102 217.5 161.5t278.5 59.5h20q317 0 479 -183.5t162 -586.5v-659h90v-31h-413v186q-108 -105 -202 -160t-194 -55q-146 0 -262.5 64.5t-186.5 171t-106.5 234.5t-36.5 266zM473 526q0 -93 1.5 -143t8.5 -120.5t23 -108t42.5 -76t69.5 -54.5 t103 -16q52 0 111.5 25.5t110 64.5t83.5 69.5t55 55.5q13 13 13 37v629q0 119 -17 213.5t-53.5 169t-99.5 115t-150 40.5h-16q-72 0 -124 -26t-82.5 -68.5t-48.5 -111t-24 -138t-6 -163.5v-394zM623 1712q0 59 33 106.5t100 47.5q41 0 81.5 -20t72.5 -48t62 -56.5 t61.5 -48.5t60.5 -20q26 0 42.5 21t16.5 51q0 14 -2 20l14 9q4 -24 4 -37q0 -61 -40.5 -103.5t-102.5 -42.5q-46 0 -86.5 18t-68.5 44t-53.5 52t-55 44t-60.5 18q-30 0 -46.5 -20t-16.5 -51v-15l-12 -8q-4 24 -4 39z" />
<glyph unicode="&#xc4;" d="M106 707q0 163 34.5 294.5t119.5 237.5q82 102 215 161.5t281 59.5h22l47 152l31 -6l-45 -146q95 -3 174 -24l53 176l31 -6l-53 -179q198 -60 299.5 -240t101.5 -497v-659h90v-31h-413v186q-108 -105 -202 -160t-194 -55q-146 0 -262.5 64.5t-186.5 171t-106.5 234.5 t-36.5 266zM473 526q0 -93 1.5 -143t8.5 -120.5t23 -108t42.5 -76t69.5 -54.5t103 -16q52 0 111.5 25.5t110 64.5t83.5 69.5t55 55.5q13 13 13 37v629q0 306 -109 440l-4 -18l-31 10l11 35q-63 63 -160 69l-35 -114l-31 10l33 106h-10q-72 0 -124 -26t-82.5 -68.5 t-48.5 -111t-24 -138t-6 -163.5v-394z" />
<glyph unicode="&#xc5;" d="M106 707q0 163 34.5 294.5t119.5 237.5q82 102 215 161.5t281 59.5h20q317 0 479 -183.5t162 -586.5v-659h90v-31h-413v186q-108 -105 -202 -160t-194 -55q-146 0 -262.5 64.5t-186.5 171t-106.5 234.5t-36.5 266zM473 526q0 -93 1.5 -143t8.5 -120.5t23 -108t42.5 -76 t69.5 -54.5t103 -16q52 0 111.5 25.5t110 64.5t83.5 69.5t55 55.5q13 13 13 37v629q0 119 -17 213.5t-53.5 169t-99.5 115t-150 40.5h-16q-72 0 -124 -26t-82.5 -68.5t-48.5 -111t-24 -138t-6 -163.5v-394zM600 1825q0 81 55.5 136.5t135.5 55.5q82 0 137 -55t55 -137 q0 -80 -55.5 -135.5t-136.5 -55.5q-79 0 -135 56t-56 135zM631 1825q0 -65 47.5 -112.5t112.5 -47.5q66 0 112.5 47.5t46.5 112.5q0 66 -46.5 113t-112.5 47q-65 0 -112.5 -47t-47.5 -113z" />
<glyph unicode="&#xc6;" horiz-adv-x="2045" d="M102 516q0 110 28 196t76 143t117 94t146.5 53t169.5 16q207 0 285 -133q-1 200 -6 248q-15 170 -97 235q-68 53 -190 53q-151 0 -258 -49l-15 27q45 26 124 44.5t177 18.5q178 0 271 -41.5t166 -132.5q12 -14 28 2q166 172 439 172q75 0 144.5 -19t114.5 -46.5t80 -55 t50 -46.5l16 -19l-26 -19q-73 84 -166.5 126t-192.5 42q-77 0 -129.5 -28t-81 -84t-40 -126t-11.5 -167v-246h410l-2 -37h-408v-278q0 -64 5 -117.5t16.5 -106.5t32.5 -93t51 -71.5t74 -48t99 -16.5q98 0 201 52.5t166 146.5l25 -19q-68 -97 -183 -157t-278 -60 q-97 0 -203.5 39.5t-193.5 126.5q-11 11 -23 0q-152 -162 -438 -162q-123 0 -221.5 31t-162.5 83t-107 123t-61 147t-18 159zM467 324q0 -38 1 -64.5t5.5 -62.5t13 -61t23.5 -52t36.5 -43t54 -26.5t73.5 -10.5q59 0 105 21.5t74 56t46 84.5t24.5 101.5t6.5 111.5v356 q0 47 -13.5 88.5t-42.5 78t-82 58t-124 21.5q-54 0 -92 -13.5t-59 -33.5t-32.5 -57t-14.5 -71t-3 -87v-395z" />
<glyph unicode="&#xc7;" horiz-adv-x="1300" d="M106 721q0 74 8.5 144.5t29.5 145t53.5 139t84 122.5t116.5 99t156 65t198 24q86 0 158 -16t119 -40.5t83.5 -58.5t56.5 -66t32.5 -66.5t16 -57.5t3.5 -41q0 -75 -44.5 -115.5t-115.5 -40.5q-68 0 -111 39t-43 109q0 38 14 65.5t33.5 42t39.5 25.5t34 24t14 29 q0 67 -83 102.5t-195 35.5q-62 0 -108.5 -16t-77 -50.5t-49.5 -76t-28.5 -106.5t-12.5 -126t-3 -150v-526q0 -176 81.5 -273.5t217.5 -99.5q78 0 149 29t122 76.5t87.5 102t57.5 112.5l29 -13q-24 -69 -62.5 -127t-96 -108.5t-141 -79.5t-184.5 -29q-166 0 -290.5 56 t-199.5 158t-112 236.5t-37 301.5zM547 -430l26 16q55 -73 134 -73q64 0 113.5 47t49.5 112q0 57 -41.5 104t-101.5 56l4 33q74 -9 123 -65t49 -130t-57.5 -131t-136.5 -57q-46 0 -89 24t-73 64z" />
<glyph unicode="&#xc8;" horiz-adv-x="1224" d="M106 725q0 125 27 237.5t80.5 207.5t140 165t197.5 101l-117 381l29 12l117 -385q74 18 161 18q75 0 144.5 -19t115 -46.5t80 -55t50.5 -46.5l16 -19l-27 -19q-73 84 -166 126t-192 42q-102 0 -162 -51l29 -90l-29 -6l-22 74q-78 -93 -78 -332v-246h409l-2 -37h-407v-278 q0 -103 12 -179.5t41.5 -141t86 -98.5t138.5 -34q95 0 199.5 53t167.5 146l24 -19q-68 -97 -182.5 -157t-277.5 -60q-87 0 -166 19t-161 71t-141.5 134t-97 218.5t-37.5 313.5z" />
<glyph unicode="&#xc9;" horiz-adv-x="1224" d="M106 725v2q0 119 24 226t74.5 200.5t124 162t179.5 107.5t233 39q76 0 148 -20l121 389l26 -12l-118 -385q68 -24 125 -63.5t81 -66.5l23 -28l-27 -19q-91 105 -211 144l-37 -121l-30 6l37 123q-62 16 -117 16q-77 0 -129.5 -28t-81 -84t-40 -126t-11.5 -167v-246h409 l-2 -37h-407v-278q0 -103 12 -179.5t41.5 -141t86 -98.5t138.5 -34q95 0 199.5 53t167.5 146l24 -19q-68 -97 -182.5 -157t-277.5 -60q-87 0 -166 19t-161 71t-141.5 134t-97 218.5t-37.5 313.5z" />
<glyph unicode="&#xca;" horiz-adv-x="1224" d="M106 727q0 119 24 226t74.5 200.5t124 162t179.5 107.5t233 39q75 0 144.5 -19t115 -46.5t80 -55t50.5 -46.5l16 -19l-27 -19q-73 84 -166 126t-192 42q-77 0 -129.5 -28t-81 -84t-40 -126t-11.5 -167v-246h409l-2 -37h-407v-278q0 -103 12 -179.5t41.5 -141t86 -98.5 t138.5 -34q95 0 199.5 53t167.5 146l24 -19q-68 -97 -182.5 -157t-277.5 -60q-61 0 -118 9.5t-118.5 33.5t-113.5 61.5t-99.5 97.5t-81 137t-53 184t-19.5 235zM504 1630l215 277l215 -277l-27 -16l-188 239l-189 -239z" />
<glyph unicode="&#xcb;" horiz-adv-x="1224" d="M106 725v2q0 119 24 226t74.5 200.5t124 162t179.5 107.5t233 39h21l47 150l31 -6l-45 -148q86 -8 168 -43l59 197l31 -6l-62 -205q45 -24 84 -55.5t55 -50.5l17 -19l-27 -19q-63 69 -139 111l-16 -57l-31 10l18 61q-78 37 -168 43l-34 -114l-31 10l33 104 q-74 -2 -124.5 -31t-78 -84.5t-38.5 -124.5t-11 -165v-246h409l-2 -37h-407v-278q0 -103 12 -179.5t41.5 -141t86 -98.5t138.5 -34q95 0 199.5 53t167.5 146l24 -19q-68 -97 -182.5 -157t-277.5 -60q-87 0 -166 19t-161 71t-141.5 134t-97 218.5t-37.5 313.5z" />
<glyph unicode="&#xcc;" horiz-adv-x="667" d="M84 0v31h88v1362h-88v30h485v-30h-86v-1362h86v-31h-485zM113 2191l28 13l166 -545l-28 -6z" />
<glyph unicode="&#xcd;" horiz-adv-x="681" d="M98 0v31h88v1362h-88v30h486v-30h-86v-1362h86v-31h-486zM346 1659l166 545l29 -13l-166 -538z" />
<glyph unicode="&#xce;" horiz-adv-x="653" d="M82 0v31h88v1362h-88v30h485v-30h-86v-1362h86v-31h-485zM113 1632l215 277l213 -277l-25 -16l-188 242l-189 -242z" />
<glyph unicode="&#xcf;" horiz-adv-x="622" d="M98 0v31h88v1362h-88v30h486v-30h-86v-1362h86v-31h-486zM305 1610l88 291l31 -7l-90 -295zM518 1610l90 291l31 -7l-90 -295z" />
<glyph unicode="&#xd0;" horiz-adv-x="1544" d="M37 0v31h90v723h-90v30h92q20 352 181 514t458 162h20q147 0 278.5 -59.5t217.5 -161.5q154 -200 154 -532q0 -138 -36.5 -266t-106.5 -234.5t-186.5 -171t-262.5 -64.5q-100 0 -193.5 55t-201.5 160v-186h-414zM451 260q0 -25 12 -37q22 -25 55 -55.5t83.5 -69.5 t110 -64.5t111.5 -25.5q60 0 103 16t69.5 54.5t42.5 76t23 108t8.5 120.5t1.5 143v394q0 94 -6 163.5t-24 138t-48.5 111t-82.5 68.5t-124 26h-16q-87 0 -150 -40.5t-99 -115t-53 -169t-17 -213.5v-105h335v-30h-335v-494z" />
<glyph unicode="&#xd1;" d="M98 0v31h88v1362h-88v30h418v-206q10 31 36.5 69t69 79t108.5 68t140 27q90 0 166 -17t145.5 -58t118 -105.5t77 -165.5t28.5 -231v-852h86v-31h-506v31h88v975q0 207 -51 312t-164 105q-92 0 -171 -53.5t-125 -142.5t-46 -189v-1007h88v-31h-506zM682 1716 q0 59 33 106.5t100 47.5q41 0 81.5 -20t72.5 -48t62 -56.5t61.5 -48.5t60.5 -20q26 0 42.5 21t16.5 51q0 14 -2 20l15 9q4 -24 4 -37q0 -61 -41 -103.5t-103 -42.5q-46 0 -86 18t-68.5 44.5t-54 52.5t-54.5 44t-60 18q-30 0 -47 -20.5t-17 -51.5v-14l-12 -9q-4 24 -4 39z " />
<glyph unicode="&#xd2;" horiz-adv-x="1560" d="M106 721q0 131 26 243.5t79.5 207t141.5 162t206 98.5l-119 387l29 12l119 -393q84 20 192 20q142 0 255.5 -37t191 -103t129 -159t75 -202t23.5 -236q0 -123 -25.5 -233.5t-79.5 -206t-132.5 -165t-191 -109.5t-247.5 -40q-171 0 -302 58t-210.5 161.5t-119.5 238 t-40 296.5zM471 473q0 -49 2.5 -91.5t11 -92t22 -90t37.5 -79t55 -64.5t77 -42t102 -16q57 0 103.5 16t78.5 43t56 68t38 84t22 98t11 104t3 107v354q0 102 -7 179t-27 150.5t-53.5 121t-89.5 76t-133 28.5q-106 0 -174 -49l29 -92l-29 -6l-24 78q-65 -65 -88 -185t-23 -301 v-399z" />
<glyph unicode="&#xd3;" horiz-adv-x="1560" d="M106 721q0 159 38 289.5t117 232.5t211 158.5t308 56.5q93 0 164 -14l119 387l27 -12l-117 -381q125 -29 219 -95t150.5 -161.5t84 -210.5t27.5 -250q0 -123 -25.5 -233.5t-79.5 -206t-132.5 -165t-191 -109.5t-247.5 -40q-171 0 -302 58t-210.5 161.5t-119.5 238 t-40 296.5zM471 473q0 -49 2.5 -91.5t11 -92t22 -90t37.5 -79t55 -64.5t77 -42t102 -16q57 0 103.5 16t78.5 43t56 68t38 84t22 98t11 104t3 107v354q0 189 -29.5 315t-106.5 187l-28 -94l-31 6l33 105q-61 36 -148 36q-58 0 -103.5 -15t-77.5 -40t-55.5 -65.5t-37.5 -84 t-22 -104t-10.5 -117t-2.5 -129.5v-399z" />
<glyph unicode="&#xd4;" horiz-adv-x="1560" d="M106 721q0 159 38 289.5t117 232.5t211 158.5t308 56.5q142 0 255.5 -37t191 -103t129 -159t75 -202t23.5 -236q0 -123 -25.5 -233.5t-79.5 -206t-132.5 -165t-191 -109.5t-247.5 -40q-171 0 -302 58t-210.5 161.5t-119.5 238t-40 296.5zM471 473q0 -49 2.5 -91.5t11 -92 t22 -90t37.5 -79t55 -64.5t77 -42t102 -16q57 0 103.5 16t78.5 43t56 68t38 84t22 98t11 104t3 107v354q0 102 -7 179t-27 150.5t-53.5 121t-89.5 76t-133 28.5q-58 0 -103.5 -15t-77.5 -40t-55.5 -65.5t-37.5 -84t-22 -104t-10.5 -117t-2.5 -129.5v-399zM580 1630l215 277 l213 -277l-25 -16l-188 241l-189 -241z" />
<glyph unicode="&#xd5;" horiz-adv-x="1560" d="M106 721q0 159 38 289.5t117 232.5t211 158.5t308 56.5q142 0 255.5 -37t191 -103t129 -159t75 -202t23.5 -236q0 -123 -25.5 -233.5t-79.5 -206t-132.5 -165t-191 -109.5t-247.5 -40q-171 0 -302 58t-210.5 161.5t-119.5 238t-40 296.5zM471 473q0 -49 2.5 -91.5t11 -92 t22 -90t37.5 -79t55 -64.5t77 -42t102 -16q57 0 103.5 16t78.5 43t56 68t38 84t22 98t11 104t3 107v354q0 102 -7 179t-27 150.5t-53.5 121t-89.5 76t-133 28.5q-58 0 -103.5 -15t-77.5 -40t-55.5 -65.5t-37.5 -84t-22 -104t-10.5 -117t-2.5 -129.5v-399zM618 1712 q0 59 33.5 106.5t100.5 47.5q41 0 81.5 -20t72.5 -48t62 -56.5t61.5 -48.5t60.5 -20q26 0 42.5 21t16.5 51q0 14 -2 20l14 9q4 -24 4 -37q0 -61 -40.5 -103.5t-102.5 -42.5q-46 0 -86.5 18t-68.5 44t-53.5 52t-55 44t-60.5 18q-30 0 -46.5 -20t-16.5 -51v-15l-12 -8 q-5 30 -5 39z" />
<glyph unicode="&#xd6;" horiz-adv-x="1560" d="M106 721q0 126 23 234t74.5 201.5t129 159.5t190.5 103.5t255 38.5l47 154l31 -8l-45 -148q103 -3 174 -22l53 178l31 -8l-53 -177q223 -65 330.5 -251.5t107.5 -454.5q0 -123 -25.5 -233.5t-79.5 -206t-132.5 -165t-191 -109.5t-247.5 -40q-171 0 -302 58t-210.5 161.5 t-119.5 238t-40 296.5zM471 473q0 -49 2.5 -91.5t11 -92t22 -90t37.5 -79t55 -64.5t77 -42t102 -16q57 0 103.5 16t78.5 43t56 68t38 84t22 98t11 104t3 107v354q0 167 -22 282.5t-79 182.5l-8 -26l-31 8l15 45q-61 55 -164 61l-35 -114l-31 8l33 108q-56 -1 -100 -17 t-74.5 -41.5t-53 -66t-36 -84t-21 -103t-10 -115t-2.5 -128.5v-399z" />
<glyph unicode="&#xd7;" horiz-adv-x="1185" d="M174 930l33 33l387 -385l385 385l33 -33l-385 -385l385 -387l-33 -33l-385 387l-385 -385l-33 33l385 385z" />
<glyph unicode="&#xd8;" horiz-adv-x="1560" d="M106 721q0 159 38 289.5t117 232.5t211 158.5t308 56.5q84 0 158 -12l55 180l29 -10l-55 -178q127 -27 221.5 -93t152 -161.5t85.5 -211t28 -251.5q0 -123 -25.5 -233.5t-79.5 -206t-132.5 -165t-191 -109.5t-247.5 -40q-131 0 -250 37l-49 -164l-30 8l51 168 q-197 77 -295.5 263.5t-98.5 441.5zM471 473q0 -224 64 -340l387 1262q-59 32 -142 32q-58 0 -103.5 -15t-77.5 -40t-55.5 -65.5t-37.5 -84t-22 -104t-10.5 -117t-2.5 -129.5v-399zM557 98q77 -100 221 -100q57 0 103.5 16t78.5 43t56 68t38 84t22 98t11 104t3 107v354 q0 190 -31 317t-111 187z" />
<glyph unicode="&#xd9;" horiz-adv-x="1568" d="M88 1393v30h418v-1005q0 -207 51 -312.5t164 -105.5q92 0 171 53.5t125 142.5t46 189v1008h-88v30h418v-1392h88v-31h-418v207q-10 -31 -36.5 -69t-69 -79t-108.5 -68.5t-140 -27.5q-90 0 -166 17t-145.5 58.5t-118 106t-77 165.5t-28.5 231v852h-86zM473 1819l29 12 l168 -545l-31 -6z" />
<glyph unicode="&#xda;" horiz-adv-x="1568" d="M88 1393v30h418v-1005q0 -207 51 -312.5t164 -105.5q92 0 171 53.5t125 142.5t46 189v1008h-88l-33 -113l-31 6l168 545l27 -12l-121 -396h408v-1392h88v-31h-418v207q-10 -31 -36.5 -69t-69 -79t-108.5 -68.5t-140 -27.5q-90 0 -166 17t-145.5 58.5t-118 106t-77 165.5 t-28.5 231v852h-86z" />
<glyph unicode="&#xdb;" horiz-adv-x="1568" d="M88 1393v30h418v-1005q0 -207 51 -312.5t164 -105.5q92 0 171 53.5t125 142.5t46 189v1008h-88v30h418v-1392h88v-31h-418v207q-10 -31 -36.5 -69t-69 -79t-108.5 -68.5t-140 -27.5q-90 0 -166 17t-145.5 58.5t-118 106t-77 165.5t-28.5 231v852h-86zM575 1626l213 277 l216 -277l-27 -16l-189 241l-188 -241z" />
<glyph unicode="&#xdc;" horiz-adv-x="1568" d="M88 1393v30h418v-1005q0 -207 51 -312.5t164 -105.5q92 0 171 53.5t125 142.5t46 189v1008h-88v2l-19 -62l-30 10l88 291l30 -6l-61 -205h410v-1392h88v-31h-418v207q-10 -31 -36.5 -69t-69 -79t-108.5 -68.5t-140 -27.5q-90 0 -166 17t-145.5 58.5t-118 106t-77 165.5 t-28.5 231v852h-86zM711 1343l90 291l30 -6l-90 -295z" />
<glyph unicode="&#xdd;" horiz-adv-x="1542" d="M74 1393v30h418v-845q0 -223 50 -320.5t165 -97.5q92 0 171 53.5t125 142.5t46 189v848h-86l-35 -115l-27 6l168 547l25 -10l-123 -398h407v-1749h-417v31h88v662q-10 -31 -36.5 -69t-69.5 -79t-109 -68.5t-140 -27.5q-90 0 -166 17t-145.5 58t-117.5 105.5t-76.5 165.5 t-28.5 231v693h-86z" />
<glyph unicode="&#xde;" horiz-adv-x="1599" d="M90 1393v30h412v-370q58 122 156 183.5t216 61.5q127 -1 238.5 -46t196.5 -127t134.5 -207.5t49.5 -278.5q0 -156 -49.5 -284.5t-134 -212.5t-196.5 -130t-239 -47q-118 0 -216 62t-156 184v-506h88v-31h-412v1719h-88zM502 344q0 -55 26.5 -114t72 -109t115 -82.5 t148.5 -32.5q68 0 117.5 28.5t79.5 75.5t47.5 121t24 151.5t6.5 180.5v137q0 103 -6.5 180.5t-24 151.5t-47.5 121t-79.5 75.5t-117.5 28.5q-143 0 -248.5 -99.5t-113.5 -237.5v-576z" />
<glyph unicode="&#xdf;" horiz-adv-x="1259" d="M-10 -467h35q9 -26 28.5 -42.5t44.5 -16.5q23 0 40.5 15.5t17.5 41.5v1210q0 73 2 129t8 125.5t17.5 122t31 110.5t47 100t67.5 82t90.5 65t118 40t148.5 15q184 0 306 -105t122 -272q0 -87 -25 -157.5t-81 -141.5q-86 -113 -86 -199q0 -49 25.5 -96.5t62 -86.5t72.5 -79 t61.5 -90.5t25.5 -103.5q0 -63 -35.5 -110.5t-93 -72.5t-118.5 -37t-125 -12q-103 0 -183 45q-59 35 -96 109t-37 143q0 30 13.5 68.5t41.5 70t60 31.5q33 0 58.5 -25.5t25.5 -60.5q0 -30 -15.5 -62t-34.5 -55.5t-34.5 -56t-15.5 -63.5q0 -42 37 -69t88 -37.5t114 -10.5 q25 0 52 4t58.5 13t51.5 29.5t20 49.5q0 18 -12 37.5t-24 33t-43 44.5q-8 8 -36 35.5t-40 40t-36 38t-35.5 43.5t-25.5 42t-20 46.5t-6 45.5q0 64 37.5 132.5t91 128.5t107 121t91 131.5t37.5 137.5q0 91 -34 161t-90.5 111t-123 61.5t-137.5 20.5q-60 0 -106 -19t-75 -57 t-48 -81.5t-28 -105.5t-12 -116t-3 -125v-1306q0 -129 -64 -191.5t-196 -62.5h-29q-110 0 -151 96z" />
<glyph unicode="&#xe0;" horiz-adv-x="1286" d="M113 543q0 71 13.5 141t44.5 140t77 126t117 97.5t159 56.5l-108 352l28 12l109 -360q46 4 72 4q230 0 367.5 -153t137.5 -420v-469q0 -26 17.5 -42t40.5 -16q25 0 45 17t29 43h34q-41 -97 -157 -97h-11q-58 0 -104 10t-73 25t-47 37t-29 41t-15 43q-82 -158 -256 -158 q-155 0 -268 76t-168 203.5t-55 290.5zM397 444q0 -94 5.5 -160.5t20 -121t40 -86.5t64.5 -49t94 -17q54 0 101 27.5t75.5 68t44.5 83t16 75.5v391q0 54 -1 90.5t-6 85t-14.5 80.5t-26.5 66.5t-41.5 55t-61.5 33.5t-84 13q-33 0 -60 -6l47 -149l-28 -6l-47 149 q-42 -14 -70.5 -43.5t-42.5 -73t-19.5 -89t-5.5 -105.5v-312z" />
<glyph unicode="&#xe1;" horiz-adv-x="1286" d="M113 543q0 79 16.5 156t55 153t96 133t146.5 92t198 35q37 0 77 -6l111 362l27 -12l-109 -354q185 -34 292 -182t107 -381v-469q0 -26 17.5 -42t40.5 -16q25 0 45 17t29 43h34q-41 -97 -157 -97h-11q-58 0 -104 10t-73 25t-47 37t-29 41t-15 43q-82 -158 -256 -158 q-149 0 -261.5 75.5t-171 204t-58.5 290.5zM397 444q0 -94 5.5 -160.5t20 -121t40 -86.5t64.5 -49t94 -17q54 0 101 27.5t75.5 68t44.5 83t16 75.5v391q0 52 -1.5 87.5t-5.5 82t-13.5 79t-24 65.5t-38.5 56t-56 36l-43 -143l-31 6l45 147q-40 8 -67 8q-57 0 -98.5 -17.5 t-65.5 -45t-38.5 -71.5t-19 -87.5t-4.5 -101.5v-312z" />
<glyph unicode="&#xe2;" horiz-adv-x="1286" d="M113 543q0 79 16.5 156t55 153t96 133t146.5 92t198 35q230 0 367.5 -153t137.5 -420v-469q0 -26 17.5 -42t40.5 -16q25 0 45 17t29 43h34q-41 -97 -157 -97h-11q-58 0 -104 10t-73 25t-47 37t-29 41t-15 43q-82 -158 -256 -158q-227 0 -359 155.5t-132 414.5zM397 444 q0 -94 5.5 -160.5t20 -121t40 -86.5t64.5 -49t94 -17q54 0 101 27.5t75.5 68t44.5 83t16 75.5v391q0 54 -1 90.5t-6 85t-14.5 80.5t-26.5 66.5t-41.5 55t-61.5 33.5t-84 13q-57 0 -98.5 -17.5t-65.5 -45t-38.5 -71.5t-19 -87.5t-4.5 -101.5v-312zM428 1282l213 277l215 -277 l-27 -16l-188 241l-188 -241z" />
<glyph unicode="&#xe3;" horiz-adv-x="1286" d="M113 543q0 79 16.5 156t55 153t96 133t146.5 92t198 35q230 0 367.5 -153t137.5 -420v-469q0 -26 17.5 -42t40.5 -16q25 0 45 17t29 43h34q-41 -97 -157 -97h-11q-58 0 -104 10t-73 25t-47 37t-29 41t-15 43q-82 -158 -256 -158q-119 0 -213.5 43.5t-154.5 121 t-91.5 180.5t-31.5 225zM397 444q0 -94 5.5 -160.5t20 -121t40 -86.5t64.5 -49t94 -17q54 0 101 27.5t75.5 68t44.5 83t16 75.5v391q0 54 -1 90.5t-6 85t-14.5 80.5t-26.5 66.5t-41.5 55t-61.5 33.5t-84 13q-57 0 -98.5 -17.5t-65.5 -45t-38.5 -71.5t-19 -87.5t-4.5 -101.5 v-312zM469 1368q0 59 33 106.5t100 47.5q41 0 81.5 -20t72.5 -48t62 -56.5t61.5 -48.5t60.5 -20q26 0 42.5 21t16.5 51q0 14 -2 20l15 9q4 -24 4 -37q0 -61 -41 -103.5t-103 -42.5q-46 0 -86 18t-68.5 44t-54 52t-54.5 44t-60 18q-30 0 -47 -20.5t-17 -50.5v-15l-12 -8 q-4 24 -4 39z" />
<glyph unicode="&#xe4;" horiz-adv-x="1286" d="M113 543q0 75 15 148.5t50 146.5t86.5 130t131.5 95.5t179 46.5l50 158l30 -6l-47 -152q3 0 8.5 1t8.5 1q82 0 159 -22l54 178l30 -6l-55 -183q150 -55 233.5 -194.5t83.5 -345.5v-469q0 -26 17.5 -42t40.5 -16q25 0 45 17t29 43h34q-41 -97 -157 -97h-11q-58 0 -104 10 t-73 25t-47 37t-29 41t-15 43q-82 -158 -256 -158q-119 0 -213.5 43.5t-154.5 121t-91.5 180.5t-31.5 225zM397 444q0 -94 5.5 -160.5t20 -121t40 -86.5t64.5 -49t94 -17q54 0 101 27.5t75.5 68t44.5 83t16 75.5v391q0 124 -13 210t-54 141l-11 -39l-30 10l16 55 q-50 47 -143 47q-17 0 -25 -2l-33 -110l-30 10l28 96q-51 -10 -85 -38t-51 -73t-23.5 -93t-6.5 -113v-312z" />
<glyph unicode="&#xe5;" horiz-adv-x="1286" d="M113 543q0 79 16.5 156t55 153t96 133t146.5 92t198 35q230 0 367.5 -153t137.5 -420v-469q0 -26 17.5 -42t40.5 -16q25 0 45 17t29 43h34q-41 -97 -157 -97h-11q-58 0 -104 10t-73 25t-47 37t-29 41t-15 43q-82 -158 -256 -158q-119 0 -213.5 43.5t-154.5 121 t-91.5 180.5t-31.5 225zM397 444q0 -94 5.5 -160.5t20 -121t40 -86.5t64.5 -49t94 -17q54 0 101 27.5t75.5 68t44.5 83t16 75.5v391q0 54 -1 90.5t-6 85t-14.5 80.5t-26.5 66.5t-41.5 55t-61.5 33.5t-84 13q-57 0 -98.5 -17.5t-65.5 -45t-38.5 -71.5t-19 -87.5t-4.5 -101.5 v-312zM453 1475q0 81 55 136.5t135 55.5q82 0 137.5 -55t55.5 -137q0 -80 -56 -135.5t-137 -55.5q-79 0 -134.5 55.5t-55.5 135.5zM483 1475q0 -65 47.5 -112.5t112.5 -47.5q66 0 113 47.5t47 112.5q0 66 -47 112.5t-113 46.5q-65 0 -112.5 -46.5t-47.5 -112.5z" />
<glyph unicode="&#xe6;" horiz-adv-x="1810" d="M98 401q0 87 26 156t68.5 113t100 73t116.5 40.5t123 11.5q106 0 167.5 -40.5t84.5 -95.5v86q0 47 -1.5 78t-7 69.5t-16 63t-29 49.5t-45.5 39.5t-66.5 23.5t-90.5 9q-121 0 -227 -37l-14 29q108 49 268 49q258 0 363 -108q9 -9 16 -2q63 56 136 80t177 24 q224 0 342.5 -118.5t118.5 -338.5v-45q0 -21 -10.5 -29t-44.5 -8h-572v-188q0 -178 64.5 -273.5t175.5 -95.5q53 0 98 10.5t90 35.5t82 73.5t62 118.5l33 -14q-28 -65 -60 -110t-79.5 -80t-114.5 -51.5t-158 -16.5q-218 0 -346 116q-8 8 -17 0q-58 -61 -145 -92t-236 -31 q-94 0 -169 26t-123.5 68t-80.5 98.5t-45.5 114.5t-13.5 119zM393 266q0 -37 1 -60.5t5.5 -57.5t15.5 -55t28.5 -42t46 -31t67.5 -10q61 0 104 15t66.5 37.5t37.5 61.5t18 73t5 86v254q0 28 -4 54.5t-18.5 58.5t-38 55t-66.5 39t-100 16q-28 0 -50 -5t-39 -12.5t-29.5 -22.5 t-21 -27.5t-14 -36t-8.5 -39t-4.5 -45t-1.5 -46.5v-51v-209zM1081 606h312q30 0 36.5 7t6.5 42v23q0 45 -0.5 69t-2 64.5t-4.5 63.5t-9.5 55.5t-16 51t-24 40.5t-33 33t-43.5 18.5t-56 7.5q-34 0 -61.5 -12t-44.5 -29t-29 -45t-18 -50.5t-9 -54.5t-3.5 -48t-0.5 -41v-195z " />
<glyph unicode="&#xe7;" horiz-adv-x="1091" d="M113 547v16q0 68 12.5 136.5t38.5 136t73 124t109 89.5q120 63 260 63q191 0 298.5 -75.5t107.5 -194.5q0 -58 -38.5 -101t-119.5 -43q-66 0 -109 41t-43 99q0 27 11 49q16 33 67 71q21 17 21 29q0 36 -30.5 59t-68 30t-81.5 7q-50 0 -88.5 -21.5t-60 -52t-35 -70.5 t-17.5 -71t-4 -59v-518q0 -114 61.5 -195.5t153.5 -81.5q121 0 197.5 54.5t125.5 181.5l31 -8q-13 -39 -28 -69.5t-45.5 -69t-70 -63.5t-103.5 -42.5t-144 -17.5q-114 0 -200 30.5t-138.5 80.5t-85.5 125t-45 154t-12 177zM387 -424l27 16q55 -73 133 -73q64 0 114 47 t50 112q0 57 -42 104t-102 56l4 33q74 -9 123 -65t49 -130t-57.5 -131t-136.5 -57q-46 0 -89 24t-73 64z" />
<glyph unicode="&#xe8;" horiz-adv-x="1161" d="M123 467v170q0 168 53 272q40 80 123 130t193 65l-109 352l29 12l108 -360q50 4 74 4q227 0 349.5 -120t113.5 -337l-2 -45q-2 -22 -12 -29.5t-44 -7.5h-571v-188q0 -178 64.5 -273.5t175.5 -95.5q72 0 129.5 18t113 73t88.5 147l33 -14q-28 -65 -60 -110t-79 -80 t-114 -51.5t-158 -16.5q-250 0 -374 116.5t-124 368.5zM428 606h311q30 0 36.5 7t6.5 42v23q0 69 -1 103.5t-6 91t-17 86t-32 62t-53 46.5t-79 14q-35 0 -62 -12l46 -145l-29 -6l-43 137q-78 -57 -78 -254v-195z" />
<glyph unicode="&#xe9;" horiz-adv-x="1157" d="M123 467v170q0 172 53 272q51 99 162 151t256 52q34 0 100 -8l113 364l27 -12l-109 -356q161 -32 245.5 -146t84.5 -299v-45q0 -21 -11 -29t-45 -8h-571v-188q0 -178 64.5 -273.5t175.5 -95.5q72 0 129.5 18t113 73t88.5 147l33 -14q-28 -65 -60 -110t-79 -80t-114 -51.5 t-158 -16.5q-250 0 -374 116.5t-124 368.5zM428 606h311q30 0 36.5 7t6.5 42v23q0 78 -1.5 115.5t-7.5 94.5t-22.5 93.5t-43.5 60.5l-37 -124l-31 6l41 137q-38 20 -86 20q-34 0 -61.5 -12t-44.5 -29t-29 -45t-18 -50.5t-9 -54.5t-3.5 -48t-0.5 -41v-195z" />
<glyph unicode="&#xea;" horiz-adv-x="1157" d="M123 467v170q0 168 53 272q51 99 162 151t256 52q224 0 342.5 -118.5t118.5 -338.5v-45q0 -21 -11 -29t-45 -8h-571v-188q0 -178 64.5 -273.5t175.5 -95.5q72 0 129.5 18t113 73t88.5 147l33 -14q-28 -65 -60 -110t-79 -80t-114 -51.5t-158 -16.5q-250 0 -374 116.5 t-124 368.5zM397 1282l213 277l215 -277l-24 -16l-191 241l-188 -241zM428 606h311q30 0 36.5 7t6.5 42v23q0 69 -1 103.5t-6 91t-17 86t-32 62t-53 46.5t-79 14q-34 0 -61.5 -12t-44.5 -29t-29 -45t-18 -50.5t-9 -54.5t-3.5 -48t-0.5 -41v-195z" />
<glyph unicode="&#xeb;" horiz-adv-x="1157" d="M123 467v170q0 168 53 272q51 99 162 151t256 52h8l49 154l31 -6l-45 -150q91 -3 170 -35l57 191l31 -6l-59 -197q219 -107 219 -408v-45q0 -21 -11 -29t-45 -8h-571v-188q0 -178 64.5 -273.5t175.5 -95.5q72 0 129.5 18t113 73t88.5 147l33 -14q-28 -65 -60 -110 t-79 -80t-114 -51.5t-158 -16.5q-250 0 -374 116.5t-124 368.5zM428 606h311q30 0 36.5 7t6.5 42v23q0 56 -0.5 83t-3 76t-8 74t-17 60t-27.5 53.5t-41 34t-58 20.5l-35 -114l-31 10l33 106q-34 0 -61.5 -12t-44.5 -29t-29 -45t-18 -50.5t-9 -54.5t-3.5 -48t-0.5 -41v-195z " />
<glyph unicode="&#xec;" horiz-adv-x="585" d="M82 1051v30h358v-1011q0 -26 17.5 -42t40.5 -16q51 0 73 60h35q-41 -97 -153 -97h-25q-133 0 -195.5 58t-62.5 186v832h-88zM96 1851l29 11l166 -543l-29 -8z" />
<glyph unicode="&#xed;" horiz-adv-x="585" d="M82 1051v30h358v-1011q0 -26 17.5 -42t40.5 -16q51 0 73 60h35q-41 -97 -153 -97h-25q-133 0 -195.5 58t-62.5 186v832h-88zM285 1319l168 543l28 -11l-166 -540z" />
<glyph unicode="&#xee;" horiz-adv-x="587" d="M82 1292l215 277l213 -277l-25 -16l-188 240l-188 -240zM84 1051v30h358v-1011q0 -26 17.5 -42t40.5 -16q51 0 73 60h35q-41 -97 -153 -97h-25q-133 0 -195.5 58t-62.5 186v832h-88z" />
<glyph unicode="&#xef;" horiz-adv-x="595" d="M82 1051v30h358v-1011q0 -26 17.5 -42t40.5 -16q51 0 73 60h35q-41 -97 -153 -97h-25q-133 0 -195.5 58t-62.5 186v832h-88zM283 1229l90 291l30 -7l-90 -294zM498 1229l90 291l28 -7l-88 -294z" />
<glyph unicode="&#xf0;" horiz-adv-x="1265" d="M113 551q0 95 16 177t52.5 153.5t90 122t133 79.5t177.5 29q111 0 178 -47.5t98 -112.5v97q0 69 -3 121.5t-12 113.5t-27.5 104.5t-47 81.5t-73 57.5t-103.5 20.5l-160 -211l-22 15l149 196q-106 -5 -199 -51l-14 27q94 57 244 65l164 215l20 -18l-149 -195h26 q116 0 211 -51t155.5 -137.5t93 -198.5t32.5 -237v-445q0 -109 -31 -203t-94 -171.5t-171.5 -122.5t-250.5 -45q-108 0 -193 34.5t-138.5 90t-88.5 132t-49 153.5t-14 161zM410 401q0 -74 5 -128.5t18.5 -105.5t36.5 -83t61.5 -51t91.5 -19q63 0 110 34t73.5 92t39 127 t12.5 147v409q0 29 -9 61.5t-30 67.5t-51.5 62.5t-78 45t-105.5 17.5q-28 0 -51.5 -8t-40.5 -19t-30.5 -33t-22 -40.5t-14.5 -51t-9 -54.5t-4.5 -62t-1.5 -62v-65v-281z" />
<glyph unicode="&#xf1;" horiz-adv-x="1263" d="M82 0v29h88v1022h-88v30h358v-147q7 16 15.5 32t30.5 44.5t48 49t68.5 36.5t91.5 16q115 0 198.5 -36t129 -99t66 -136.5t20.5 -160.5v-610q0 -26 17 -42t40 -16q25 0 45 17t29 43h35q-41 -97 -154 -97h-24q-133 0 -196.5 58t-63.5 186v588q0 32 -1.5 57.5t-5.5 59.5 t-14 59t-25 48.5t-39.5 35.5t-56.5 12q-56 0 -101 -21t-73 -53t-46.5 -74t-26 -81t-7.5 -76v-745h88v-29h-446zM473 1348q0 59 33 106t100 47q41 0 81.5 -20t72.5 -48t62 -56t61.5 -48t60.5 -20q26 0 43 20.5t17 50.5q0 12 -3 21l15 8q4 -24 4 -37q0 -61 -40.5 -103 t-102.5 -42q-46 0 -86.5 18t-68.5 44t-53.5 52t-55 44t-60.5 18q-30 0 -47 -20.5t-17 -51.5v-14l-12 -8q-4 24 -4 39z" />
<glyph unicode="&#xf2;" horiz-adv-x="1267" d="M113 549q0 101 25 191.5t74.5 166.5t131 128t186.5 69l-108 352l29 12l108 -360q50 4 74 4q107 0 195 -31.5t147.5 -85.5t101 -126.5t60 -153t18.5 -166.5q0 -112 -33 -213t-96 -181t-164.5 -127.5t-228.5 -47.5q-106 0 -193.5 31t-147.5 84.5t-101 126.5t-59.5 155 t-18.5 172zM414 360q0 -348 219 -348q221 0 221 348v310q0 78 -4.5 134t-18 110.5t-37.5 88t-64.5 54t-96.5 20.5q-38 0 -62 -8l45 -145l-28 -6l-45 141q-76 -34 -102.5 -130.5t-26.5 -258.5v-310z" />
<glyph unicode="&#xf3;" horiz-adv-x="1267" d="M113 549q0 113 31.5 212t93 178.5t163.5 126t232 46.5q43 0 80 -6l112 362l27 -12l-109 -354q104 -18 185 -72t129.5 -130.5t73 -165.5t24.5 -185q0 -112 -33 -213t-96 -181t-164.5 -127.5t-228.5 -47.5q-106 0 -193.5 31t-147.5 84.5t-101 126.5t-59.5 155t-18.5 172z M414 360q0 -348 219 -348q221 0 221 348v310q0 160 -25.5 256t-97.5 131l-43 -139l-31 6l43 143q-33 10 -67 10q-55 0 -95 -20.5t-63.5 -54t-37.5 -88t-18.5 -111t-4.5 -133.5v-310z" />
<glyph unicode="&#xf4;" horiz-adv-x="1267" d="M113 549q0 113 31.5 212t93 178.5t163.5 126t232 46.5q107 0 195 -31.5t147.5 -85.5t101 -126.5t60 -153t18.5 -166.5q0 -112 -33 -213t-96 -181t-164.5 -127.5t-228.5 -47.5q-106 0 -193.5 31t-147.5 84.5t-101 126.5t-59.5 155t-18.5 172zM414 360q0 -348 219 -348 q221 0 221 348v310q0 78 -4.5 134t-18 110.5t-37.5 88t-64.5 54t-96.5 20.5q-55 0 -95 -20.5t-63.5 -54t-37.5 -88t-18.5 -111t-4.5 -133.5v-310zM430 1282l213 277l215 -277l-27 -16l-188 241l-188 -241z" />
<glyph unicode="&#xf5;" horiz-adv-x="1267" d="M113 549q0 113 31.5 212t93 178.5t163.5 126t232 46.5q107 0 195 -31.5t147.5 -85.5t101 -126.5t60 -153t18.5 -166.5q0 -112 -33 -213t-96 -181t-164.5 -127.5t-228.5 -47.5q-106 0 -193.5 31t-147.5 84.5t-101 126.5t-59.5 155t-18.5 172zM414 360q0 -348 219 -348 q221 0 221 348v310q0 78 -4.5 134t-18 110.5t-37.5 88t-64.5 54t-96.5 20.5q-55 0 -95 -20.5t-63.5 -54t-37.5 -88t-18.5 -111t-4.5 -133.5v-310zM487 1348q0 59 33.5 106t100.5 47q41 0 81.5 -20t72 -48t61.5 -56t61.5 -48t60.5 -20q26 0 43 20.5t17 50.5q0 15 -2 21l14 8 q4 -24 4 -37q0 -61 -40.5 -103t-102.5 -42q-46 0 -86.5 18t-68.5 44t-53.5 52t-55 44t-60.5 18q-30 0 -46.5 -20.5t-16.5 -51.5v-14l-12 -8q-5 30 -5 39z" />
<glyph unicode="&#xf6;" horiz-adv-x="1267" d="M113 549q0 107 28.5 202t84 173t148 127.5t210.5 58.5l49 158l31 -6l-46 -150h15q78 0 160 -20l53 176l31 -6l-54 -181q164 -57 248 -204t84 -328q0 -112 -33 -213t-96 -181t-164.5 -127.5t-228.5 -47.5q-106 0 -193.5 31t-147.5 84.5t-101 126.5t-59.5 155t-18.5 172z M414 360q0 -348 219 -348q221 0 221 348v310q0 238 -57 325l-9 -28l-30 10l14 49q-51 51 -139 51q-19 0 -27 -2l-33 -108l-30 10l28 92q-93 -24 -125 -123t-32 -276v-310z" />
<glyph unicode="&#xf7;" horiz-adv-x="1417" d="M139 539v47h1141v-47h-1141zM561 213q0 59 38.5 97t96.5 38t96.5 -38t38.5 -97t-38.5 -97t-96.5 -38t-96.5 38t-38.5 97zM561 907q0 59 38.5 97t96.5 38t96.5 -38t38.5 -97t-38.5 -97t-96.5 -38t-96.5 38t-38.5 97z" />
<glyph unicode="&#xf8;" horiz-adv-x="1267" d="M113 549q0 113 31.5 212t93 178.5t163.5 126t232 46.5q79 0 147 -18l68 200l29 -10l-66 -199q115 -36 194.5 -121.5t114.5 -190.5t35 -224q0 -112 -33 -213t-96 -181t-164.5 -127.5t-228.5 -47.5q-96 0 -182 26l-72 -219l-31 8l74 221q-104 41 -175 125t-102.5 187 t-31.5 221zM414 360q0 -153 43 -239l305 915q-50 41 -129 41q-55 0 -95 -20.5t-63.5 -54t-37.5 -88t-18.5 -111t-4.5 -133.5v-310zM477 86q54 -74 156 -74q221 0 221 348v310q0 253 -68 342z" />
<glyph unicode="&#xf9;" horiz-adv-x="1253" d="M72 1051v30h358v-790q0 -33 1.5 -58.5t5.5 -60.5t14 -61t25 -50t40 -36.5t57 -12.5q56 0 101 21t73 53t46.5 74t26 81t7.5 76v736h-88v28h359v-1007q0 -26 17 -42t40 -16q25 0 45 17t29 43h35q-41 -96 -154 -96h-25q-124 0 -187 49.5t-71 128.5q-7 -16 -15.5 -32 t-30.5 -44.5t-48 -49t-68.5 -36.5t-91.5 -16q-93 0 -165.5 24t-118 64.5t-75.5 97t-42 117t-12 129.5v639h-88zM403 1456l29 12l166 -544l-29 -6z" />
<glyph unicode="&#xfa;" horiz-adv-x="1253" d="M72 1051v30h358v-790q0 -33 1.5 -58.5t5.5 -60.5t14 -61t25 -50t40 -36.5t57 -12.5q56 0 101 21t73 53t46.5 74t26 81t7.5 76v736h-47l-41 -135l-30 6l168 544l26 -12l-115 -375h310v-1007q0 -26 17 -42t40 -16q25 0 45 17t29 43h35q-41 -96 -158 -96h-10 q-128 0 -194.5 49.5t-74.5 128.5q-7 -16 -15.5 -32t-30.5 -44.5t-48 -49t-68.5 -36.5t-91.5 -16q-93 0 -165.5 24t-118 64.5t-75.5 97t-42 117t-12 129.5v639h-88z" />
<glyph unicode="&#xfb;" horiz-adv-x="1253" d="M72 1051v30h358v-790q0 -33 1.5 -58.5t5.5 -60.5t14 -61t25 -50t40 -36.5t57 -12.5q56 0 101 21t73 53t46.5 74t26 81t7.5 76v736h-88v28h359v-1007q0 -26 17 -42t40 -16q25 0 45 17t29 43h35q-41 -96 -154 -96h-25q-124 0 -187 49.5t-71 128.5q-7 -16 -15.5 -32 t-30.5 -44.5t-48 -49t-68.5 -36.5t-91.5 -16q-93 0 -165.5 24t-118 64.5t-75.5 97t-42 117t-12 129.5v639h-88zM424 1282l213 277l215 -277l-27 -16l-188 241l-188 -241z" />
<glyph unicode="&#xfc;" horiz-adv-x="1253" d="M72 1051v30h358v-790q0 -33 1.5 -58.5t5.5 -60.5t14 -61t25 -50t40 -36.5t57 -12.5q56 0 101 21t73 53t46.5 74t26 81t7.5 76v736h-36l-25 -86l-31 10l88 291l31 -6l-55 -181h299v-1007q0 -26 17 -42t40 -16q25 0 45 17t29 43h35q-41 -96 -158 -96h-10 q-128 0 -194.5 49.5t-74.5 128.5q-7 -16 -15.5 -32t-30.5 -44.5t-48 -49t-68.5 -36.5t-91.5 -16q-93 0 -165.5 24t-118 64.5t-75.5 97t-42 117t-12 129.5v639h-88zM520 977l90 291l31 -6l-90 -295z" />
<glyph unicode="&#xfd;" horiz-adv-x="1236" d="M72 1051v30h358v-798q0 -32 1.5 -57t5.5 -59.5t13.5 -59.5t24.5 -48t39.5 -35t56.5 -12q56 0 101 21t73 53t46.5 74t26 81t7.5 76v736h-67l-43 -140l-27 7l168 546l25 -10l-115 -375h328v-1194q0 -89 -14.5 -160.5t-36.5 -117t-56 -78.5t-63.5 -49.5t-70 -26t-65 -11 t-57.5 -1.5q-154 0 -256 76t-102 184q0 44 34 74t87 30q42 0 75 -31.5t33 -76.5q0 -24 -9.5 -43t-22.5 -30t-26 -20t-22.5 -19.5t-9.5 -22.5q0 -30 52 -59t104 -29q26 0 47 6t36.5 14.5t27.5 25t19.5 29.5t13 37.5t8 40t4 44.5t1.5 43.5v45.5v396q-7 -16 -15.5 -32 t-30.5 -44.5t-48 -49t-68.5 -36.5t-91.5 -16q-93 0 -165 24t-117.5 64t-75 96.5t-41.5 116t-12 127.5v643h-88z" />
<glyph unicode="&#xfe;" horiz-adv-x="1298" d="M82 1542v31h358v-621q31 65 98.5 112.5t178.5 47.5q125 0 228 -53.5t163 -149.5q78 -126 78 -364q0 -239 -78 -365q-60 -96 -163 -149.5t-228 -53.5q-111 0 -178.5 47.5t-98.5 112.5v-639h88v-30h-358v2074h-88zM440 266q0 -37 15.5 -79t46 -82t86.5 -66.5t127 -26.5 q32 0 57.5 9t43.5 31.5t30.5 43.5t20.5 63t12.5 71.5t6.5 87t2.5 91t0.5 101.5v78v81t-1 74.5t-3.5 71.5t-6.5 62.5t-10.5 58.5t-16 47t-22.5 41t-29 28t-37.5 19.5t-47.5 5.5q-71 0 -127 -26.5t-86.5 -66.5t-46 -82t-15.5 -79v-557z" />
<glyph unicode="&#xff;" horiz-adv-x="1236" d="M72 1051v30h358v-798q0 -32 1.5 -57t5.5 -59.5t13.5 -59.5t24.5 -48t39.5 -35t56.5 -12q56 0 101 21t73 53t46.5 74t26 81t7.5 76v736h-34l-25 -86l-31 10l88 291l31 -6l-55 -181h295v-1194q0 -89 -14.5 -160.5t-36.5 -117t-56 -78.5t-63.5 -49.5t-70 -26t-65 -11 t-57.5 -1.5q-154 0 -256 76t-102 184q0 44 34 74t87 30q42 0 75 -31.5t33 -76.5q0 -24 -9.5 -43t-22.5 -30t-26 -20t-22.5 -19.5t-9.5 -22.5q0 -30 52 -59t104 -29q26 0 47 6t36.5 14.5t27.5 25t19.5 29.5t13 37.5t8 40t4 44.5t1.5 43.5v45.5v396q-7 -16 -15.5 -32 t-30.5 -44.5t-48 -49t-68.5 -36.5t-91.5 -16q-93 0 -165 24t-117.5 64t-75 96.5t-41.5 116t-12 127.5v643h-88zM520 977l90 291l31 -6l-90 -295z" />
<glyph unicode="&#x152;" horiz-adv-x="2170" d="M106 721q0 159 38 289.5t117 232.5t211 158.5t308 56.5q288 0 459 -151q15 -12 29 2q159 153 420 153q75 0 144.5 -19t114.5 -46.5t80 -55t51 -46.5l15 -19l-27 -19q-73 84 -166 126t-192 42q-77 0 -129.5 -28t-81 -84t-40 -126t-11.5 -167v-246h409l-2 -37h-407v-295 q0 -96 13 -170.5t43 -136.5t86 -95.5t136 -33.5q95 0 199.5 53t167.5 146l25 -19q-68 -97 -183 -157t-278 -60q-97 0 -204 39.5t-194 126.5q-11 11 -22 0q-168 -168 -457 -168q-171 0 -302 58t-210.5 161.5t-119.5 238t-40 296.5zM471 473q0 -49 2.5 -91.5t11 -92t22 -90 t37.5 -79t55 -64.5t77 -42t102 -16q57 0 103.5 16t78.5 43t56 68t38 84t22 98t11 104t3 107v354q0 102 -7 179t-27 150.5t-53.5 121t-89.5 76t-133 28.5q-58 0 -103.5 -15t-77.5 -40t-55.5 -65.5t-37.5 -84t-22 -104t-10.5 -117t-2.5 -129.5v-399z" />
<glyph unicode="&#x153;" horiz-adv-x="1888" d="M113 549q0 113 31.5 212t93 178.5t163.5 126t232 46.5q202 0 332 -108q11 -8 16 -3q126 111 344 111q224 0 342.5 -118.5t118.5 -338.5v-45q0 -21 -10.5 -29t-44.5 -8h-572v-188q0 -178 64.5 -273.5t175.5 -95.5q53 0 98 10.5t90 35.5t82 73.5t62 118.5l32 -14 q-28 -65 -60 -110t-79 -80t-114 -51.5t-158 -16.5q-235 0 -363 116q-8 8 -16 0q-118 -118 -340 -118q-106 0 -193.5 31t-147.5 84.5t-101 126.5t-59.5 155t-18.5 172zM414 360q0 -348 219 -348q221 0 221 348v310q0 78 -4.5 134t-18 110.5t-37.5 88t-64.5 54t-96.5 20.5 q-55 0 -95 -20.5t-63.5 -54t-37.5 -88t-18.5 -111t-4.5 -133.5v-310zM1159 606h311q30 0 36.5 7t6.5 42v23q0 69 -1 103.5t-6 91t-17 86t-32 62t-53 46.5t-79 14q-34 0 -61.5 -12t-44.5 -29t-29 -45t-18 -50.5t-9 -54.5t-3.5 -48t-0.5 -41v-195z" />
<glyph unicode="&#x178;" horiz-adv-x="1542" d="M74 1393v30h418v-845q0 -223 50 -320.5t165 -97.5q92 0 171 53.5t125 142.5t46 189v848h-82l-17 -60l-30 10l88 291l30 -6l-61 -205h401v-1749h-417v31h88v662q-10 -31 -36.5 -69t-69.5 -79t-109 -68.5t-140 -27.5q-526 0 -534 577v693h-86zM705 1343l90 291l30 -6 l-90 -295z" />
<glyph unicode="&#x2c6;" horiz-adv-x="1021" d="M297 1063l215 276l213 -276l-25 -16l-188 239l-188 -239z" />
<glyph unicode="&#x2dc;" horiz-adv-x="1142" d="M297 1210q0 59 33 106.5t100 47.5q41 0 81.5 -20t72.5 -48t62 -56.5t61.5 -48.5t60.5 -20q26 0 42.5 21t16.5 51q0 15 -2 21l15 8q4 -24 4 -37q0 -61 -41 -103t-103 -42q-46 0 -86 18t-68.5 44t-54 52t-54.5 44t-60 18q-30 0 -47 -20.5t-17 -51.5v-14l-12 -9q-4 24 -4 39 z" />
<glyph unicode="&#x2000;" horiz-adv-x="1102" />
<glyph unicode="&#x2001;" horiz-adv-x="2204" />
<glyph unicode="&#x2002;" horiz-adv-x="1102" />
<glyph unicode="&#x2003;" horiz-adv-x="2204" />
<glyph unicode="&#x2004;" horiz-adv-x="734" />
<glyph unicode="&#x2005;" horiz-adv-x="551" />
<glyph unicode="&#x2006;" horiz-adv-x="367" />
<glyph unicode="&#x2007;" horiz-adv-x="367" />
<glyph unicode="&#x2008;" horiz-adv-x="275" />
<glyph unicode="&#x2009;" horiz-adv-x="440" />
<glyph unicode="&#x200a;" horiz-adv-x="122" />
<glyph unicode="&#x2010;" horiz-adv-x="710" d="M113 436v168h485l-2 -168h-483z" />
<glyph unicode="&#x2011;" horiz-adv-x="710" d="M113 436v168h485l-2 -168h-483z" />
<glyph unicode="&#x2012;" horiz-adv-x="710" d="M113 436v168h485l-2 -168h-483z" />
<glyph unicode="&#x2013;" horiz-adv-x="1165" d="M10 473v62h1145v-62h-1145z" />
<glyph unicode="&#x2014;" horiz-adv-x="2424" d="M10 473v62h2405v-62h-2405z" />
<glyph unicode="&#x2018;" horiz-adv-x="512" d="M113 1247q0 57 16 103q22 59 58 106t106 90l16 -18q-68 -40 -117 -107t-49 -147q0 -55 25 -55q17 0 43 26q27 27 65 27q48 0 85.5 -38t37.5 -89q0 -54 -39.5 -95.5t-95.5 -41.5q-49 0 -84.5 38.5t-51 91t-15.5 109.5z" />
<glyph unicode="&#x2019;" horiz-adv-x="512" d="M113 1395q0 54 39.5 95.5t95.5 41.5q49 0 84.5 -39t51 -91.5t15.5 -109.5q0 -56 -16 -102q-22 -59 -58 -106.5t-106 -90.5l-16 19q68 40 117 107t49 147q0 55 -25 55q-16 0 -43 -27q-26 -26 -65 -26q-48 0 -85.5 38t-37.5 89z" />
<glyph unicode="&#x201a;" horiz-adv-x="512" d="M113 94q0 54 39.5 95.5t95.5 41.5q49 0 84.5 -38.5t51 -91t15.5 -109.5t-16 -103q-22 -59 -58 -106t-106 -90l-16 18q68 40 117 107t49 147q0 55 -25 55q-17 0 -43 -26q-27 -27 -65 -27q-48 0 -85.5 38t-37.5 89z" />
<glyph unicode="&#x201c;" horiz-adv-x="937" d="M113 1247q0 57 16 103q22 59 58 106t106 90l16 -18q-68 -40 -117 -107t-49 -147q0 -55 25 -55q17 0 43 26q27 27 65 27q48 0 85.5 -38t37.5 -89q0 -54 -39.5 -95.5t-95.5 -41.5q-49 0 -84.5 38.5t-51 91t-15.5 109.5zM537 1247q0 57 16 103q22 59 58 106t106 90l16 -18 q-68 -40 -117 -107t-49 -147q0 -55 25 -55q17 0 43 26q27 27 65 27q48 0 85.5 -38t37.5 -89q0 -54 -39.5 -95.5t-95.5 -41.5q-49 0 -84.5 38.5t-51 91t-15.5 109.5z" />
<glyph unicode="&#x201d;" horiz-adv-x="937" d="M113 1395q0 54 39.5 95.5t95.5 41.5q49 0 84.5 -39t51 -91.5t15.5 -109.5q0 -56 -16 -102q-22 -59 -58 -106.5t-106 -90.5l-16 19q68 40 117 107t49 147q0 55 -25 55q-16 0 -43 -27q-26 -26 -65 -26q-48 0 -85.5 38t-37.5 89zM537 1395q0 54 39.5 95.5t95.5 41.5 q49 0 84.5 -39t51 -91.5t15.5 -109.5q0 -56 -16 -102q-22 -59 -58 -106.5t-106 -90.5l-16 19q68 40 117 107t49 147q0 55 -25 55q-16 0 -43 -27q-26 -26 -66 -26q-48 0 -85 38t-37 89z" />
<glyph unicode="&#x201e;" horiz-adv-x="940" d="M113 94q0 54 39.5 95.5t95.5 41.5q49 0 84.5 -38.5t51 -91t15.5 -109.5t-16 -103q-22 -59 -58 -106t-106 -90l-16 18q68 40 117 107t49 147q0 55 -25 55q-17 0 -43 -26q-27 -27 -65 -27q-48 0 -85.5 38t-37.5 89zM539 94q0 54 39.5 95.5t95.5 41.5q49 0 84.5 -38.5 t51 -91t15.5 -109.5t-16 -103q-22 -59 -58 -106t-106 -90l-16 18q68 40 117 107t49 147q0 55 -25 55q-17 0 -43 -26q-27 -27 -65 -27q-48 0 -85.5 38t-37.5 89z" />
<glyph unicode="&#x2022;" horiz-adv-x="745" d="M133 705q0 99 69.5 169t170.5 70t170 -70t69 -169q0 -102 -69 -173t-170 -71t-170.5 71t-69.5 173z" />
<glyph unicode="&#x2026;" horiz-adv-x="1822" d="M133 109q0 59 38.5 97t96.5 38t96.5 -38t38.5 -97t-38.5 -97.5t-96.5 -38.5t-96.5 38.5t-38.5 97.5zM772 109q0 59 38 97t97 38t97 -38t38 -97t-38.5 -97.5t-96.5 -38.5t-96.5 38.5t-38.5 97.5zM1419 109q0 59 38.5 97t96.5 38q59 0 97.5 -38.5t38.5 -96.5 q0 -59 -39 -97.5t-97 -38.5t-96.5 38.5t-38.5 97.5z" />
<glyph unicode="&#x202f;" horiz-adv-x="440" />
<glyph unicode="&#x2039;" horiz-adv-x="735" d="M76 530l551 431l32 -54l-479 -377l479 -376l-32 -52z" />
<glyph unicode="&#x203a;" horiz-adv-x="735" d="M76 154l481 376l-481 377l33 54l550 -431l-550 -428z" />
<glyph unicode="&#x205f;" horiz-adv-x="551" />
<glyph unicode="&#x20ac;" horiz-adv-x="1421" d="M57 457v30h150q-17 94 -17 189h-133v31h136q0 133 21.5 244t71.5 206.5t126.5 161.5t192 103.5t263.5 37.5q86 0 158 -16t119 -40.5t83.5 -58.5t56.5 -66t32.5 -66.5t16 -57.5t3.5 -41q0 -75 -44.5 -115.5t-114.5 -40.5q-68 0 -111 39t-43 109q0 38 14 65.5t34 42 t39.5 25.5t33.5 24t14 29q0 67 -83 102.5t-195 35.5q-69 0 -121 -15.5t-85.5 -48.5t-54.5 -71.5t-31.5 -98t-14 -113t-3.5 -129.5v-247h480l-4 -31h-476v-189h480l-4 -30h-476v-15q0 -436 316 -436q272 0 405 199l27 -19q-141 -217 -483 -217q-83 0 -156.5 13t-149 47.5 t-135 88t-108 140.5t-74.5 199h-156z" />
<glyph unicode="&#x2122;" horiz-adv-x="2306" d="M82 1409l8 164h758l6 -164h-29q0 46 -5.5 73.5t-19 40t-27 16t-38.5 3.5h-153v-680h59v-26h-344v26h59v680h-153q-27 0 -41 -3.5t-27.5 -16t-18.5 -40t-5 -73.5h-29zM922 836v26h61v680h-61v31h284v-100q56 104 180 116q87 12 155 -27t93 -112q20 53 81 96t128 43 q129 0 189.5 -75.5t60.5 -225.5v-364q0 -24 4 -39t13 -20.5t15.5 -7t18.5 -1.5q42 0 60 41h30q-27 -78 -118 -78h-29q-109 0 -163 47t-54 150v319v41t-1 38.5t-2.5 37.5t-4.5 32t-7.5 28.5t-11 20.5t-15.5 14.5t-20 4.5q-53 0 -105 -57t-52 -123v-510h61v-26h-346v26h61v500 q0 45 -2 71.5t-8.5 58t-22 46t-40.5 14.5q-52 0 -100 -57t-48 -123v-510h56v-26h-340z" />
<glyph unicode="&#x25fc;" horiz-adv-x="1116" d="M0 0v1116h1116v-1116h-1116z" />
</font>
</defs>
</svg>
